#TITLE:GEORGE;
#SUBTITLE:;
#ARTIST:Charisma.com;
#TITLETRANSLIT:;
#SUBTITLETRANSLIT:;
#ARTISTTRANSLIT:;
#GENRE:;
#CREDIT:;
#BANNER:[Break] - GEORGE-bn.png;
#BACKGROUND:[Break] - GEORGE-bg.png;
#LYRICSPATH:;
#CDTITLE:;
#MUSIC:[Break] - GEORGE.mp3;
#OFFSET:0.287000;
#SAMPLESTART:69.858040;
#SAMPLELENGTH:14.800031;
#SELECTABLE:YES;
#BPMS:0.000000=130.000000
;
#STOPS:
;
#BGCHANGES:1.250=[Break] - GEORGE.avi=1.000=0=0=1=====,
99999=-nosongbg-=1.000=0=0=0 // don't automatically add -songbackground-
;
#KEYSOUNDS:;
#ATTACKS:;

//---------------dance-single - ----------------
#NOTES:
     dance-single:
     :
     Beginner:
     1:
     0.098786,0.104891,0.077697,0.000000,0.000000,79.000000,10.000000,0.000000,0.000000,0.000000,0.000000,0.098786,0.104891,0.077697,0.000000,0.000000,79.000000,10.000000,0.000000,0.000000,0.000000,0.000000:
0000
0000
0000
0000
,
0000
0000
0000
0000
,
0000
0000
0000
0000
,
1001
0000
0000
0000
,
0001
0000
0000
0000
,
0001
0000
0000
0000
,
0001
0000
0000
0000
,
1001
0000
0000
0000
,
1000
0000
0000
0000
,
1000
0000
0000
0000
,
0010
0000
0010
0000
,
0000
0000
0000
0000
,
1000
0000
0000
0000
,
0010
0000
0000
0000
,
0100
0000
0000
0000
,
0001
0000
0000
0000
,
1001
0000
0000
0000
,
0100
0000
0000
0000
,
0010
0000
0000
0000
,
1000
0000
0000
0000
,
0001
0000
0001
0000
,
0001
0000
0000
0000
,
1000
0000
1000
0000
,
1000
0000
0000
0000
,
0001
0000
0001
0000
,
0001
0000
0000
0000
,
0100
0000
0100
0000
,
0100
0000
0100
0000
,
0000
0000
0000
0000
,
0000
0000
0000
0000
,
0000
0000
0000
0000
,
0000
0000
0000
0000
,
0110
0000
0000
0000
,
0000
0000
0000
0000
,
0110
0000
0000
0000
,
1001
0000
0000
0000
,
1000
0000
0000
0000
,
0000
0000
0000
0000
,
1001
0000
0000
0000
,
0010
0000
0000
0000
,
0110
0000
0000
0000
,
0100
0000
0000
0000
,
1001
0000
0000
0000
,
1000
0000
0000
0000
,
0001
0000
0000
0000
,
0100
0000
0000
0000
,
0010
0000
0010
0000
,
0010
0000
0010
0000
,
0100
0000
0100
0000
,
0100
0000
0100
0000
,
0010
0000
0010
0000
,
0010
0000
0010
0000
,
1000
0000
1000
0000
,
1000
0000
1000
0000
,
0001
0000
0100
0000
,
0001
0000
0100
0000
,
0001
0000
1000
0000
,
0001
0000
1000
0000
,
1000
0000
0010
0000
,
1000
0000
0010
0000
,
1000
0000
0001
0000
,
1000
0000
0001
0000
,
1000
0000
0000
0000
,
1000
0000
0000
0000
,
0001
0000
0000
0000
,
0001
0000
0000
0000
,
0000
0000
0000
0000
,
0000
0000
1001
0000
;

//---------------dance-single - ----------------
#NOTES:
     dance-single:
     :
     Easy:
     3:
     0.167604,0.210559,0.077697,0.062158,0.000000,133.000000,10.000000,8.000000,0.000000,0.000000,0.000000,0.167604,0.210559,0.077697,0.062158,0.000000,133.000000,10.000000,8.000000,0.000000,0.000000,0.000000:
0000
0000
0000
0000
,
0000
0000
0000
0000
,
0000
0000
0000
0000
,
1001
0000
0001
0000
,
1000
0000
1000
0000
,
0001
0000
0001
0000
,
1000
0000
1000
0000
,
1001
0000
1000
0000
,
0001
0000
0001
0001
,
0000
0100
0000
0000
,
0010
0000
0010
0000
,
0000
0000
0000
0000
,
1000
0000
0100
0000
,
0010
0000
0100
0000
,
1000
0000
0001
0000
,
0010
0000
0100
0000
,
2002
3003
0100
0000
,
0010
0000
1000
0000
,
0001
0000
0100
0000
,
0010
0000
1000
0000
,
0001
0000
0001
0000
,
0001
0001
0002
0003
,
1000
0000
1000
0000
,
1000
1000
2000
3000
,
0001
0000
0001
0000
,
0001
0010
0200
0300
,
1000
0000
0010
0000
,
0100
0000
0001
0001
,
0000
0000
0000
0000
,
0000
0000
0000
0000
,
0000
0000
0000
0000
,
0000
0000
0000
0000
,
0110
0010
0000
0010
,
0000
0010
0000
0010
,
0110
1000
0000
1000
,
1001
0001
0000
0001
,
2000
0000
0000
0000
,
0000
0000
0000
3000
,
1001
0000
0000
0000
,
0010
0100
0010
0100
,
0110
0000
0000
0000
,
0100
0001
0100
0001
,
0101
0000
0000
0000
,
0001
0000
1000
0000
,
0010
0000
1000
0000
,
0100
0000
1000
0000
,
0001
0001
1000
1000
,
0001
0001
1000
0000
,
1000
1000
0001
0001
,
1000
1000
0001
0000
,
0100
0100
0010
0010
,
0100
0100
0010
0000
,
1000
0000
1000
0000
,
1000
1000
0001
0001
,
1000
0000
0010
0000
,
0001
0000
0010
0000
,
1000
0000
0100
0000
,
0001
0000
0100
0000
,
1000
0000
0100
0000
,
0001
0000
0100
0000
,
1000
0000
0010
0000
,
0001
0000
0010
0000
,
1000
0000
1000
0000
,
1000
0000
1000
0000
,
0001
0000
0001
0000
,
0001
0000
0001
0000
,
0000
0000
0000
0000
,
0000
0000
2002
3003
;

//---------------dance-single - ----------------
#NOTES:
     dance-single:
     :
     Medium:
     6:
     0.334097,0.342158,0.108776,0.116546,0.011655,272.000000,14.000000,15.000000,0.000000,0.000000,0.000000,0.334097,0.342158,0.108776,0.116546,0.011655,272.000000,14.000000,15.000000,0.000000,0.000000,0.000000:
0000
0000
0000
0000
,
0000
0000
0000
0000
,
0000
0000
0000
0000
,
0002
0000
0103
0000
0001
1000
0001
0000
,
1000
0010
0200
0310
,
1000
0000
0010
0000
1000
0001
1000
0000
,
0002
1003
0020
0130
,
1001
0000
0001
0000
1000
0100
1000
0000
,
0001
0000
0000
0000
0100
0000
0000
0000
0001
0000
0000
0010
0000
0000
0100
0000
,
0000
0200
0310
0001
,
0010
0010
0000
0000
0100
0100
0000
0000
,
0000
0000
0000
0000
,
1000
0000
0010
0000
0100
0001
0100
0000
,
0010
0000
1000
0000
0001
0100
0001
0000
,
1000
0000
0001
0000
1000
0100
0010
0000
,
0100
0010
0100
0000
0100
0010
0001
0000
,
2002
0000
3003
0000
0100
0010
0100
0000
,
0010
0000
0010
0000
1000
0100
1000
0000
,
0001
0000
0001
0000
1000
0010
1000
0000
,
0010
0000
0100
0000
0001
0100
0001
0000
,
1001
0000
1001
0000
,
0001
0000
0001
0010
0002
0000
0003
0000
,
1010
0000
1010
0000
,
1000
0000
1000
0100
2000
0000
3000
0000
,
0101
0000
0101
0000
,
0001
1000
0001
1000
0200
0000
0300
0000
,
1000
0100
0010
0010
,
0100
0000
0010
0000
0001
0010
0001
0010
,
0001
0000
0000
0000
,
0000
0000
0000
0000
,
0000
0000
0000
0000
,
0000
0000
0000
0000
0000
0000
0000
0000
0000
0000
0000
0000
0001
0000
0000
0001
,
1000
0010
0000
0010
,
0000
0010
0000
0010
,
0110
0000
0000
0000
1000
0000
0000
0000
0000
0000
0000
0000
1000
0000
0000
1000
,
0001
0000
0001
0000
0001
0100
0001
0100
,
0020
0000
0000
0000
,
0000
0000
0000
0030
,
1001
0100
0010
1000
,
0010
1000
0100
1000
0010
0000
0100
0000
,
0110
0001
1000
0010
,
0100
0001
0010
0001
0100
0000
0001
0000
,
0101
0010
1000
0100
,
0010
0100
1000
0100
0010
0000
0100
0000
,
1000
0000
0001
0000
1000
0100
1000
0000
,
0100
0000
1000
0000
0001
1000
0001
0000
,
0001
0010
1000
0000
0001
0100
1000
0000
,
0001
0010
1000
0010
0001
0000
1000
0000
,
0001
0100
1000
0000
0001
0010
1000
0000
,
0001
0100
1000
0100
0001
0000
1000
0000
,
0001
0010
1000
0000
0001
0100
1000
0000
,
0001
0010
1000
0010
0001
0000
1000
0000
,
0001
0000
1000
0000
1000
0100
1000
0000
,
1000
0001
1000
0010
0100
0001
0100
0010
,
0100
0000
0010
0000
1000
0010
1000
0000
,
0001
0000
0100
0000
0010
0100
0010
0000
,
1000
0000
0010
0000
0100
0010
0100
0000
,
0001
0010
0001
0000
1000
0100
1000
0000
,
2002
0000
3003
0000
0100
0010
0100
0000
,
0001
0000
0010
0000
0100
1000
0100
0000
,
1000
0000
0100
0000
0010
0100
0010
0000
,
0001
0010
0001
0010
0001
0000
0100
0000
,
0010
0000
0000
0000
1000
0000
0010
0100
,
0010
0000
1000
0000
0001
0000
0100
0010
,
0100
0001
1000
0010
,
0100
0010
0100
0010
0100
0000
0000
0000
,
0000
0000
0000
0000
,
0000
0000
2002
3003
;

//---------------dance-single - ----------------
#NOTES:
     dance-single:
     :
     Hard:
     8:
     0.500591,0.526398,0.132085,0.132085,0.291364,417.000000,17.000000,17.000000,0.000000,0.000000,0.000000,0.500591,0.526398,0.132085,0.132085,0.291364,417.000000,17.000000,17.000000,0.000000,0.000000,0.000000:
// measure 0
0000
0000
0000
0000
,  // measure 1
0000
0000
0000
0000
,  // measure 2
0000
0000
0000
0000
,  // measure 3
2000
0000
3010
0000
1000
0001
1000
0000
,  // measure 4
0001
0000
0100
0010
2000
0000
3100
0000
,  // measure 5
1000
0000
0001
0000
0100
0001
0100
0000
,  // measure 6
0010
0010
0100
0000
0010
0010
1000
0000
,  // measure 7
1001
0000
1000
0000
0001
0010
0001
0000
,  // measure 8
1000
0000
0000
0000
0010
0000
0000
0000
1000
0000
0000
0100
0000
0000
0010
0000
,  // measure 9
0000
0020
0130
1000
,  // measure 10
0001
0001
0010
0000
0001
0001
0100
0000
,  // measure 11
1001
0000
1000
0001
,  // measure 12
0100
0000
0000
0000
0001
0000
0100
0010
1000
0000
0010
0000
0100
0000
0010
0000
,  // measure 13
1000
0000
0000
0000
0001
0000
0100
0000
0010
0000
0100
0000
0001
0010
0001
0000
,  // measure 14
1000
0000
0000
0000
1000
0100
1000
0000
0001
0010
0001
0000
0100
0000
0010
0100
,  // measure 15
0010
0000
0100
0000
0010
0000
0100
0010
0100
0000
0100
0010
1000
0000
0001
0000
,  // measure 16
2002
0000
0000
0000
3003
0000
0001
0000
1000
0000
1000
0001
1000
0000
0000
0000
,  // measure 17
0001
0000
0100
0000
0001
0100
0000
0100
0001
0000
0100
0001
1000
0000
0000
0000
,  // measure 18
0001
0000
1000
0000
0100
0010
0000
0010
0001
0010
0000
0010
0100
0000
0010
0000
,  // measure 19
0100
0000
1000
0000
0010
0100
0010
0000
1000
0000
0010
0000
0000
1000
0000
0001
,  // measure 20
1000
1001
0001
1001
,  // measure 21
1000
0000
0001
0010
0200
0000
1300
0000
,  // measure 22
0001
0101
0100
0101
,  // measure 23
0001
0000
1000
0100
0020
0000
0031
0000
,  // measure 24
1000
1010
0010
1010
,  // measure 25
1000
0001
1000
0001
0200
0000
0310
0100
,  // measure 26
0000
0100
0010
0000
1000
0000
1000
0010
0000
1000
0100
0000
1000
0000
1000
0100
,  // measure 27
0000
0100
0010
0000
0100
0000
0010
0000
0001
0000
0010
0001
0000
0010
0000
0000
,  // measure 28
0000
0000
0000
0000
,  // measure 29
0000
0000
0000
0000
,  // measure 30
0000
0000
0000
0000
,  // measure 31
0000
0000
0000
0000
0000
0000
0000
0000
0000
0000
0000
0000
1000
0000
0000
1000
,  // measure 32
0001
0000
0100
0000
0010
1000
0100
0000
,  // measure 33
0010
0000
0001
0000
0100
0010
1000
0000
,  // measure 34
1001
0000
0000
0000
0001
0000
1000
0000
0010
0000
0000
0000
0100
0000
0000
0001
,  // measure 35
1000
0000
1000
0010
0100
0001
0010
0100
,  // measure 36
2000
0000
0000
0000
,  // measure 37
0000
0000
0000
3000
,  // measure 38
1001
0000
0001
0000
0100
0000
0000
0001
0000
0001
0100
0000
0001
0000
0010
0000
,  // measure 39
0100
0000
0010
0000
0100
0000
1000
0100
0000
0100
1000
0000
0010
0000
0100
0000
,  // measure 40
0110
0000
0100
0000
0001
0000
0000
0100
0000
0100
0001
0000
0100
0000
0010
0000
,  // measure 41
1000
0000
0001
0000
0100
0001
0100
0000
0010
0000
1000
0000
0001
0000
0100
0000
,  // measure 42
0101
0000
0000
0000
0001
0000
0000
1000
0000
1000
0100
0000
1000
0000
0001
0000
,  // measure 43
0100
0000
0010
0000
0100
0000
0001
0100
0000
0100
0001
0000
0010
0000
0100
0000
,  // measure 44
1000
0000
0010
0000
1000
0000
0001
1000
0000
1000
0001
0000
1000
0000
0100
0000
,  // measure 45
1000
0000
0010
0000
0100
0000
0001
0000
1000
0001
1000
0000
1001
0000
0000
0000
,  // measure 46
1000
0100
0001
0100
1000
0010
0001
0010
,  // measure 47
1000
0100
0001
0010
1000
0000
0002
0000
,  // measure 48
1003
0010
0001
0010
1000
0100
0001
0100
,  // measure 49
1000
0010
0001
0100
1000
0000
0002
0000
,  // measure 50
1003
0100
0001
0100
1000
0010
0001
0010
,  // measure 51
1000
0100
0001
0010
1000
0000
0002
0000
,  // measure 52
1003
0000
0000
0010
0000
0000
0100
0001
0100
0000
0001
0000
0100
0001
1000
0000
,  // measure 53
0001
1000
0000
0000
0001
0100
0001
0000
1000
0001
1000
0000
0110
0000
0000
0000
,  // measure 54
0100
0000
0000
0000
0010
0000
0100
0010
0100
0000
0001
0000
0100
0000
0010
0000
,  // measure 55
1000
0000
0000
0000
0010
0000
1000
0000
0100
0000
0010
0000
0001
0010
0001
0000
,  // measure 56
1000
0000
0000
0000
0001
1000
0001
0000
1000
0010
1000
0000
0001
0000
1000
0100
,  // measure 57
1000
0000
0001
0000
1000
0000
0001
0100
0001
0000
0100
0010
1000
0000
0001
0000
,  // measure 58
2002
0000
0000
0000
3003
0000
0001
0000
1000
0000
0001
1000
0001
0000
0000
0000
,  // measure 59
1000
0000
0010
0000
1000
0010
0000
0010
1000
0000
0010
1000
0001
0000
0000
0000
,  // measure 60
0001
0000
0100
0000
0010
1000
0000
1000
0001
1000
0000
1000
0100
0000
0010
0000
,  // measure 61
0001
0000
0010
0000
0001
0010
0001
0000
1000
0000
0100
0000
0000
0010
0000
0001
,  // measure 62
0200
0000
0000
0000
0301
0000
0000
0000
0001
0000
0010
0000
0100
0000
0010
0100
,  // measure 63
1000
0000
0000
0000
0001
1000
0000
1000
0000
1000
0010
0000
0010
0100
0010
0000
,  // measure 64
0010
0000
0100
0000
0001
0000
0000
0001
0000
1000
0010
0000
0100
0000
0010
0000
,  // measure 65
1000
0000
0100
0000
1000
0000
0000
0100
0000
0010
0100
0000
1000
0000
0001
0000
,  // measure 66
1000
0000
0000
0000
,  // measure 67
0000
0000
2002
3003
;
