#TITLE:Freezeezy Peak;
#SUBTITLE:;
#ARTIST:Grant Kirkhope;
#TITLETRANSLIT:;
#SUBTITLETRANSLIT:;
#ARTISTTRANSLIT:;
#GENRE:;
#CREDIT:;
#BANNER:Freezeezy Peak-banner.png;
#BACKGROUND:Freezeezy Peak-bg.png;
#LYRICSPATH:;
#CDTITLE:;
#MUSIC:Freezeezy Peak.ogg;
#OFFSET:-0.374274;
#SAMPLESTART:93.019997;
#SAMPLELENGTH:12.000000;
#SELECTABLE:YES;
#BPMS:0.000000=145.080002
;
#STOPS:
;
#BGCHANGES:;
#KEYSOUNDS:;
#ATTACKS:;

//---------------dance-single - ----------------
#NOTES:
     dance-single:
     :
     Beginner:
     1:
     0.151918,0.146221,0.030384,0.000000,0.000000,136.000000,4.000000,0.000000,0.000000,0.000000,0.000000,0.151918,0.146221,0.030384,0.000000,0.000000,136.000000,4.000000,0.000000,0.000000,0.000000,0.000000:
0000
0000
0000
0000
,
0000
0000
0000
0000
,
1000
0000
1000
0000
,
0001
0000
0000
0000
,
0001
0000
0001
0000
,
1000
0000
0000
0000
,
1001
0000
0000
0000
,
0000
0000
0000
0000
,
1000
0000
1000
0000
,
0000
0001
0001
0000
,
0100
0000
0100
0000
,
0010
0000
0010
0000
,
1000
0000
1000
0000
,
0000
0001
0001
0000
,
0010
0000
0010
0000
,
0100
0000
0100
0000
,
1000
0000
1000
0000
,
0001
0000
0001
0000
,
1000
0000
1000
0000
,
0001
0000
0001
0000
,
0100
0000
0100
0000
,
0010
0000
0010
0000
,
0100
0000
0100
0000
,
0010
0000
0010
0000
,
1000
0000
1000
0000
,
0000
0100
0100
0000
,
0010
0000
0010
0000
,
0001
0000
0001
0000
,
0100
0000
0100
0000
,
0000
0010
0010
0000
,
1000
0000
1000
0000
,
0001
0000
0001
0000
,
1001
0000
0000
0100
,
0100
0000
0000
0010
,
0010
0000
0000
1000
,
1000
0000
0001
0000
,
0001
0000
0000
0010
,
0010
0000
0000
0001
,
0001
0000
0000
1000
,
1000
0000
1000
0000
,
0001
0000
0001
0000
,
0100
0000
0100
0000
,
0000
0000
0010
0000
,
0010
0000
1000
0000
,
1000
0000
0100
0000
,
0000
0000
0100
0000
,
0010
0000
0000
0000
,
0010
0000
0010
0000
,
0001
0000
0001
0000
,
0100
0000
0100
0000
,
0000
0000
0001
0000
,
0001
0000
1000
0000
,
0010
0000
0010
0000
,
0000
0000
0010
0000
,
1000
0000
0000
0000
,
0000
0000
0000
0000
,
0001
0000
0001
0000
,
0100
0000
0100
0000
,
0010
0000
0010
0000
,
1000
0000
1000
0000
,
0100
0000
0100
0000
,
1000
0000
1000
0000
,
0001
0000
0001
0000
,
0010
0000
0010
0000
,
0001
0000
0001
0000
,
1000
0000
1000
0000
,
0010
0000
0010
0000
,
0100
0000
0100
0000
,
0001
0000
0001
0000
,
0010
0000
0010
0000
,
0100
0000
0100
0000
,
1000
0000
1000
0000
,
1001
0000
0000
0000
,
0010
0000
0010
0000
,
0100
0000
0100
0000
,
0000
0000
0100
0000
,
0010
0000
0100
0000
,
1001
0000
0000
0000
;

//---------------dance-single - ----------------
#NOTES:
     dance-single:
     :
     Easy:
     4:
     0.306006,0.350931,0.167110,0.205089,0.000000,233.000000,22.000000,27.000000,0.000000,0.000000,0.000000,0.306006,0.350931,0.167110,0.205089,0.000000,233.000000,22.000000,27.000000,0.000000,0.000000,0.000000:
0000
0000
0000
0000
,
0000
0000
0000
0000
,
1000
0000
0001
0001
,
0100
0000
0010
0000
,
0000
1000
0100
0010
,
0001
0000
1000
0000
,
1001
0000
0000
0000
,
0000
0000
0000
0000
,
1000
0100
0010
0001
,
0000
0001
0010
0001
,
0002
0103
0002
0103
,
0020
1030
0020
1030
,
0100
0100
1000
0100
,
0000
0010
0001
1000
,
0020
1030
0020
1030
,
0002
0103
0002
0103
,
0110
0000
0010
1000
,
0100
0010
0100
1000
,
0001
0100
0001
1000
,
0200
0320
0230
0300
,
1001
0000
1000
0100
,
1000
0010
0100
0001
,
1000
0200
1300
0020
,
1030
0002
1003
0001
,
0100
0010
1000
0001
,
0000
0010
0100
1000
,
0002
0103
0020
0130
,
0002
0103
0020
0130
,
0001
1000
0100
0010
,
0000
0100
1000
0001
,
2000
3010
0200
0310
,
2000
3010
0200
0310
,
1001
0000
0001
1100
,
0101
0000
1000
0101
,
1100
0000
0010
1100
,
0101
0110
1001
0000
,
1100
0000
0100
0110
,
0011
0000
0001
0101
,
0110
0000
0100
0110
,
1010
1000
1001
0001
,
1000
0000
0100
0010
,
0001
0001
1000
0000
,
0000
0001
0100
0010
,
0100
0000
0100
0000
,
0010
0000
0010
0000
,
0000
1000
0100
0000
,
0010
0000
0000
0000
,
0001
0100
0010
0100
,
1001
0000
1000
0000
,
0100
0100
0100
0000
,
0000
1000
0010
0100
,
0001
0000
1000
0000
,
0010
0000
0010
0000
,
0000
0100
0001
0000
,
2000
0000
0000
0000
,
3000
0000
0000
0000
,
0001
0000
1000
0100
,
1000
0001
0100
0001
,
0100
0010
0100
0001
,
1000
0100
0010
0000
,
0100
0000
1000
0001
,
0100
0010
1000
0010
,
0100
0002
1003
0200
,
1300
0002
1003
0001
,
1000
0010
1000
0010
,
0100
0001
0100
0001
,
1000
0001
1000
0001
,
0100
0010
0100
0010
,
1000
0010
0100
0001
,
1000
0010
0100
0001
,
1000
0100
0010
0001
,
0100
0010
1000
0001
,
0020
0000
0000
0030
,
1000
0000
0001
0100
,
0010
0000
0010
0000
,
0000
0100
0001
1000
,
0100
0000
0010
0000
,
1001
0000
0000
0000
;

//---------------dance-single - ----------------
#NOTES:
     dance-single:
     :
     Medium:
     6:
     0.408008,0.473224,0.235473,0.448158,0.000000,286.000000,31.000000,59.000000,0.000000,0.000000,0.000000,0.408008,0.473224,0.235473,0.448158,0.000000,286.000000,31.000000,59.000000,0.000000,0.000000,0.000000:
0000
0000
0000
0000
,
0000
0000
0000
0000
,
1000
0000
0000
0100
0000
0100
0000
0010
,
0002
0000
0000
1000
1003
0000
0000
0000
,
0000
0100
0100
0010
,
0002
0000
0000
1000
1003
0000
0000
0000
,
0220
0000
0000
0330
,
0000
0000
0000
0000
,
0001
0010
0100
0100
,
0000
0010
0100
0100
,
1000
0001
1000
0000
0001
1000
0001
0000
,
0100
0010
0100
0000
0010
1000
0010
0000
,
1000
0100
0010
0010
,
0000
0100
0010
0010
,
0001
0010
0001
0000
0010
0100
0010
0000
,
0100
1000
0100
0000
1000
0001
1000
0000
,
0210
0000
0000
0001
0301
0000
1000
0100
,
1000
0001
0010
0001
,
0110
0000
0000
1000
0100
0000
0100
0010
,
0002
2003
3200
0300
,
2001
0000
0000
0010
3010
0000
1000
1000
,
0100
0010
1000
0001
,
0100
0010
0001
0100
,
0010
1000
0001
0001
,
1000
0010
0100
0100
,
0000
0010
0100
0100
,
0001
1000
0001
0000
1000
0100
1000
0000
,
0001
0010
0001
0000
0100
0100
0010
0000
,
1000
0001
0100
0100
,
0000
0001
0100
0100
,
0010
1000
0100
0000
0010
0001
0100
0000
,
0001
1000
0100
0000
1000
0001
0010
0000
,
0210
0000
1300
0101
,
2010
0000
3001
0011
,
0102
0000
1003
0110
,
1010
1100
0110
0000
,
2001
0000
3100
0011
,
0102
0000
1003
0110
,
1020
0000
0130
0101
,
1001
0000
0110
0000
,
2000
0000
0000
0100
0000
0100
0000
0010
,
3020
0000
0000
0100
0200
0000
0330
0000
,
0000
0200
0302
2003
,
3020
0000
0000
0100
0200
0000
0330
0000
,
0012
0000
0000
0100
0200
0000
0000
0000
,
0303
0000
1100
0000
2010
0000
0000
0100
,
0200
0000
3300
0000
,
0001
0100
0010
0100
,
0002
0000
0000
0100
0000
0100
0000
0010
,
0023
0000
0000
1000
2000
0000
0000
0000
,
3030
0200
0320
0032
,
2003
0000
0000
0010
3020
0000
0000
0000
,
0230
0000
0000
0001
0002
0000
0000
0000
,
0303
0000
0002
0000
2003
0000
0000
0010
,
0020
0000
0000
0000
,
3030
0000
0000
0000
,
2001
0000
0000
0100
3100
0000
0010
0001
,
0010
0100
1000
0001
0100
0000
0110
0000
,
2010
0000
3100
0100
0020
0000
0031
0001
,
0200
0000
0302
0000
2003
0000
3000
0001
,
0012
0000
0000
0100
0103
0000
0010
1000
,
0100
0010
0100
1000
0001
0000
0100
0000
,
0110
0010
1000
1000
,
0001
0001
0100
0100
,
0001
0010
0100
0000
1000
0000
1000
0000
,
0001
0010
0100
0000
1000
0000
1000
0000
,
0001
0100
0010
0000
1000
0000
1000
0000
,
0001
0100
0010
0000
1000
0000
1000
0000
,
0100
1000
0010
0000
0100
0000
0100
0000
,
0010
0100
0001
0000
0010
0000
0010
0000
,
0100
1000
0001
0000
0100
0000
0100
0000
,
0001
1000
0010
0000
0100
0000
0100
0000
,
2002
0000
0000
3003
,
0200
0000
0000
0001
0000
0001
0000
0010
,
0320
0000
0000
1000
2000
0000
0000
0000
,
3030
0200
0320
0032
,
0203
0000
0000
0010
0020
0000
0330
0000
,
2002
0000
0000
0000
0000
0000
0000
3003
;

//---------------dance-single - ----------------
#NOTES:
     dance-single:
     :
     Hard:
     8:
     0.544734,0.649639,0.220281,0.653247,0.167110,387.000000,29.000000,86.000000,0.000000,0.000000,0.000000,0.544734,0.649639,0.220281,0.653247,0.167110,387.000000,29.000000,86.000000,0.000000,0.000000,0.000000:
0000
0000
0000
0000
,
0000
0000
0000
0000
,
2000
0000
0000
0100
0000
0100
0000
0010
,
3020
0000
0000
0100
0200
0000
0000
0000
,
0330
0002
0010
0100
,
2003
0000
0000
0001
0002
0000
3003
0000
,
0220
0000
0000
0000
,
0000
0000
0000
0330
,
0010
0000
0000
0000
1000
0000
0000
1000
0200
0000
0000
0000
1300
0000
0000
0000
,
0000
0000
0010
0000
1000
0000
0000
1000
0200
0000
0000
0000
1300
0000
0000
0000
,
0010
1000
0010
1000
0010
0000
0000
0000
0100
0001
0100
0001
0100
0000
0000
0000
,
0001
1000
0001
1000
0001
0000
1000
0000
0200
0000
0010
0000
0320
0000
0001
0000
,
0031
0000
0000
0000
0100
0000
0000
0100
0002
0000
0000
0000
0103
0000
0000
0000
,
0000
0000
0001
0000
0100
0000
0000
0100
0002
0000
0000
0000
0103
0000
0000
0000
,
0010
1000
0010
1000
0010
0000
0000
0000
1000
0100
1000
0100
1000
0000
0000
0000
,
0100
0010
0100
0010
0100
0000
0010
0000
0002
0000
1000
0000
2003
0000
0100
0000
,
3100
0000
0000
0010
0001
0000
0100
0010
,
0100
0001
1000
0100
0010
0000
0110
0000
,
1100
0000
0000
1000
0100
0000
0100
0010
,
0002
0023
0032
0003
,
1001
0000
0000
0001
0010
0000
0001
0100
,
0010
0100
0001
0010
0100
0000
1100
0000
,
0110
0000
0000
0000
0010
0000
0000
0001
0020
0000
0000
0000
0031
0000
0000
0010
,
0002
0000
0000
0000
0013
0000
0000
0001
0020
0000
0000
0000
0031
0000
0000
0000
,
1000
0000
0000
0000
0001
0000
0000
0100
0020
0000
0000
0000
1030
0000
0000
0000
,
0000
0000
1000
0000
0001
0000
0000
0100
0020
0000
0000
0000
1030
0000
0000
0000
,
0001
0010
0100
0010
0001
0000
0000
0000
1000
0100
0010
0100
1000
0000
0000
0000
,
0001
1000
0100
1000
0001
0000
0100
0000
0020
0000
1000
0000
2030
0000
0100
0000
,
3100
0000
0000
0000
0010
0000
0000
0001
2000
0000
0000
0000
3100
0000
0000
0000
,
0000
0000
0100
0000
0010
0000
0000
0001
2000
0000
0000
0000
3100
0000
0000
0000
,
0010
0001
0100
0001
0010
0000
0000
0000
0001
0100
0010
0100
0001
0000
0000
0000
,
0100
0010
1000
0010
0100
0000
0010
0000
2000
0000
0001
0000
3002
0000
1003
0000
,
0210
0000
0000
0010
0310
0000
0011
0001
,
0102
1000
1000
0100
1003
0000
1010
0000
,
2100
0000
0010
0010
3100
0000
0011
0001
,
0011
0000
0000
0000
1100
0000
0000
0000
1001
0000
0000
0000
0000
0000
0100
0010
,
2000
0000
0000
0100
3100
0000
0110
0010
,
0012
0100
0010
0100
1003
0000
0110
0000
,
1020
0000
0000
0000
1030
0000
0000
1000
0200
0000
0000
0000
1300
0000
0000
1000
,
0200
0000
0000
0000
1300
0000
0000
1000
0200
0000
0000
0000
1300
0000
0000
0000
,
2001
0000
0000
3200
0000
0320
0000
0001
,
0032
0000
0000
1000
2000
0000
0000
0000
,
3003
2000
3002
0203
,
0320
0000
0000
0100
0230
0000
0000
0000
,
0302
0000
0000
1000
2000
0000
0000
0000
,
3003
0000
2000
0000
3200
0000
0000
0010
,
0020
0000
0000
0330
,
0001
0000
0000
0000
1000
0000
0000
1000
0100
0000
0000
0000
0010
0000
0000
0000
,
1002
0000
0000
0203
0000
0320
0000
1030
,
2000
0000
0000
0010
0020
0000
0000
0000
,
3030
0200
0302
2003
,
3200
0000
0000
0010
0020
0000
0330
0000
,
0002
0000
0000
1000
2000
0000
0000
0000
,
3003
0000
0200
0000
0302
0000
0000
1000
,
2000
0000
0000
0000
,
0000
0000
3003
0000
,
2000
0000
0000
0100
3100
0000
1000
0100
,
0010
0001
0100
0010
0100
0000
0101
0000
,
0110
0000
0010
1000
0100
0000
0100
1000
,
0100
0000
0000
0000
0110
0000
0000
0000
0011
0000
0000
0000
0000
0000
0001
0100
,
0002
0000
0000
0100
0103
0000
0010
1000
,
0100
0010
0100
1000
0001
0000
0101
0000
,
1010
0000
0000
0000
1000
0000
0000
1000
0002
0000
0000
0000
1003
0000
0000
1000
,
0002
0000
0000
0000
1003
0000
0000
1000
0002
0000
0000
0000
0103
0000
0000
0000
,
0010
1000
0100
0001
0100
1000
0001
0100
,
0010
0100
0001
0010
0100
1000
0100
0001
,
0100
1000
0001
0010
0100
0010
0001
1000
,
0010
0100
0001
0100
0010
0100
0001
1000
,
0100
0010
0100
1000
0001
0010
1000
0010
,
0001
1000
0100
0001
0100
1000
0001
0100
,
0010
0001
0010
1000
0010
0100
0001
0010
,
0100
1000
0100
0001
0100
1000
0001
0100
,
2002
0000
0000
3003
,
2000
0000
0000
0010
0000
0100
0000
0001
,
3002
0000
0000
0100
0200
0000
0000
0000
,
0303
0020
2030
3200
,
0320
0000
0000
0001
0002
0000
0033
0000
,
2002
0000
0000
3003
;
