#TITLE:Don't Don't Go Away (disko warp main mix);
#SUBTITLE:;
#ARTIST:Foxxie;
#TITLETRANSLIT:;
#SUBTITLETRANSLIT:;
#ARTISTTRANSLIT:;
#CREDIT:;
#BANNER:Don't Don't Go Away.png;
#BACKGROUND:Don't Don't Go Away-bg.png;
#LYRICSPATH:;
#CDTITLE:;
#MUSIC:Don't Don't Go Away.ogg;
#OFFSET:-0.187;
#SAMPLESTART:48.000;
#SAMPLELENGTH:12.000;
#SELECTABLE:YES;
#BPMS:0.000=160.000;
#STOPS:;
#BGCHANGES:-0.900=Don't Don't Go Away.avi=1.000=1=1=0,
,99999=-nosongbg-=1.000=0=0=0 // don't automatically add -songbackground-;

//---------------dance-single - ----------------
#NOTES:
     dance-single:
     :
     Beginner:
     2:
     0.139,0.161,0.009,0.054,0.000:
0000
0000
0000
0000
,
0000
0000
0000
0000
,
0000
0000
0000
0000
,
0000
0000
0000
0000
0000
1000
0000
0000
,
0000
0000
0000
0000
,
0000
0000
0000
0000
0000
0000
0000
0001
,
0000
0000
0000
0000
,
0000
0000
0000
0000
0000
0000
0000
1000
,
0000
0010
0000
0000
0000
0000
0000
0100
,
0000
0001
0000
0000
0000
0000
0000
0100
,
0000
0100
0000
0000
0000
0000
0000
1000
,
0000
1000
0000
0000
0000
0000
0000
0001
,
0000
0100
0000
0000
0000
0000
0000
0010
,
0000
1000
0000
0000
0000
0000
0000
0100
,
0000
0100
0000
0000
0000
0000
0000
1000
,
0000
0000
0000
0001
0000
0000
0000
0100
,
0000
0000
0000
0000
,
0000
0000
0000
0000
,
0000
0000
0000
2000
,
0000
3000
0000
0000
0000
0000
0000
0000
,
0000
0000
0000
0000
,
0000
0000
0000
0020
,
0000
0000
0000
0000
,
0000
0000
0030
0000
0000
0000
0000
1000
,
0000
0000
0000
0001
0000
0000
0000
0100
,
0000
0000
0000
0010
0000
0000
0000
0100
,
0000
0000
0000
0001
0000
0000
0000
1000
,
0000
0000
0000
0000
0000
0000
0000
0010
,
0000
0000
0000
1000
0000
0000
0000
0010
,
0000
0000
0000
0001
0000
0000
0000
0100
,
0000
0000
0000
0010
0000
0000
0000
1000
,
0000
0000
0000
0000
0000
0000
0000
0100
,
0000
0100
0000
0000
0000
0000
0000
0001
,
0000
0001
0000
0000
0000
0000
0000
0100
,
0000
0100
0000
0000
0000
0000
0000
2000
,
0000
0000
0000
0000
3000
0000
0000
0010
,
0000
0010
0000
0000
0000
0000
0000
0100
,
0000
0100
0000
0000
0000
0000
0000
0001
,
0000
0001
0000
0000
0000
0000
0000
1000
,
0000
0000
0000
0000
0000
0000
0000
0001
,
0000
0000
0000
0000
0000
0000
0000
1000
,
0000
0000
0000
0000
0000
0000
0000
0010
,
0000
0000
0000
0000
,
0000
0000
0000
0000
0000
0000
0000
1000
,
0000
0000
0000
0000
0000
0000
0000
0001
,
0000
0000
0000
0000
0000
0000
0000
0010
,
0000
0000
0000
0000
0000
0000
0000
1000
,
0000
0000
0000
0000
0000
0000
0000
0100
,
0000
0100
0000
0000
0000
0000
0000
0001
,
0000
0001
0000
0000
0000
0000
0000
0010
,
0000
0010
0000
0000
0000
0000
0000
1000
,
0000
1000
0000
0000
0000
0000
0000
0100
,
0000
0100
0000
0000
0000
0000
0000
0001
,
0000
0001
0000
0000
0000
0000
0000
0010
,
0000
0010
0000
0000
0000
0000
0000
1000
,
0000
1000
0000
0000
0000
0000
0000
0001
,
0000
1000
0000
0000
0000
0000
0000
0010
,
0000
0010
0000
0000
0000
0000
0000
1000
,
0000
0001
0000
0000
0000
0000
0000
0200
,
0000
0000
0000
0300
0000
0000
0000
0010
,
0000
0010
0000
0000
0000
0000
0000
1000
,
0000
0001
0000
0000
0000
0000
0000
0010
,
0000
0010
0000
0000
0000
0000
0000
1000
,
0000
0000
1000
0000
0000
0000
0000
0010
,
0000
0010
0000
0000
0000
0000
0000
0001
,
0000
0001
0000
0000
0000
0000
0000
0100
,
0000
0100
0000
0000
0000
0000
0000
1000
,
0000
1000
0000
0000
0000
0000
0000
0010
,
0000
0010
0000
0000
0000
0000
0000
0001
,
0000
0001
0000
0000
0000
0000
0000
0100
,
0000
0100
0000
0000
0000
0000
0000
2002
,
0000
0000
0000
0000
0000
0000
0000
3003
;

//---------------dance-single - ----------------
#NOTES:
     dance-single:
     :
     Easy:
     3:
     0.322,0.322,0.215,0.098,0.000:
0000
0000
0000
0000
,
0000
0000
0000
0000
,
0000
0000
0000
0000
,
0000
0000
0000
0000
0000
1000
0000
0000
,
0000
0000
0000
0000
,
0000
0000
0000
0000
0000
0000
0000
0001
,
0000
0000
0000
0000
,
0000
0000
0000
0000
0000
0000
0000
1000
,
0000
0001
0000
0100
0000
0100
0000
0001
,
0000
1000
0000
0010
0000
0010
0000
1000
,
0000
0001
0000
0100
0000
0100
0000
0001
,
0000
0010
0000
0100
0000
1000
0000
0001
,
0000
1000
0000
0001
0000
0001
0000
1000
,
0000
0001
0000
1000
0000
1000
0000
0010
,
0000
0100
0000
0010
0000
0010
0000
1000
,
0000
0001
0000
0100
0000
0010
0000
1000
,
0000
1000
0000
1000
0000
1000
0000
1000
,
0000
0000
0000
0000
0000
0000
0000
0001
,
0000
0001
0000
0001
0000
0001
0000
2000
,
0000
0000
3000
0000
0000
0000
0000
0010
,
0000
1000
0000
0001
0000
0000
0000
0100
,
0000
0100
0000
0100
0000
0001
0000
1000
,
0000
0001
0000
0100
0000
0000
0000
0010
,
0000
0000
0000
0000
0000
0000
0000
2000
,
0000
0000
3000
0002
0000
0000
0003
0100
,
0000
0100
0000
0010
0000
0000
0000
1000
,
0000
0010
0000
1000
0000
0001
0000
0100
,
0000
0010
0000
0100
0000
0001
0000
2000
,
0000
0000
0000
0000
0000
3000
0000
0001
,
0000
0001
0000
0000
0000
0002
0000
0000
,
0000
0000
0003
0100
,
0010
0000
0100
0000
0000
0000
0000
1001
,
0000
1001
0000
0010
0000
0010
0000
0100
,
0000
1000
0000
0001
0000
1000
0000
0110
,
0000
0110
0000
0001
0000
0100
0000
0010
,
0000
0000
1000
0000
0000
0000
0000
0110
,
0000
0110
0000
0001
0000
0001
0000
1000
,
0000
1000
0000
0010
0000
0100
0000
0001
,
0000
0010
0000
0100
0000
1000
0000
0010
,
0000
0000
0100
0000
0000
0000
0000
1001
,
0000
1001
0000
0110
0000
0000
0000
0001
,
0000
0001
0000
1000
0000
1000
0000
0020
,
0000
0000
0000
0000
0030
0000
0000
0100
,
0000
0100
0000
0100
0000
0000
0000
1001
,
0000
1001
0000
0110
0000
0000
0000
1000
,
0000
1000
0000
0010
0000
0100
0000
0002
,
0000
0000
0000
0000
0000
0003
0000
1000
,
0000
0010
0000
0100
0000
0000
0000
0001
,
0000
0011
0000
1000
0000
1000
0000
0100
,
0000
1100
0000
0010
0000
0010
0000
0100
,
0000
0110
0000
0001
0000
0001
0000
1000
,
0000
0100
0000
0010
0000
0001
0000
1000
,
0000
1100
0000
0010
0000
0010
0000
0001
,
0000
0011
0000
0100
0000
0100
0000
0010
,
0000
1010
0000
0100
0000
0100
0000
0001
,
0000
0010
0000
0100
0000
1000
0000
0001
,
0000
0001
0000
1000
0000
1000
0000
0010
,
0000
0100
0000
0001
0000
0001
0000
0100
,
0000
0010
0000
1000
0000
0100
0000
0010
,
0000
0000
0002
0000
0003
0000
0000
1000
,
0000
0010
0000
0100
0000
0100
0000
0001
,
0000
1000
0000
0010
0000
0100
0000
0001
,
0000
0010
0000
0100
0000
1000
0000
0010
,
0000
0000
2000
0000
3000
0000
0000
0001
,
0000
1001
0000
0100
0000
0001
0000
1000
,
0000
0110
0000
0001
0000
0100
0000
1000
,
0000
0101
0000
1000
0000
0001
0000
1000
,
0000
0100
0000
0010
0000
0001
0000
1000
,
0000
1001
0000
0010
0000
0010
0000
0100
,
0000
0110
0000
1000
0000
0001
0000
1000
,
0000
0010
0000
0001
0000
0001
0000
1000
,
0000
0100
0000
0001
0000
2002
0000
3003
;

//---------------dance-single - Copied from----------------
#NOTES:
     dance-single:
     Copied from:
     Medium:
     7:
     0.492,0.514,0.376,0.009,0.000:
0000
0000
0000
0000
,
0000
0000
0000
0000
0000
0000
0000
1000
,
0000
0000
0000
0000
,
0000
0000
0000
0000
0000
0000
0000
0001
,
0000
0000
0000
0000
,
0000
0000
0000
0000
0000
0000
0000
1000
,
0000
0000
0000
0000
,
0000
0000
0000
0000
0000
0000
0000
0010
,
0000
1010
0000
0100
0001
0100
0000
0010
,
0000
0110
0000
0001
0010
0001
0000
1000
,
0000
1010
0000
0010
0001
0010
0000
1000
,
0100
0010
0000
0001
1000
0001
0000
0110
,
0000
0110
0000
0001
1000
0001
0000
1010
,
0000
1010
0000
0100
0001
0100
0000
0101
,
0000
0101
0000
1000
0001
1000
0000
0001
,
0010
0100
0000
1000
0010
1000
0000
0001
,
0000
1000
0000
0010
0100
0010
0000
1000
,
0000
0001
0000
1000
0010
0000
0100
0000
,
0010
1000
0000
0010
0100
0000
0001
0000
,
0010
0010
0000
0000
0000
0000
0000
1000
,
0000
0001
0000
0100
0000
0010
0000
1000
,
0000
0010
0000
1001
0000
0010
0100
0000
,
1000
0000
0010
0100
0000
0000
0001
0000
,
1000
1000
0000
0000
0010
0000
0100
0000
,
0001
1000
0010
1000
0010
1000
0000
0001
,
0000
0010
0000
0100
0000
1000
0000
0010
,
0100
0010
0000
1000
0001
1000
0000
0010
,
0000
0100
0000
0001
0000
1000
0000
0010
,
0000
0100
0001
0100
0010
1000
0000
0001
,
0100
0001
0100
0000
0010
1000
0010
1000
,
0000
0001
0100
0001
0100
0010
1000
0000
,
1010
0000
1001
0000
0010
0010
0000
1000
,
0000
1010
0000
0001
0010
0001
0000
1010
,
0000
1010
0000
0101
0000
0101
0000
0010
,
0000
0010
0000
1000
0001
1000
0000
0010
,
0000
0110
0000
0002
0000
0000
0003
1000
,
0000
1000
0000
0010
0100
0010
0000
1000
,
0000
0001
0000
0100
0010
0100
0000
0001
,
0010
0100
0000
1000
0010
1000
0000
0001
,
0100
0000
0010
0000
0000
0000
0000
1000
,
0000
1000
0000
0001
0000
0001
0000
0100
,
0010
1000
0010
0100
0001
1000
0000
0010
,
0010
0010
0000
0100
0100
0100
0000
0001
,
1000
0001
0000
0010
0110
0110
0000
0001
,
1000
0001
0000
0100
0000
0010
0000
1000
,
0001
1000
0010
0100
0010
0100
0000
0001
,
0001
0001
0000
1000
1000
1000
0000
0010
,
0100
0010
0000
1001
0000
1001
0000
0010
,
0100
0010
0000
0001
1000
0001
0000
0100
,
0010
0100
0000
0001
1000
0001
0000
0100
,
0010
0100
0000
1000
0001
1000
0000
0010
,
0100
0010
0001
0010
0100
1000
0000
1001
,
0000
1001
0000
0110
0000
0110
0000
1010
,
0000
1010
0000
0110
0000
0110
0000
1001
,
0000
1001
0000
0101
0000
0101
0000
0010
,
0100
0010
0000
1000
0000
1000
0000
0101
,
0000
0101
0000
0010
1000
0010
0000
1000
,
0100
0010
0001
0010
1000
0010
0000
0100
,
0001
0100
0000
0010
1000
0010
0000
0100
,
0100
0000
0001
0000
0000
0000
0000
1000
,
0000
1000
0000
0010
0100
0010
0000
0001
,
0010
0100
1000
0100
0010
0001
0000
0010
,
0100
0010
1000
0010
0100
0010
0001
0010
,
0100
0000
1000
0000
0000
0000
0000
1010
,
0000
1010
0000
0001
0100
0001
0000
0110
,
0000
0110
0000
1000
0010
1000
0000
0110
,
0000
0110
0000
0001
1000
0001
0000
0010
,
0100
1000
0100
0010
0001
0010
0000
0010
,
1000
0010
0100
0010
0100
0001
0000
0010
,
1000
0010
0100
0010
0001
0010
0000
1000
,
0100
0010
0001
0010
0100
0010
0000
1000
,
0001
1000
0001
0010
0100
0010
0100
0000
;

//---------------dance-single - Copied from----------------
#NOTES:
     dance-single:
     Copied from:
     Hard:
     9:
     0.644,0.711,0.492,0.036,0.134: // measure 1
0000
0000
0000
0000
,  // measure 2
0000
0000
0000
0000
,  // measure 3
0000
0000
0000
0000
,  // measure 4
0000
0000
0000
0000
0000
0000
0000
0001
,  // measure 5
0000
0000
0000
0000
,  // measure 6
0000
0000
0000
0000
0000
0000
0000
1000
,  // measure 7
0000
0000
0000
0000
,  // measure 8
0000
0000
0000
0000
0000
0000
0000
0100
,  // measure 9
0010
0000
0100
0000
0010
0001
0000
0010
0001
0000
0010
0000
0010
0000
0100
0000
,  // measure 10
0010
0000
0100
0000
1000
0001
0000
1000
0001
0000
0100
0000
0100
0000
1000
0000
,  // measure 11
0010
0000
1000
0000
0100
0001
0000
0100
0001
0000
0010
0000
0010
0000
1000
0000
,  // measure 12
0100
0000
1000
0000
0010
0001
0000
0010
0001
0000
0100
0000
0100
0000
1000
0000
,  // measure 13
0010
0000
1000
0000
0100
0001
0000
0100
0001
0000
1000
0000
1000
0000
0001
0000
,  // measure 14
0100
0000
0001
0000
1000
0010
0000
1000
0010
0000
0001
0000
0001
0000
1000
0000
,  // measure 15
0010
0000
1000
0000
0100
0001
0000
0100
0001
0000
0010
0000
0010
0000
1000
0000
,  // measure 16
0100
0000
1000
0000
0010
0001
0000
0010
0001
0000
0100
0000
0100
0000
0001
0000
,  // measure 17
0010
0100
1000
0010
0100
0000
1001
0000
,  // measure 18
1001
0000
0010
0100
0010
1000
1100
0001
,  // measure 19
0010
0100
1000
0010
0100
0000
0001
0000
,  // measure 20
2000
3010
0000
0000
1000
0010
0100
0000
,  // measure 21
0010
0100
0001
0010
1000
0000
1010
0000
,  // measure 22
1010
0000
0101
0000
0010
0100
1000
0000
,  // measure 23
0100
0010
0100
0001
0001
0000
1000
0000
,  // measure 24
1010
1010
0000
0000
0001
0010
1000
0010
,  // measure 25
1000
0010
1000
0001
0100
0010
1000
0001
,  // measure 26
1000
0100
0010
0000
0001
1000
0100
1000
,  // measure 27
0010
0100
0010
0100
0001
0010
1000
0000
,  // measure 28
1000
0001
1010
0000
0001
0010
0100
1000
,  // measure 29
0100
0010
0001
0010
0100
0010
1000
0010
,  // measure 30
0100
0010
0001
0000
1000
0100
0010
0001
,  // measure 31
0100
0010
0100
0010
1000
0001
0100
0000
,  // measure 32
1001
0000
1001
0000
0010
0100
0000
1001
,  // measure 33
0000
0000
1001
0000
0000
0000
0010
0000
1000
0010
0000
0000
0001
0000
0010
0000
,  // measure 34
0100
1000
0001
1000
0010
0100
0000
0001
,  // measure 35
1000
0001
0100
0010
1000
0001
0100
0010
,  // measure 36
1000
0000
1001
0000
0000
0000
0000
1001
,  // measure 37
0000
0000
0110
0000
0000
0000
1000
0000
0010
0100
0000
0000
0000
0000
0001
0000
,  // measure 38
0010
0100
1000
0010
0100
0010
0000
1000
,  // measure 39
0100
0001
1000
0100
1000
0001
1000
0100
,  // measure 40
1000
0000
0101
0000
0000
0000
0000
1010
,  // measure 41
0000
0000
0101
0000
0000
0000
0010
0000
0000
1000
0010
0000
0001
0000
0100
0000
,  // measure 42
1000
0000
0100
0000
0001
0000
0010
0000
1000
0000
0010
0000
0000
0000
0100
0001
,  // measure 43
0100
0001
0100
0000
0001
1000
0001
1000
0001
1000
0001
0000
0001
0000
1000
0000
,  // measure 44
0100
0010
0001
0010
0100
0100
0000
1001
,  // measure 45
0000
0000
1001
0000
0000
0000
1010
0000
0000
0001
1000
0000
0100
0000
0010
0000
,  // measure 46
0100
0000
0001
0000
1000
0000
0010
0000
0100
0000
0001
0000
0000
0000
0100
0001
,  // measure 47
0100
0001
0100
0000
0001
1000
0001
1000
0001
1000
0001
0000
0001
0000
1000
0000
,  // measure 48
0100
0010
0001
0010
1001
1001
0000
0110
,  // measure 49
0000
0110
0010
1000
0100
0010
0001
1001
,  // measure 50
0000
1001
0000
0010
1000
0001
1000
0110
,  // measure 51
0000
0110
0000
1000
0010
0001
0100
1001
,  // measure 52
0000
1001
0010
0100
1000
0010
0100
1001
,  // measure 53
0000
1001
0100
0010
0100
0001
1000
1010
,  // measure 54
0000
1001
0100
0010
0100
0001
1000
0101
,  // measure 55
0000
1001
0100
0010
1000
0001
1000
0001
,  // measure 56
0010
0100
1000
0100
0010
0100
0010
1001
,  // measure 57
0000
1001
0000
0010
0100
0010
1000
0010
,  // measure 58
0100
0001
0010
1000
1000
1000
0000
0001
,  // measure 59
0100
0010
0100
0010
1000
0001
0100
1000
,  // measure 60
0002
0000
1003
0000
0000
0000
0000
0001
,  // measure 61
1000
0001
0100
0010
0100
0010
0000
1000
,  // measure 62
0100
0010
0001
0010
0100
1000
0000
0001
,  // measure 63
0100
0010
1000
0100
0010
0001
0010
1000
,  // measure 64
0010
0000
1001
0000
0010
0010
0000
1000
,  // measure 65
0001
1000
0000
1001
0000
1001
0000
0010
,  // measure 66
0100
0010
0000
1100
0000
1010
0000
0001
,  // measure 67
1000
0001
0000
1010
0000
1010
0000
0100
,  // measure 68
0001
0010
0100
1000
0100
0010
0001
1010
,  // measure 69
0000
0101
0000
0010
1000
0010
0000
0101
,  // measure 70
0000
1001
0010
0100
1000
0001
0100
1001
,  // measure 71
0000
1001
0100
0010
0100
0001
0000
1000
,  // measure 72
0010
1000
0100
0001
1000
1001
2002
0000
,  // measure 73
0000
3003
0000
0000
;
