#TITLE:Death is the Road to Awe;
#SUBTITLE:;
#ARTIST:Clint Mansell;
#CREDIT:crusher189;
#MUSIC:[Break] - Death is the Road to Awe.ogg;
#SELECTABLE:YES;
#BACKGROUND:[Break] - Death is the Road to Awe-bg.png;
#BANNER:[Break] - Death is the Road to Awe.png;
#CDTITLE:;
#OFFSET:-0.803991;
#SAMPLESTART:9.774;
#SAMPLELENGTH:12.967;
#BPMS:0=73.5797,2=73.5838,3=73.5797,10=73.5838,11=73.8178,18=73.8075,19=74.1239,21=74.126,22=74.1218,23=74.3864,27=73.2883,30=73.0637,32=73.0657,33=73.0576,34=73.9354,37=73.9292,38=73.2355,41=73.2335,42=72.8284,45=72.8223,46=73.6063,49=73.6002,50=73.8611,54=73.7623,58=73.2538,61=73.2497,62=73.1728,65=73.1707,66=73.8467,69=73.8405,70=73.4898,73=73.4857,74=72.2516,75=73.8467,77=73.8405,78=73.4898,79=155.95,80=155.941,81=155.95,82=155.941,83=155.95,84=155.941,85=155.95,86=155.941,87=155.95,88=155.941,90=155.931,91=152.121,105=152.095,107=149.745,121=149.72,122=149.711,123=150.349,124=150.341,125=150.349,126=150.341,127=150.349,128=150.341,129=150.349,130=150.341,131=150.349,132=150.341,133=150.349,134=150.341,135=150.349,136=150.341,137=150.349,138=150.341,139=150.128,140=150.119,141=150.128,142=150.119,143=150.128,144=150.119,145=150.128,146=150.119,147=150.128,148=150.119,149=150.128,150=150.119,151=150.128,152=150.119,153=147.978,154=147.97,155=146.747,157=151.036,169=146.731,171=145.153,173=141.188,175=145.153,179=141.188,181=147.221,183=127.279,184=130.493,185=121.287,186=124.202,187=129.307,188=129.3,189=128.503,195=128.509,196=128.503,199=128.49,201=130.493,206=130.499,207=130.493,212=130.499,213=130.493;
#BGCHANGES:0.000=[Break] - Death is the Road to Awe-bg.png=1.000=0=0=0=StretchNoLoop====,
3.000=[Break] - Death is the Road to Awe.avi=1.000=0=0=1=====,
99999=-nosongbg-=1.000=0=0=0 // don't automatically add -songbackground-;
#STOPS:;

//---------------dance-single - ----------------
#NOTES:
     dance-single:
     :
     Easy:
     2:
     0.000,0.000,0.000,0.000,0.000:
0000
0000
0000
0000
,
0000
0000
0000
0000
,
0000
0000
0000
0000
,
0000
0000
0000
1000
,
0000
0001
0000
2000
,
0000
0000
0000
3002
,
0000
0000
0000
0203
,
0000
0000
0000
0302
,
0000
0000
0000
2003
,
0000
0000
0000
3020
,
0000
0000
0000
0230
,
0000
0000
0000
0302
,
0000
0000
0000
1003
,
0000
1000
0000
0001
,
0000
0001
0000
0200
,
0000
0000
0000
0320
,
0000
0000
0000
2030
,
0000
0000
0000
3001
,
0000
0001
0000
0010
,
0000
0010
0000
0000
,
0000
0000
0000
0000
,
0000
0000
0000
0000
,
0000
0000
0000
1000
,
0000
1000
0000
0010
,
0000
0010
0000
0100
,
0000
0100
0000
0001
,
0000
0001
0000
1000
,
0000
1000
0000
0001
,
0000
0001
0000
0100
,
0000
0100
0000
0010
,
0000
0010
0000
1000
,
0000
1000
0000
0100
,
0000
0100
0000
0010
,
0000
0010
0000
0001
,
0000
0001
0000
1000
,
0000
1000
0000
0001
,
0000
0001
0000
0100
,
0000
0100
0000
0010
,
0000
0010
0000
2000
,
0000
0000
0000
0000
,
0000
0000
0000
0000
,
0000
0000
0000
0000
,
0000
0000
0000
3002
,
0000
0000
0000
0000
,
0000
0000
0000
0000
,
0000
0000
0000
0000
,
0000
0000
0000
0203
,
0000
0000
0000
0000
,
0000
0000
0000
0000
,
0000
0000
0000
0000
,
0000
0000
0300
0000
,
0000
0000
0000
0000
,
0000
0000
0000
0000
,
0000
0000
0000
0000
,
0000
0000
0000
0000
;

//---------------dance-single - ----------------
#NOTES:
     dance-single:
     :
     Medium:
     4:
     0.000,0.000,0.000,0.000,0.000:
0000
0000
0000
0000
,
0000
0000
0000
0000
,
0000
0000
0000
0000
,
0000
0000
0000
1000
,
0010
0000
0000
0100
0000
0000
0001
0000
0000
0001
0020
0000
,
0000
0000
0000
0000
0000
0000
0000
0000
0000
0031
2000
0000
,
0000
0000
0000
0000
0000
0000
0000
0000
0000
3001
0200
0000
,
0000
0000
0000
0000
0000
0000
0000
0000
0000
0310
2000
0000
,
0000
0000
0000
0000
0000
0000
0000
0000
0000
3001
0020
0000
,
0000
0000
0000
0000
0000
0000
0000
0000
0000
0031
0200
0000
,
0000
0000
0000
0301
,
0001
0100
0100
0010
,
0010
1000
1000
0010
,
0010
0100
0100
0001
,
0001
0000
0000
1000
0000
0000
1000
0000
0000
0002
0000
0023
,
0000
0000
0000
0000
0000
0000
0000
0000
0000
0032
0000
0203
,
0000
0000
0000
0000
0000
0000
0000
0000
0000
0302
0000
2003
,
0000
0000
0000
0001
,
0000
0000
0000
0001
,
0000
0000
0000
3000
,
0000
0000
0000
0000
,
0000
0000
0000
0000
,
0000
0000
0000
1000
,
0000
0001
0000
1000
0000
0000
0000
0001
0000
0010
0000
0000
,
0000
0001
0000
0100
0000
0000
0000
0010
0000
1000
0000
0000
,
0000
1000
0000
0010
,
0000
1000
0000
0001
,
0000
1000
0000
0001
0000
0000
0000
1000
0000
0100
0000
0000
,
0000
1000
0000
0010
0000
0000
0000
0100
0000
0001
0000
0000
,
0000
0001
0000
0100
,
0000
0001
0000
1000
,
0000
0001
0000
1000
0000
0000
0000
0001
0000
0010
0000
0000
,
0000
0001
0000
0100
0000
0000
0000
0010
0000
1000
0000
0000
,
0000
1000
0000
0010
,
0000
1000
0000
0001
,
0000
1000
0000
0001
0000
0000
0000
1000
0000
0100
0000
0000
,
0000
1000
0000
0010
0000
0000
0000
0100
0000
0001
0000
0000
,
0000
0001
0000
0100
,
0000
0100
0000
0200
,
0000
0000
0000
0000
,
0000
0000
0000
0000
,
0000
0000
0000
0000
,
0000
0000
0000
0302
,
0000
0000
0000
0000
,
0000
0000
0000
0000
,
0000
0000
0000
0000
,
0000
0000
0000
2003
,
0000
0000
0000
0000
,
0000
0000
0000
0000
,
0000
0000
0000
0000
,
0000
0000
3000
0000
,
0000
0000
0000
0000
,
0000
0000
0000
0000
,
0000
0000
0000
0000
,
0000
0000
0000
0000
;

//---------------dance-single - ----------------
#NOTES:
     dance-single:
     :
     Hard:
     7:
     0.000,0.000,0.000,0.000,0.000:
0000
0000
0000
0000
,
0000
0000
0000
0000
,
0000
0000
0000
0000
,
0000
0000
0000
0000
0000
0000
0000
0000
1000
0010
0000
0010
,
0100
0000
0100
0010
0000
0010
1000
0000
1000
0001
0000
0001
,
0010
0000
0000
0000
0010
0000
0001
0000
0000
0000
0001
0000
0100
0000
0000
0000
0100
0000
0001
0000
0100
0010
0100
0000
,
0001
0000
1000
0100
1000
0000
0010
0000
0100
0001
0100
0000
0001
0000
0100
0000
0010
0000
1000
0000
0001
0010
0001
0000
,
1000
0000
0010
0100
0010
0000
1000
0000
0001
0100
0001
0000
1000
0000
0100
0000
0010
0000
0001
0000
1000
0100
1000
0000
,
0001
0000
0100
0001
0100
0000
0010
0000
1000
0010
1000
0000
0001
0000
0010
0000
0200
0000
2300
0000
3200
0000
0000
0000
,
0302
0000
0203
0000
0000
0000
0000
0000
0320
0032
0203
0000
,
2300
0000
3200
0000
0000
0000
0000
0000
0302
0023
0230
0000
,
2300
3020
0230
0302
2003
0000
3200
0302
0203
0320
0032
0000
,
0203
2300
3200
0000
0000
0000
0000
0302
0203
0320
2030
3002
,
0000
0000
2003
0000
0000
0000
0000
3002
0203
0320
0230
0302
,
0000
0000
0000
0000
0000
0000
0000
2003
0000
3020
0000
0230
,
0000
0000
0000
0000
0000
0000
0000
0302
0000
2003
0000
3200
,
0000
0000
0000
0000
0000
0000
0000
0320
0000
0032
0000
2003
,
0000
0000
0000
0000
0000
0000
0000
0000
0000
0000
0000
0000
3000
0000
0010
0000
1000
0000
0010
0000
1000
0100
1000
0000
,
0001
0000
0100
0001
0100
0000
0010
0000
1000
0010
1000
0000
0001
0000
0100
0000
0010
0000
1000
0000
0010
0100
0001
0010
,
0001
0000
0010
0100
1000
0001
2000
0000
0000
0000
0000
0000
3000
0000
0000
0000
0000
0000
0000
0000
0000
0000
0000
0000
,
0000
0000
0000
0000
,
0000
0000
0000
0000
,
0000
0000
0000
0000
0000
0000
0000
0000
0000
1001
0000
0001
,
0000
0100
0000
0101
0000
0010
0000
0100
0000
0110
0000
0001
,
0000
0100
0000
0101
0000
0001
0000
1000
0000
1001
0000
0100
,
0000
1000
0000
1100
0000
0100
0000
0010
0000
0110
0000
0001
,
0000
0010
0000
0011
0000
0001
0000
1000
0000
1001
0000
1000
,
0000
0010
0000
1010
0000
0100
0000
0010
0000
0110
0000
1000
,
0000
0010
0000
1010
0000
1000
0000
0001
0000
1001
0000
0010
,
0000
0001
0000
0011
0000
0010
0000
0100
0000
0110
0000
1000
,
0000
0100
0000
1100
0000
1000
0000
0001
0000
1001
0000
0001
,
0000
0100
0000
0101
0000
0010
0000
0100
0000
0110
0000
0001
,
0000
0100
0000
0101
0000
0001
0000
1000
0000
1001
0000
0100
,
0000
1000
0000
1100
0000
0100
0000
0010
0000
0110
0000
0001
,
0000
0010
0000
0011
0000
0001
0000
1000
0000
1001
0000
1000
,
0000
0010
0000
1010
0000
0100
0000
0010
0000
0110
0000
1000
,
0000
0010
0000
1010
0000
1000
0000
0001
0000
1001
0000
0010
,
0000
0001
0000
0011
0000
0010
0000
0100
0000
0110
0000
1000
,
0000
0100
0000
1100
0000
1000
0000
0001
0000
1001
0000
1000
,
0000
0010
0000
0100
0000
0001
0000
0010
0000
0100
0000
0010
,
0000
0001
0000
0100
0000
1000
0000
0100
0000
0010
0000
0100
,
0000
0001
0000
0010
0000
0100
0000
1000
0000
0100
0000
0001
,
0000
0100
0000
1000
0000
0010
0000
0100
0000
0010
0000
1000
,
0000
0001
0000
1000
0000
0100
0000
0010
0000
0001
0000
1000
,
0000
0010
0000
0100
0000
0001
0000
0100
0000
1000
0000
0100
,
0000
0010
0000
0100
0000
0001
0000
0010
0000
0100
0000
0010
,
0000
0001
0000
0100
0000
1000
0000
0100
0000
0002
0000
0000
,
0000
0000
0000
0000
,
0000
0000
0000
0000
,
0000
0000
0000
0000
,
0000
0000
0003
0000
,
0000
0000
0000
0000
,
0000
0000
0000
0000
,
0000
0000
0000
0000
,
0000
0000
0000
0000
;
