#TITLE:Be Alive (Raaban Inc. Mix);
#SUBTITLE:;
#ARTIST:Stian K;
#TITLETRANSLIT:;
#SUBTITLETRANSLIT:;
#ARTISTTRANSLIT:;
#CREDIT:brunobg24;
#BANNER:[Break] - Be Alive (Raaban Inc. Mix).png;
#BACKGROUND:[Break] - Be Alive (Raaban Inc. Mix)-bg.png;
#LYRICSPATH:;
#CDTITLE:;
#MUSIC:[Break] - Be Alive (Raaban Inc. Mix).ogg;
#OFFSET:-0.040;
#SAMPLESTART:71.044;
#SAMPLELENGTH:13.522;
#SELECTABLE:YES;
#DISPLAYBPM:142.000;
#BPMS:0.000=142.000,114.000=71.000,115.000=35.500,116.000=71.000,124.000=142.000,148.000=162.000,148.500=182.000,149.000=202.000,149.500=222.000,150.000=242.000,150.500=262.000,151.000=282.000,151.500=302.000,152.000=322.000,152.500=342.000,153.000=362.000,153.500=382.000,154.000=402.000,154.500=422.000,155.000=442.000,155.500=462.000,156.000=71.000,158.000=142.000;
#STOPS:;
#BGCHANGES:;

//---------------dance-single - ----------------
#NOTES:
     dance-single:
     :
     Hard:
     9:
     0.613,0.607,0.124,0.086,0.423: // measure 1
0000
0000
0000
0000
,  // measure 2
0000
0000
0000
0000
,  // measure 3
1000
0001
1000
0001
,  // measure 4
1000
0100
0010
0001
,  // measure 5
0100
0010
0100
0010
,  // measure 6
1000
0010
0100
0001
,  // measure 7
1000
0001
1000
0100
0000
0100
1000
0000
,  // measure 8
0001
0010
0100
1000
0000
1000
0010
0000
,  // measure 9
0100
0001
0010
0001
0000
0001
0100
0000
,  // measure 10
0001
0000
0001
0000
1000
0000
0001
0000
0100
0000
0010
0100
0010
0000
0200
0000
,  // measure 11
0000
0300
0200
0000
0000
0300
0200
0000
0000
0300
0200
0000
0000
0300
0100
0000
,  // measure 12
0001
0010
0001
0010
0100
1000
0100
1000
0001
0100
0001
0100
0010
0000
0010
0000
,  // measure 13
1010
0000
1010
1000
0001
0010
0100
0010
,  // measure 14
0001
0000
1000
0001
0010
0001
1000
0010
,  // measure 15
0100
0000
0100
0000
0001
0000
0001
1000
0001
0000
1000
0000
0100
0000
0010
0000
,  // measure 16
0001
0100
1000
0100
0001
0000
1010
1010
,  // measure 17
1001
0000
1001
0001
1000
0100
0010
0100
,  // measure 18
1000
0000
0010
1000
0100
1000
0001
0010
,  // measure 19
0001
0001
1000
1000
0001
0010
0100
1000
,  // measure 20
0001
0000
0010
0000
1000
0000
0010
0000
0001
0000
0000
0000
1000
0000
0001
1000
,  // measure 21
0001
0000
1010
1000
0001
0100
0010
0100
,  // measure 22
0001
0000
1000
0010
0100
0001
0010
0001
,  // measure 23
1000
0000
1000
0000
0010
0000
0010
0100
0010
0000
1000
0000
0001
0000
0010
0000
,  // measure 24
0001
0100
1000
0100
0001
0000
0110
0110
,  // measure 25
1001
0000
1001
0001
1000
0100
0010
0001
,  // measure 26
0100
0000
0001
0100
1000
0100
0001
1000
,  // measure 27
0100
0100
1000
1000
0001
0100
0010
0100
,  // measure 28
0001
0000
0010
0000
0100
0000
1000
0000
0001
0000
0000
0000
1000
0000
0001
1000
,  // measure 29
0001
0000
0000
0000
,  // measure 30
1000
0000
0001
0100
0001
0000
0001
0010
0100
0000
0100
1000
0001
1000
0010
0100
,  // measure 31
0001
0000
1000
0100
0010
0000
0010
0100
1000
0000
1000
0001
0100
0001
0010
0001
,  // measure 32
0100
0000
0001
1000
0010
0000
0010
0100
,  // measure 33
0001
0000
0001
0010
0100
0010
0001
1000
,  // measure 34
0100
0000
1000
0001
0010
0000
0010
0001
,  // measure 35
0100
0000
0100
0001
0010
0100
1000
0001
,  // measure 36
0020
0030
0020
0030
0020
0030
0020
0030
,  // measure 37
0010
0000
0001
0000
0010
0000
0001
0000
1000
0001
1000
0001
1000
0001
1000
0001
,  // measure 38
2000
0000
0000
0000
,  // measure 39
0000
0000
0000
0000
,  // measure 40
3010
0000
0000
0100
0001
0000
0000
0000
1000
0000
0001
1000
0001
0000
0100
0010
,  // measure 41
0000
1000
0100
1000
0100
0000
0010
0000
0001
0000
0100
0000
0010
0000
1000
0001
,  // measure 42
0000
0100
0001
0100
0001
0000
1000
0001
1000
0000
0001
0100
0001
0000
1000
0001
,  // measure 43
0000
0010
0001
1000
0001
0000
1000
0010
1000
0000
0001
0100
0000
0001
0010
0001
,  // measure 44
0010
0000
0100
0000
1000
0000
0001
0000
1000
0000
0010
1000
0010
0000
0100
0001
,  // measure 45
0000
1000
0010
1000
0001
0000
0100
0000
0010
0000
1000
0000
0001
0000
0010
0001
,  // measure 46
0000
1000
0100
0010
0100
0000
1000
0001
1000
0000
0010
0100
0010
0000
0100
0001
,  // measure 47
0000
0001
1000
0001
1000
0000
0010
0100
0010
0000
1000
0000
0001
0000
0010
0001
,  // measure 48
0000
1000
0010
1000
0010
0000
0010
0000
0010
0000
0000
0000
1100
0000
1000
0001
,  // measure 49
0000
0100
0001
0100
0010
0000
1000
0000
0001
0000
0010
0000
0001
0000
1000
0001
,  // measure 50
0000
0001
0100
0001
0100
0000
0010
1000
0010
0000
1000
0100
1000
0000
0001
0100
,  // measure 51
0000
0001
1000
0001
1000
0000
0010
1000
0010
0000
1000
0100
0000
1000
0001
1000
,  // measure 52
0001
0000
0010
0000
0001
0000
0100
0000
0010
0000
1000
0001
1000
0000
0001
0010
,  // measure 53
0000
0001
1000
0100
1000
0000
0001
0000
0100
0000
0010
0000
1000
0000
0001
0100
,  // measure 54
0000
0100
0010
0100
0010
0000
1000
0010
1000
0000
0001
0100
0001
0000
0010
0001
,  // measure 55
0000
1000
0001
1000
0010
0000
1000
0100
1000
0000
0001
0000
0010
0000
0001
1000
,  // measure 56
0000
0100
1000
0100
1000
0000
0001
0000
1001
0000
0000
0000
0000
0000
0000
0000
;

//---------------dance-single - ----------------
#NOTES:
     dance-single:
     :
     Medium:
     8:
     0.459,0.475,0.362,0.067,0.000:
0000
0000
0000
0000
,
0000
0000
0000
0000
,
1000
0001
1000
0001
,
1000
0100
0010
0001
,
0100
0010
0100
0010
,
1000
0010
0100
0001
,
1001
0000
0110
0000
1000
0100
0010
0100
,
1000
0001
0010
0100
1100
0000
1001
0000
,
1000
0100
0010
0001
1000
0010
0100
0001
,
1000
0001
0100
0010
0100
1000
0100
0010
,
0000
0010
0000
0010
0000
0010
0000
0010
,
1000
1000
0100
0100
0010
0010
0001
0001
,
1001
0000
0110
0000
1000
0001
0010
0100
,
1000
0000
0001
0010
1000
0010
0001
0001
,
1000
1000
0100
0100
0010
0100
1000
0001
,
0100
0100
0001
0001
0011
0000
1000
0010
,
1010
0000
1001
0000
0001
0010
0100
1000
,
0010
0000
1000
0010
0001
0010
1000
1000
,
0001
0001
0100
0100
0010
1000
0001
0010
,
0100
0100
0010
0001
1001
0000
0101
0000
,
1010
0000
1100
0000
1000
0001
0100
0010
,
1000
0000
0001
0010
0100
0001
0100
0100
,
1000
1000
0001
0001
0100
0010
1000
0010
,
0100
0100
0001
1000
0010
0000
1000
0001
,
0101
0000
0110
0000
0010
1000
0100
0010
,
0100
0000
0010
0001
0010
1000
0010
0010
,
0001
0001
0100
0100
0010
1000
0100
1000
,
0001
0001
0010
0100
0010
0000
0011
0000
,
1001
0000
0000
0000
,
2000
0000
3002
0000
0203
0000
0000
0301
,
0020
0000
0230
0000
2300
0000
0000
3010
,
1000
0001
1000
0001
,
0100
0010
0100
0110
,
0001
1000
0001
1000
,
0010
0100
0010
0110
,
1000
0100
0010
0001
,
1000
0010
0100
0001
,
2000
0000
0000
0000
,
0000
0000
0000
0000
,
3001
1001
1000
0100
,
0001
0100
1000
0010
,
0001
0010
1000
0100
,
0010
1000
0010
0001
,
0010
0100
0110
0010
,
0011
0001
1001
1000
,
1010
0010
0110
1010
,
1100
1001
0101
0011
,
1001
0000
1100
0000
1001
0000
1000
0100
,
0010
0100
1000
0001
0010
0100
0010
0001
,
1000
0010
0100
0100
0001
0001
1000
1000
,
0001
0010
0100
1000
0100
0010
0001
1000
,
0001
0000
1001
0000
1100
0000
1000
0100
,
0010
1000
0010
0001
0100
0010
1000
0001
,
0010
0100
1000
1000
0001
0001
0100
0100
,
0001
0100
0010
1000
0001
1000
0001
0010
,
0011
1001
1100
0000
;

//---------------dance-single - ----------------
#NOTES:
     dance-single:
     :
     Easy:
     4:
     0.261,0.290,0.019,0.086,0.000:
0000
0000
0000
0000
,
0000
0000
0000
0000
,
1000
0000
0000
0000
,
0001
0000
0000
0000
,
1000
0000
0000
0000
,
0010
0000
0100
0000
,
0010
0000
0100
0000
0000
0001
1000
0000
,
1000
0000
0010
0000
0000
0100
0001
0000
,
0001
0000
0010
0000
0000
0100
2000
0000
,
3010
0000
0000
0000
0000
0000
0000
0100
,
0000
0100
0000
0100
0000
0100
0000
0100
,
0020
0000
0000
0000
,
1030
0100
0010
0001
,
0010
0100
1000
0001
,
1000
0010
0100
0001
,
0010
0100
0010
0000
,
0001
0010
1000
0010
,
0001
0100
1000
0100
,
0010
1000
0001
0100
,
0010
1000
0100
0000
,
1000
0001
0100
0010
,
1000
0100
0010
0001
,
1000
0001
0010
0100
,
0010
0001
1000
0001
,
0010
0100
1000
0001
,
1000
0010
0100
0001
,
1000
0001
0100
0010
,
1000
0010
1000
0100
,
0010
0000
0000
0000
,
0002
2003
3020
0000
,
0230
0302
2003
0000
,
3001
0010
0001
0010
,
0100
1000
0100
1000
,
0010
0100
0010
0100
,
0001
1000
0001
1000
,
0001
0001
0001
0001
,
1000
0100
0010
0001
,
2000
0000
0000
0000
,
0000
0000
0000
0000
,
3000
0000
0001
0010
,
1000
0010
0001
0100
,
1000
0100
0001
1000
,
0010
0100
0001
0000
,
1001
0000
1000
0001
,
0100
0010
1000
0100
,
0010
0001
0010
0100
,
1000
0001
0010
0100
,
0010
0001
1000
0010
,
0100
0001
1000
0100
,
0001
0100
1000
0100
,
0010
0001
1000
0010
,
0001
0010
1000
0001
,
0010
0100
0010
0001
,
1000
0100
0010
0100
,
1000
0001
0100
0001
,
1000
0001
1001
0000
;

//---------------dance-single - ----------------
#NOTES:
     dance-single:
     :
     Beginner:
     2:
     0.170,0.264,0.000,0.067,0.000:
0000
0000
0000
0000
,
0000
0000
0000
0000
,
0000
0000
0000
0000
,
0000
0000
0000
0000
,
0000
0000
0000
0000
,
0000
0000
0000
0000
,
1000
0000
0001
0000
,
1000
0000
0001
0000
,
0100
0000
0010
0000
,
0100
0000
0000
0000
,
0000
0000
0000
0000
,
1000
1000
0001
0001
,
1000
0000
0010
0000
,
1000
0000
0010
0000
,
0100
0000
0001
0000
,
0100
0000
0001
0000
,
1000
0000
0001
0000
,
1000
0000
0001
0000
,
0100
0000
0010
0000
,
0100
0000
0010
0000
,
1000
0000
0010
0000
,
1000
0000
0001
0000
,
0100
0000
0010
0000
,
0100
0000
0001
0000
,
0010
0000
0100
0000
,
0010
0000
0100
0000
,
0010
0000
0001
0000
,
1000
0000
0001
0000
,
1000
0000
0000
0000
,
2000
3002
2003
0000
,
3020
0230
0320
0000
,
1030
1000
1000
0000
,
0001
0001
0001
0000
,
0100
0100
0100
0000
,
0010
0010
0010
0000
,
1000
0000
0001
0000
,
1000
0001
1000
0001
,
2000
0000
0000
0000
,
0000
0000
0000
0000
,
3000
0000
0001
0000
,
1000
0000
0001
0000
,
0100
0000
0010
0000
,
1000
0000
0100
0000
,
0010
0000
0001
0000
,
1000
0000
0001
0000
,
0100
0000
0010
0000
,
1000
0000
0001
0000
,
0100
0000
0001
0010
,
0001
0010
0100
1000
,
0100
1000
0001
1000
,
0001
1000
0010
0100
,
0010
0100
0001
0100
,
0001
0100
0010
1000
,
0010
1000
0100
0010
,
0100
0010
0001
1000
,
0001
1000
0001
0000
;
