#VERSION:0.81;
#TITLE:BLOODY STREAM;
#SUBTITLE:;
#ARTIST:Coda;
#TITLETRANSLIT:;
#SUBTITLETRANSLIT:;
#ARTISTTRANSLIT:;
#GENRE:;
#ORIGIN:;
#CREDIT:;
#BANNER:[Break] - BLOODY STREAM.png;
#BACKGROUND:[Break] - BLOODY STREAM-bg.png;
#PREVIEWVID:;
#JACKET:[Break] - BLOODY STREAM-jacket.png;
#CDIMAGE:;
#DISCIMAGE:;
#LYRICSPATH:;
#CDTITLE:;
#MUSIC:[Break] - BLOODY STREAM.mp3;
#OFFSET:-0.094014;
#SAMPLESTART:51.201241;
#SAMPLELENGTH:12.000000;
#SELECTABLE:YES;
#BPMS:0.000=132.000;
#STOPS:111.250=0.455;
#DELAYS:;
#WARPS:;
#TIMESIGNATURES:0.000=4=4;
#TICKCOUNTS:0.000=4;
#COMBOS:0.000=1;
#SPEEDS:0.000=1.000=0.000=0;
#SCROLLS:0.000=1.000;
#FAKES:;
#LABELS:0.000=Song Start;
#BGCHANGES:-0.750=[Break] - BLOODY STREAM.avi=1.000=0=0=0=StretchNoLoop====,
99999=-nosongbg-=1.000=0=0=0 // don't automatically add -songbackground-
;
#KEYSOUNDS:;
#ATTACKS:
;

//---------------dance-single - ----------------
#NOTEDATA:;
#CHARTNAME:;
#STEPSTYPE:dance-single;
#DESCRIPTION:;
#CHARTSTYLE:;
#DIFFICULTY:Hard;
#METER:9;
#RADARVALUES:0.544993,0.589558,0.208888,0.329823,0.527716,298.000000,19.000000,30.000000,0.000000,0.000000,0.000000,0.000000,0.000000,0.544993,0.589558,0.208888,0.329823,0.527716,298.000000,19.000000,30.000000,0.000000,0.000000,0.000000,0.000000,0.000000;
#CREDIT:;
#NOTES:
0000
0000
0000
0000
,
0000
0000
0000
0000
,
0000
0000
0000
0000
0000
0000
0000
2002
,
0000
0000
0000
3003
,
1000
0000
0100
0000
0010
0000
0000
0001
0000
0001
0000
0000
0101
0000
0000
0100
,
0010
0000
1000
0000
0001
0000
0000
0100
0000
0100
0000
0000
0110
0000
0000
0010
,
1000
0000
0001
0000
0010
0000
0000
0100
0000
0100
0000
0000
2100
0000
0000
0000
,
3002
0000
0100
0000
0103
0000
0000
0010
0000
0010
0000
0000
2001
0000
0000
0000
,
3001
0000
0100
0000
0010
0000
0000
1000
0000
0100
0000
0010
0001
0000
0000
0000
,
1000
0000
0010
0000
0100
0000
0000
0001
0000
0010
0000
0100
1000
0000
0000
0000
,
0001
0000
1000
0000
0010
0000
0000
0100
0000
0001
0000
1000
0100
0000
1000
0000
,
0001
0100
0000
0001
1000
0000
1000
0100
0000
1000
0001
1000
0001
1000
0001
1000
,
0100
0000
0010
0000
0001
0000
0000
1000
0000
0010
0000
0000
0110
0000
0000
0100
,
0001
0000
0010
0000
0100
0000
0000
1000
0000
0001
0000
0000
0101
0000
0000
0100
,
0010
0000
1000
0000
0100
0000
0000
0010
0000
0001
0000
0000
2001
0000
0000
0000
,
3020
0000
0230
0000
0302
0000
2003
0100
,
3100
0000
1000
0000
0010
0000
0000
0100
0000
0001
0000
0000
1001
0000
0000
1000
,
0100
0000
0010
0000
0001
0000
0000
0100
0000
0010
0000
0000
1010
0000
0000
1000
,
0001
0000
0010
0000
0100
0000
0000
1000
0000
0001
0000
1000
0010
0000
0000
0000
,
1000
0100
1000
0001
0100
0001
1000
0100
0010
0000
0001
0010
0001
0010
0100
1000
,
0002
0100
1000
0013
,
2001
0100
0001
3010
,
0120
1000
0001
0130
,
0210
0000
1000
0000
0001
0000
0310
0010
,
1000
0000
0000
0100
0000
0000
0020
0000
0000
0000
0000
0000
0001
0000
0000
0000
,
1000
0000
0000
0000
0100
0000
0000
0000
0031
0000
0000
1000
0000
0000
0010
0000
,
0200
1000
0010
0301
,
1000
0000
0100
0000
0000
0000
0010
0000
0000
0000
0001
0000
0000
0000
1000
0000
0000
0000
0010
0000
0000
0000
0110
0000
0000
0000
2002
3003
0000
0000
0000
0000
,
0000
0000
0000
0000
0001
1000
0001
1000
0001
1000
0001
0000
0100
0000
0100
0000
,
0001
1000
0000
0010
0000
0000
1000
0000
0100
0000
0010
0000
0001
0000
0100
0000
,
0010
1000
0000
0100
0000
0000
0010
0000
0010
0000
0001
1000
0001
0000
0100
0000
,
1000
0100
0001
0010
1000
0010
0001
0001
,
1000
0010
0000
0100
0000
0010
1000
0000
1001
0000
0000
0000
0001
0000
0001
0000
,
0010
0100
0000
1000
0000
0000
0001
0000
0100
0000
0010
0000
2000
0000
0000
0000
,
3001
0100
1000
0100
0010
1000
0002
0000
,
1000
0000
2000
0000
0000
0000
0000
0000
3003
0000
0000
0000
0001
0100
0001
1000
,
0100
1000
0001
0010
0100
0000
0220
0000
0000
0000
0330
0000
0001
0000
1000
0000
,
0100
0010
0000
0100
0000
0000
1000
0000
0001
0000
0010
0000
0100
0000
1000
0000
,
0010
0100
0000
0010
0000
0000
1000
0000
0001
0000
0010
0000
0100
0000
1000
0000
,
0100
0001
0010
1000
0010
0001
0100
1000
,
0010
0100
0000
0010
0000
1000
0000
1000
0001
0000
0001
0000
0010
0000
0001
0000
,
1000
0001
0000
0100
0000
0000
0010
0000
1000
0000
0001
0000
0010
0000
0100
0000
,
0010
0001
0000
1000
0000
0000
0010
0000
0100
0000
0002
0000
1000
0000
0000
0000
,
0013
0001
0000
1000
0000
0010
0000
0100
0000
0001
0000
0010
0100
0000
0000
0000
,
0220
0000
0330
2000
,
0100
0000
0000
0000
0000
0001
0000
0000
3010
0000
0000
0000
0002
0000
0000
0000
,
0100
0000
0000
0000
0000
1000
0000
0000
0013
0000
0000
0000
0220
0000
0000
0000
,
0000
0000
0000
0000
,
0000
0000
0000
0000
0000
0330
0100
0000
;

//---------------dance-single - ----------------
#NOTEDATA:;
#CHARTNAME:;
#STEPSTYPE:dance-single;
#DESCRIPTION:;
#CHARTSTYLE:;
#DIFFICULTY:Medium;
#METER:6;
#RADARVALUES:0.340817,0.428769,0.186899,0.373799,0.104444,166.000000,17.000000,34.000000,0.000000,0.000000,0.000000,0.000000,0.000000,0.340817,0.428769,0.186899,0.373799,0.104444,166.000000,17.000000,34.000000,0.000000,0.000000,0.000000,0.000000,0.000000;
#CREDIT:;
#NOTES:
0000
0000
0000
0000
,
0000
0000
0000
0000
,
0000
0000
0000
0000
,
0000
0000
0000
0000
,
1000
0000
0000
0000
0010
0000
0000
0000
0000
0100
0000
0000
0100
0000
0000
0000
,
0001
0000
0000
0000
0010
0000
0000
0000
0000
0100
0000
0000
0100
0000
0000
0000
,
1000
0000
0000
0000
0001
0000
0000
0000
0000
0100
0000
0000
0200
0000
0000
0000
,
0302
0000
0000
0000
1000
0000
0000
0000
0000
0010
0000
0000
0013
0000
0000
0000
,
0001
0000
1000
0000
0100
0100
0100
0000
,
1000
0000
0010
0000
0100
0100
0100
0000
,
0002
0000
0000
2000
0000
0000
3003
0000
,
1000
0000
0000
0001
0000
0000
1000
0000
0000
0100
0000
0000
0010
0000
0000
0000
,
0001
0000
0000
0000
0100
0000
0000
0000
0000
0010
0000
0000
0110
0000
0000
0000
,
1000
0000
0000
0000
0100
0000
0000
0000
0000
0010
0000
0000
0110
0000
0000
0000
,
0001
0000
0000
0000
1000
0000
0000
0000
0000
0010
0000
0000
0120
0000
0000
0000
,
2030
0000
0000
0000
3002
0000
0000
0003
0020
0000
0000
0000
0230
0000
0000
0000
,
1300
0000
0000
0000
0001
0000
0000
0000
0000
0100
0000
0000
0100
0000
0000
0000
,
0001
0000
0000
0000
1000
0000
0000
0000
0000
0010
0000
0000
0010
0000
0000
0000
,
0100
0000
0000
0000
0001
0000
0000
0000
0000
0010
0000
0000
0100
0000
0000
0000
,
1000
0000
0000
0001
0000
0000
1000
0000
0000
0000
0001
0000
0001
0000
0001
0000
,
0200
0001
0001
0301
,
0020
1000
1000
1030
,
0002
0100
0100
0103
,
2000
0010
0010
3010
,
0100
0001
1000
0100
,
0010
0100
1000
0001
,
0100
0110
0100
0110
,
0002
0000
0000
0000
0000
0000
0000
0000
2000
0000
0000
0000
0000
3003
0000
0000
,
0000
0000
0000
0100
,
1001
0000
0000
1001
0000
0000
0000
0000
0001
0000
0000
0000
1000
0000
0001
0000
,
1000
0000
0000
0020
0000
0000
0000
0000
0030
0000
0000
0000
0100
0000
0100
0000
,
0100
0000
0001
0001
0001
0000
1000
0100
,
1000
0001
0100
0000
0000
0000
0010
0000
,
1001
0000
0000
1001
0000
0000
0000
0000
1000
0000
0000
0000
0002
0000
0000
0000
,
0010
1000
0103
2000
,
0000
0000
0002
0000
0000
0000
0000
0000
3003
0000
0000
0000
0001
0000
0000
1000
,
0000
0001
0000
1001
0000
0000
0100
0000
,
1001
0000
0000
1001
0000
0000
0000
0000
1000
0000
0000
0000
0001
0000
1000
0000
,
0001
0000
0000
0020
0000
0000
0000
0000
0030
0000
0000
0000
0001
0000
0100
0000
,
0001
0000
1000
0010
1000
0000
0001
1000
,
0001
0010
0200
0000
0300
0000
2200
0000
,
3300
0202
0303
0022
,
0033
0000
0000
1000
0001
0200
0020
0000
,
0000
0000
0330
0110
,
2002
0000
3003
0002
,
0010
0000
0010
2003
,
0010
0000
0010
0002
,
0000
0000
0000
0000
,
0000
0000
3003
0100
;

//---------------dance-single - ----------------
#NOTEDATA:;
#CHARTNAME:;
#STEPSTYPE:dance-single;
#DESCRIPTION:;
#CHARTSTYLE:;
#DIFFICULTY:Easy;
#METER:4;
#RADARVALUES:0.238729,0.294779,0.186899,0.230876,0.000000,114.000000,17.000000,21.000000,0.000000,0.000000,0.000000,0.000000,0.000000,0.238729,0.294779,0.186899,0.230876,0.000000,114.000000,17.000000,21.000000,0.000000,0.000000,0.000000,0.000000,0.000000;
#CREDIT:;
#NOTES:
// measure 0
0000
0000
0000
0000
,  // measure 1
0000
0000
0000
0000
,  // measure 2
0000
0000
0000
0000
,  // measure 3
0000
0000
0000
0000
,  // measure 4
1000
0010
0000
0010
,  // measure 5
1000
0001
0000
0001
,  // measure 6
1000
0100
0000
0100
,  // measure 7
2000
0000
3000
0000
,  // measure 8
0001
0100
0000
0100
,  // measure 9
0001
1000
0000
1000
,  // measure 10
0001
0010
0000
0010
,  // measure 11
0001
1000
0001
1001
,  // measure 12
1000
0100
0000
0100
,  // measure 13
1000
0001
0000
0001
,  // measure 14
1000
0010
0000
0010
,  // measure 15
2000
3002
2003
3200
,  // measure 16
0310
0001
0000
0010
,  // measure 17
0001
1000
0000
1000
,  // measure 18
0001
0100
0000
0100
,  // measure 19
0010
0100
0010
0110
,  // measure 20
2000
0000
0000
3000
,  // measure 21
0002
0000
0000
0003
,  // measure 22
0200
0000
0000
0300
,  // measure 23
0020
0000
0000
0030
,  // measure 24
1000
1000
1000
1000
,  // measure 25
0001
0001
0001
0001
,  // measure 26
0010
0010
0010
0010
,  // measure 27
0100
0000
0100
0000
,  // measure 28
0000
0000
0000
0010
,  // measure 29
1001
1001
0000
0010
,  // measure 30
1001
1001
0000
0001
,  // measure 31
1000
0001
1000
0100
,  // measure 32
0100
0100
0000
0100
,  // measure 33
1001
1001
0000
0100
,  // measure 34
1001
1001
0000
0002
,  // measure 35
0003
0200
0300
0010
,  // measure 36
1000
0010
1010
0001
,  // measure 37
0110
0110
0000
1000
,  // measure 38
0110
0110
0000
1000
,  // measure 39
0001
1000
0001
0010
,  // measure 40
0010
0010
0000
0002
,  // measure 41
0000
0023
0000
0230
,  // measure 42
0000
0300
0000
2000
,  // measure 43
0000
0000
3000
0000
,  // measure 44
2002
3003
0000
0002
,  // measure 45
0000
0000
0003
2000
,  // measure 46
0000
0000
3000
0220
,  // measure 47
0000
0000
0000
0000
,  // measure 48
0000
0000
0330
0100
;

//---------------dance-single - ----------------
#NOTEDATA:;
#CHARTNAME:;
#STEPSTYPE:dance-single;
#DESCRIPTION:;
#CHARTSTYLE:;
#DIFFICULTY:Beginner;
#METER:2;
#RADARVALUES:0.122506,0.160788,0.043976,0.000000,0.000000,74.000000,4.000000,0.000000,0.000000,0.000000,0.000000,0.000000,0.000000,0.122506,0.160788,0.043976,0.000000,0.000000,74.000000,4.000000,0.000000,0.000000,0.000000,0.000000,0.000000,0.000000;
#CREDIT:;
#NOTES:
0000
0000
0000
0000
,
0000
0000
0000
0000
,
0000
0000
0000
0000
,
0000
0000
0000
0000
,
0000
1000
0000
1000
,
0000
1000
0000
1000
,
0000
0001
0000
0001
,
0000
0001
0000
0001
,
0000
0100
0000
0100
,
0000
0001
0000
0001
,
0000
1000
0000
1000
,
0000
0000
0000
0000
,
0000
0001
0000
0001
,
0000
0001
0000
0001
,
0000
1000
0000
1000
,
0000
1000
0000
1000
,
0000
0010
0000
0010
,
0000
1000
0000
1000
,
0000
0001
0000
0001
,
0000
0000
0000
0000
,
0100
0000
0000
0000
,
0100
0000
0000
0000
,
0010
0000
0000
0000
,
0010
0000
0000
0000
,
1000
0000
0000
0000
,
0001
0000
0000
0000
,
1000
0000
0001
0000
,
1001
0000
0000
0000
,
0000
0000
0000
0100
,
0100
0100
0000
0010
,
0010
0010
0000
1000
,
0000
0001
0000
1000
,
0000
0000
0000
0010
,
0010
0010
0000
0100
,
0100
0100
0000
0001
,
0000
1000
0000
1001
,
0000
0000
0000
0001
,
0001
0001
0000
1000
,
1000
1000
0000
0010
,
0000
0100
0000
0010
,
0000
0100
0000
0001
,
0000
1000
0000
0001
,
0000
0000
0000
1001
,
0000
0000
0000
0000
,
0110
0000
0000
0001
,
0000
0000
0000
1000
,
0000
0000
0000
0010
,
0000
0000
0000
0000
,
0000
0000
0000
0100
;
