#TITLE:Animals;
#SUBTITLE:;
#ARTIST:Martin Garrix;
#TITLETRANSLIT:;
#SUBTITLETRANSLIT:;
#ARTISTTRANSLIT:;
#GENRE:House;
#CREDIT:;
#BANNER:[Break] - Animals.png;
#BACKGROUND:[Break] - Animals-bg.png;
#LYRICSPATH:;
#CDTITLE:;
#MUSIC:[Break] - Animals.mp3;
#OFFSET:-3.141000;
#SAMPLESTART:92.640068;
#SAMPLELENGTH:15.000000;
#SELECTABLE:YES;
#BPMS:0.000000=128.000000
,64.000000=20.759800
,65.000000=81.387802
,65.500000=140.341995
,66.000000=126.048004
,66.250000=172.266006
,66.500000=161.498993
,66.750000=215.332001
,67.000000=184.570007
,67.250000=234.908005
,67.500000=206.718994
,67.750000=271.997986
,68.000000=223.612000
,68.250000=288.895996
,68.500000=270.414001
,68.750000=330.833008
,69.000000=128.000000
;
#STOPS:65.000000=0.368607,
65.500000=0.213764,
66.000000=0.357006,
66.250000=0.261223,
66.500000=0.278641,
66.750000=0.208981,
67.000000=0.243809,
67.250000=0.191563,
67.500000=0.217686,
67.750000=0.165443,
68.000000=0.201241,
68.250000=0.155766,
68.500000=0.166412,
68.750000=0.136021
;
#BGCHANGES:-7.500=Animals.avi=1.000=0=0=0=StretchNoLoop====,
99999=-nosongbg-=1.000=0=0=0 // don't automatically add -songbackground-;
#KEYSOUNDS:;
#ATTACKS:;

//---------------dance-single - ----------------
#NOTES:
     dance-single:
     :
     Hard:
     9:
     0.601342,0.578068,0.305987,0.289448,0.500331,437.000000,37.000000,35.000000,0.000000,0.000000,0.000000,0.601342,0.578068,0.305987,0.289448,0.500331,437.000000,37.000000,35.000000,0.000000,0.000000,0.000000:
0000
0000
0000
0000
,
0000
0000
0000
0000
,
0000
0000
0000
0000
,
0000
0000
0000
0000
,
1000
0000
0001
0000
1000
0100
0000
0100
0000
0000
0010
0000
0100
0010
0000
0010
,
0000
0000
0100
0000
1000
0001
0000
0001
0000
0000
0100
0000
0001
1000
0000
1000
,
0000
0000
0010
0000
0100
0010
0000
0010
0000
0000
1000
0000
0001
0010
0000
0010
,
0200
0000
1000
0000
0000
1000
0000
0000
0000
0000
1000
0000
0000
1000
0300
0000
,
0100
0000
0010
0000
0100
1000
0000
1000
0001
0000
0100
0000
0001
1000
0000
1000
,
0100
0000
0010
0000
0100
1000
0000
1000
0010
0000
0100
0000
0010
1000
0000
1000
,
0001
0000
0010
0000
0100
0010
0000
0010
0001
0000
0100
0000
0001
0010
0000
0010
,
0100
0000
1000
0000
0100
0010
0000
0010
0001
0000
0100
0000
0001
0010
0000
0010
,
0100
1000
0020
0130
0020
1030
0020
0031
,
0010
0100
0002
0013
0002
1003
0002
0103
,
0001
1000
0200
0310
0200
1300
0200
0301
,
0100
1000
0020
0130
0020
1030
0020
0031
,
0220
0000
0000
0000
,
0000
0000
0000
0330
0100
0000
0000
0000
0100
0000
0001
0000
0010
0000
0000
0000
,
0100
0000
0000
0110
0000
0000
0010
0000
0001
0000
0100
0000
0020
0000
0000
0000
,
0000
0000
1030
0010
0100
0100
0020
0000
,
0000
0000
1030
0010
0000
0000
1000
0000
0100
0000
0100
0000
0020
0000
0000
0000
,
0000
0000
0031
0000
0010
0001
0100
0000
,
0010
0000
0000
0110
0000
0000
0010
0000
1000
0000
0100
0000
2000
0000
0000
0000
,
0000
0000
3001
0001
0100
0100
2000
0000
,
0000
0000
3100
1000
0000
0000
0100
0000
0010
0000
0010
0000
1000
0000
0000
0000
,
0000
0000
0011
0000
0011
1000
0011
0000
,
1001
0000
0000
1000
0010
0000
0010
0000
0110
0000
0100
0000
0101
0000
0000
0000
,
1002
0003
0011
0010
0110
0010
0011
0000
,
2001
0000
3010
1000
0000
0000
0010
0000
1010
0000
0010
0000
0110
0000
0101
0000
,
1001
0000
1100
0000
1100
0001
1100
0000
,
1001
0000
0000
0001
0100
0000
0100
0000
0110
0000
0010
0000
1010
0000
0000
0000
,
2001
3000
1010
0010
0110
0010
1010
0000
,
1002
0000
0013
0001
0000
0000
0010
0000
0110
0000
0100
0000
1100
0000
0000
0000
,
0200
0000
0000
0000
0310
0000
0000
0100
0010
0000
0100
0000
1000
0001
0100
0000
,
0001
0000
0010
0000
0100
0000
1000
0000
0001
0100
0001
0000
0100
0010
0100
0000
,
0010
0000
1000
0000
0001
0000
0000
0010
0001
0000
0100
0000
0010
1000
0001
0000
,
0010
0000
0100
0000
0010
0000
0001
0000
0100
0001
0010
0000
0100
1000
0100
0000
,
1000
0001
0100
0100
0010
0010
1000
1000
,
0001
0001
0010
0010
0100
0100
1000
1000
,
0001
0000
0001
0000
0100
0001
0100
0001
1000
0010
1000
0010
1000
0001
1000
0001
,
0010
0100
0010
0100
0020
0000
0001
0000
0200
0000
0330
0000
0010
0000
0001
1000
,
0000
0000
0000
0000
0000
0000
0000
0000
0000
0000
0000
0000
1010
0000
0000
0000
0000
0000
0000
0000
0000
0000
0000
0000
0010
0000
0000
0100
0000
0000
0010
0000
0000
0100
0000
0000
0001
0000
0000
0000
0001
0000
0000
0000
0001
0000
0000
0000
,
1000
0000
0000
0000
0000
0000
0100
0000
0000
1000
0000
0000
0000
0000
0000
0000
0000
0000
0010
0000
0000
0000
0000
0000
0100
0000
0000
0010
0000
0000
0100
0000
0000
0010
0000
0000
1000
0000
0000
0000
1000
0000
0000
0000
1000
0000
0000
0000
,
0001
0000
0000
0000
0000
0000
0010
0000
0000
0000
0000
0000
0100
0000
0000
0000
0000
0000
0100
0000
0000
0000
0000
0000
1000
0000
0000
0100
0000
0000
1000
0000
0000
0100
0000
0000
0010
0000
0000
0000
0010
0000
0000
0000
0010
0000
0000
0000
,
0001
0000
0000
0000
0000
0000
1000
0000
0000
0001
0000
0000
0000
0000
0000
0000
0000
0000
0100
0000
0000
0000
0000
0000
0001
0000
0000
0010
0000
0000
0001
0000
0000
0010
0000
0000
0100
0000
0000
0000
0100
0000
0000
0000
0100
0000
0000
0000
,
0220
0000
0000
0000
0000
0000
0330
0000
0000
0000
0000
0000
0100
0000
0000
0000
0000
0000
0100
0000
0000
0000
0000
0000
1000
0000
0000
0010
0000
0000
1000
0000
0000
0010
0000
0000
0100
0000
0000
0000
0100
0000
0000
0000
0100
0000
0000
0000
,
0001
0000
0000
0000
0000
0000
1000
0000
0000
0001
0000
0000
0000
0000
0000
0000
0000
0000
0010
0000
0000
0000
0000
0000
0100
0000
0000
0010
0000
0000
0100
0000
0000
0010
0000
0000
0100
0000
0000
0000
0100
0000
0000
0000
0100
0000
0000
0000
,
1000
0000
0000
0000
0000
0000
0001
0000
0000
0000
0000
0000
0100
0000
0000
0000
0000
0000
0100
0000
0000
0000
0000
0000
0010
0000
0000
1000
0000
0000
0010
0000
0000
1000
0000
0000
0001
0000
0000
0000
0001
0000
0000
0000
0001
0000
0000
0000
,
0010
0000
0100
0010
0200
0000
0000
0010
0000
0000
1000
0000
0301
0000
0000
0000
,
0101
0000
0000
0000
0000
0000
0000
0000
0000
0000
0000
0000
0100
0000
0000
0000
0000
0000
1000
0000
0000
0000
0000
0000
0001
0000
0000
0100
0000
0000
0001
0000
0000
0100
0000
0000
0010
0000
0000
0000
0010
0000
0000
0000
0010
0000
0000
0000
,
1000
0000
0000
0000
0000
0000
0001
0000
0000
0010
0000
0000
0000
0000
0000
0000
0000
0000
0100
0000
0000
0000
0000
0000
0010
0000
0000
0100
0000
0000
0010
0000
0000
0100
0000
0000
1000
0000
0000
0000
1000
0000
0000
0000
1000
0000
0000
0000
,
0001
0000
0000
0000
0000
0000
0100
0000
0000
0000
0000
0000
0010
0000
0000
0000
0000
0000
0010
0000
0000
0000
0000
0000
1000
0000
0000
0010
0000
0000
1000
0000
0000
0010
0000
0000
0100
0000
0000
0000
0100
0000
0000
0000
0100
0000
0000
0000
,
0001
0000
0000
0000
0000
0000
0010
0000
0000
0100
0000
0000
0000
0000
0000
0000
0000
0000
0010
0000
0000
0000
0000
0000
0001
0000
0000
1000
0000
0000
0001
0000
0000
1000
0000
0000
0010
0000
0000
0000
0010
0000
0000
0000
0010
0000
0000
0000
,
0220
0000
0000
0000
0000
0000
0330
0000
0000
0000
0000
0000
0100
0000
0000
0000
0000
0000
0100
0000
0000
0000
0000
0000
0001
0000
0000
1000
0000
0000
0001
0000
0000
1000
0000
0000
0100
0000
0000
0000
0100
0000
0000
0000
0100
0000
0000
0000
,
0010
0000
0000
0000
0000
0000
0100
0000
0000
1000
0000
0000
0010
0000
0000
0000
0000
0000
0100
0000
0000
0000
0000
0000
0001
0000
0000
0100
0000
0000
0001
0000
0000
0100
0000
0000
0010
0000
0000
0000
0010
0000
0000
0000
0010
0000
0000
0000
,
1000
0000
0000
0000
0000
0000
0001
0000
0000
0000
0000
0000
0010
0000
0000
0000
0000
0000
0010
0000
0000
0000
0000
0000
0100
0000
0000
0010
0000
0000
0100
0000
0000
0010
0000
0000
0001
0000
0000
0000
0001
0000
0000
0000
0001
0000
0000
0000
,
0100
0000
0010
0100
0020
0000
0000
0100
0000
0000
0001
0000
1030
0000
0000
0000
,
1010
0220
0000
0000
,
0000
0330
0000
0000
;

//---------------dance-single - ----------------
#NOTES:
     dance-single:
     :
     Beginner:
     1:
     0.074429,0.120431,0.024810,0.033080,0.000000,56.000000,3.000000,4.000000,0.000000,0.000000,0.000000,0.074429,0.120431,0.024810,0.033080,0.000000,56.000000,3.000000,4.000000,0.000000,0.000000,0.000000:
0000
0000
0000
0000
,
0000
0000
0000
0000
,
0000
0000
0000
0000
,
0000
0000
0000
0000
,
0000
0000
0000
0000
,
0000
0000
0000
0000
,
0000
0000
0000
0000
,
0000
0000
0000
0000
,
0000
0001
0000
0000
,
0000
0001
0000
0000
,
0000
1000
0000
0000
,
0000
1000
0000
0000
,
0000
0100
0000
0000
,
0000
0100
0000
0000
,
0000
0010
0000
0000
,
0000
0010
0000
0000
,
0200
0000
0000
0000
,
0000
0300
0000
0000
,
0000
0100
0000
0000
,
0000
1000
0000
0000
,
0000
1000
0000
0000
,
0000
0001
0000
0000
,
0000
0001
0000
0000
,
0000
0010
0000
0000
,
0000
0010
0000
0000
,
0000
0100
0000
0000
,
0000
0100
0000
0100
,
0000
1000
0000
0000
,
0000
1000
0000
1000
,
0000
0001
0000
0000
,
0000
0001
0000
0001
,
0000
0100
0000
0000
,
0000
0100
0000
0100
,
0000
0010
0000
0000
,
0000
0010
0000
0010
,
0000
1000
0000
0000
,
0000
1000
0000
1000
,
0000
0001
0000
0000
,
0000
0001
0000
0001
,
0000
0010
0000
0000
,
0000
0020
0000
0000
,
0000
0130
0000
0000
,
0000
0100
0000
0000
,
0000
1000
0000
0000
,
0000
0001
0000
0000
,
1001
0000
0000
0000
,
0000
0010
0000
0000
,
0000
1000
0000
0000
,
0000
0001
0000
0000
,
0000
0010
0000
0000
,
0000
0010
0000
0000
,
0000
0100
0000
0000
,
0000
1000
0000
0000
,
1001
0000
0000
0000
,
0000
0010
0000
0000
,
0000
0001
0000
0000
,
0000
0100
0000
0000
,
0000
0220
0000
0000
,
0000
0330
0000
0000
;

//---------------dance-single - ----------------
#NOTES:
     dance-single:
     :
     Easy:
     3:
     0.232739,0.240862,0.099239,0.099239,0.000000,173.000000,12.000000,12.000000,0.000000,0.000000,0.000000,0.232739,0.240862,0.099239,0.099239,0.000000,173.000000,12.000000,12.000000,0.000000,0.000000,0.000000:
0000
0000
0000
0000
,
0000
0000
0000
0000
,
0000
0000
0000
0000
,
0000
0000
0000
0000
,
1000
0100
1000
0000
,
0100
1000
0100
0000
,
1000
0001
0100
0000
,
0020
0000
0000
0000
,
1030
0010
1000
0000
,
1000
0001
1000
0000
,
1000
0100
1000
0000
,
0100
0010
0100
0000
,
0010
0002
0103
0001
,
0010
0002
0103
0001
,
0010
0200
1300
0100
,
0010
0200
1300
0100
,
0220
0000
0000
0000
,
0000
0330
0000
0010
,
0000
0001
0010
0100
,
0000
1000
1000
1000
,
0000
1000
1000
1000
,
0000
1010
0000
0010
,
0000
1000
0010
0100
,
0000
0001
0001
0001
,
0000
0001
0001
0001
,
0000
1001
1000
0001
,
1000
0100
0010
0100
,
0110
0100
0010
0100
,
0110
0010
0100
0010
,
0110
0010
0001
1000
,
0001
0100
0010
0100
,
0110
0100
0010
0100
,
0110
0010
0100
0010
,
2000
3001
0001
1000
,
1000
0001
0001
0010
,
0010
0100
0100
0010
,
0010
0100
0100
1000
,
1000
0001
0001
0001
,
0001
1000
1000
1000
,
1000
0010
0100
0010
,
0100
0002
0000
2003
,
0000
3000
0100
0100
,
0100
0000
0100
0100
,
0010
0000
0001
0001
,
0001
0000
1000
1000
,
1001
0000
1000
1000
,
1000
0000
0010
0010
,
0010
0000
0100
0100
,
0100
0010
1000
0001
,
1001
0000
0001
0001
,
0001
0000
0010
0010
,
0010
0000
0100
0100
,
0100
0000
1000
1000
,
1001
0000
0001
0001
,
0001
0000
0100
0100
,
0100
0000
0010
0010
,
0010
1000
0001
0010
,
0100
0220
0000
0000
,
0000
0330
0000
0000
;

//---------------dance-single - ----------------
#NOTES:
     dance-single:
     :
     Medium:
     5:
     0.367421,0.337206,0.190208,0.107509,0.049620,275.000000,23.000000,13.000000,0.000000,0.000000,0.000000,0.367421,0.337206,0.190208,0.107509,0.049620,275.000000,23.000000,13.000000,0.000000,0.000000,0.000000:
// measure 0
0000
0000
0000
0000
,  // measure 1
0000
0000
0000
0000
,  // measure 2
0000
0000
0000
0000
,  // measure 3
0000
0000
0000
0000
,  // measure 4
1000
0000
0001
0000
1000
0100
1000
0000
,  // measure 5
0010
0000
0100
0000
0001
0100
0001
0000
,  // measure 6
0010
0000
0100
0000
1000
0010
1000
0000
,  // measure 7
2002
0000
0000
3003
,  // measure 8
1000
0100
0001
0000
0100
0010
0001
0000
,  // measure 9
1000
0010
0001
0000
0010
0100
0001
0000
,  // measure 10
0001
0100
1000
0000
0100
0010
1000
0000
,  // measure 11
0001
0010
1000
0000
0010
0100
1000
0000
,  // measure 12
0100
0000
0010
0100
0010
0100
0010
0001
,  // measure 13
0100
0000
0010
0100
0010
0100
0010
1000
,  // measure 14
0100
0000
0010
0100
0010
0100
0010
0001
,  // measure 15
1000
0000
0010
1000
0001
0010
0100
1000
,  // measure 16
2002
0000
0000
0000
,  // measure 17
0000
3003
1000
0000
0100
1000
0100
0000
,  // measure 18
0010
0000
0000
0100
0000
0000
0100
0000
1000
0000
0001
0000
0200
0000
0000
0000
,  // measure 19
0000
0000
0310
0010
0100
0100
0002
0000
,  // measure 20
0000
1003
0000
1000
0001
0001
0020
0000
,  // measure 21
0000
0000
0130
0000
0010
0100
0010
0000
,  // measure 22
0001
0000
0000
1000
0000
0000
1000
0000
0001
0000
0100
0000
0002
0000
0000
0000
,  // measure 23
0000
0000
0013
0010
0100
0010
0200
0000
,  // measure 24
0000
1300
0000
0100
1000
1000
0010
0000
,  // measure 25
0000
0000
0110
0000
0100
0001
0100
0000
,  // measure 26
0001
0000
0000
1000
0000
0000
1000
0000
0001
0000
0010
0000
0100
0000
0000
0000
,  // measure 27
0110
0000
0100
0100
1000
0100
0010
0000
,  // measure 28
0110
0100
0000
0100
1000
1000
0001
0100
,  // measure 29
0010
0000
1010
0000
1000
0001
1000
0000
,  // measure 30
0001
0000
0000
0010
0000
0000
0100
0000
0010
0000
0100
0000
1000
0000
0000
0000
,  // measure 31
1010
0000
0010
0010
0100
0001
0100
0000
,  // measure 32
0101
0001
0000
0001
1000
1000
0100
0000
,  // measure 33
0010
0100
1100
0011
,  // measure 34
1100
1000
0011
0101
,  // measure 35
0011
0001
1010
1100
,  // measure 36
1010
0010
0101
1010
,  // measure 37
0101
0000
0001
0001
1000
0000
1000
1000
,  // measure 38
0100
0000
0100
0100
0010
0000
0010
0010
,  // measure 39
0001
0000
0001
0010
0001
0010
0100
1000
,  // measure 40
0100
1000
0002
0000
0000
0000
0203
0000
,  // measure 41
0000
0000
0310
0000
0100
0100
0010
0000
,  // measure 42
1000
0000
0000
1000
0000
0000
0000
0000
0100
0000
0100
0000
0010
0000
0000
0000
,  // measure 43
0001
1000
0000
0000
0010
0010
1000
0000
,  // measure 44
0001
0000
0000
0001
0000
0000
0000
0000
0010
0000
0010
0000
0100
0000
0000
0000
,  // measure 45
0110
0000
0000
0000
0100
0100
1000
0000
,  // measure 46
1000
0000
0000
0001
0000
0000
0000
0000
0100
0000
0100
0000
0001
0000
0000
0000
,  // measure 47
0001
1000
0000
0000
0100
0100
0010
0000
,  // measure 48
0100
0000
0010
0000
0100
0000
0000
0100
0000
0000
1000
0000
0010
0000
0000
0000
,  // measure 49
0100
0000
0000
0000
0001
0001
0010
0000
,  // measure 50
0100
0000
0000
0100
0000
0000
0000
0000
0010
0000
0010
0000
0001
0000
0000
0000
,  // measure 51
1000
1000
0000
0000
0010
0010
0001
0000
,  // measure 52
0010
0000
0000
0100
0000
0000
0000
0000
0001
0000
0001
0000
0100
0000
0010
0000
,  // measure 53
1010
0000
0000
0000
1000
1000
0001
0000
,  // measure 54
0010
0000
0000
0100
0000
0000
0000
0000
0010
0000
0010
0000
0001
0000
0000
0000
,  // measure 55
1000
0001
0000
0000
0100
0100
1000
0000
,  // measure 56
0100
0000
0010
0000
0100
0000
0000
0100
0000
0000
0001
0000
1000
0000
0000
0000
,  // measure 57
0100
0220
0000
0000
,  // measure 58
0000
0330
0000
0000
;
