#TITLE:RENEGADE MASTER (Fatboy Slim Old Skool Mix);
#SUBTITLE:;
#ARTIST:WILDCHILD;
#TITLETRANSLIT:;
#SUBTITLETRANSLIT:;
#ARTISTTRANSLIT:;
#CREDIT:;
#BANNER:[20th Century] - Renegade Master (Fatboy Slim Old Skool Mix).png;
#BACKGROUND:[20th Century] - Renegade Master (Fatboy Slim Old Skool Mix)-bg.png;
#LYRICSPATH:;
#CDTITLE:cd.png;
#MUSIC:[20th Century] - Renegade Master (Fatboy Slim Old Skool Mix).ogg;
#OFFSET:-4.000;
#SAMPLESTART:65.454;
#SAMPLELENGTH:12.000;
#SELECTABLE:YES;
#DISPLAYBPM:125.000;
#BPMS:0.000=124.670,76.000=249.340,80.000=124.670,124.000=249.340,128.000=124.670,184.000=249.340,188.000=498.680,192.000=124.660;
#STOPS:76.000=0.120
,76.500=0.120
,77.000=0.120
,77.500=0.120
,78.000=0.120
,78.500=0.120
,79.000=0.120
,79.500=0.120
,124.000=0.060
,124.250=0.060
,124.500=0.060
,124.750=0.060
,125.000=0.060
,125.250=0.060
,125.500=0.060
,125.750=0.060
,126.000=0.060
,126.250=0.060
,126.500=0.060
,126.750=0.060
,127.000=0.060
,127.250=0.060
,127.500=0.060
,127.750=0.060
,184.000=0.060
,184.250=0.060
,184.500=0.060
,184.750=0.060
,185.000=0.060
,185.250=0.060
,185.500=0.060
,185.750=0.060
,186.000=0.060
,186.250=0.060
,186.500=0.060
,186.750=0.060
,187.000=0.060
,187.250=0.060
,187.500=0.060
,187.750=0.060
,188.000=0.090
,188.250=0.090
,188.500=0.090
,188.750=0.090
,189.000=0.090
,189.250=0.090
,189.500=0.090
,189.750=0.090
,190.000=0.090
,190.250=0.090
,190.500=0.090
,190.750=0.090
,191.000=0.090
,191.250=0.090
,191.500=0.090
,191.750=0.090
,192.000=0.090
;
#BGCHANGES:;

//---------------dance-single - ----------------
#NOTES:
     dance-single:
     :
     Hard:
     8:
     0.565,0.652,0.231,0.040,0.226:
0000
0000
0000
0000
,
0000
0000
0000
0000
,
1000
0000
0100
0000
0001
0100
1000
0000
,
0010
0000
0100
0000
0001
1000
0100
0000
,
1000
0000
0001
0000
0010
0001
0100
0000
,
0010
1000
0100
0000
0010
0001
0100
0000
,
0001
0000
1000
0000
0100
1000
0010
0000
,
0100
0001
1000
0001
0010
0100
0100
0000
,
1000
0000
0100
0000
0010
0000
0001
0000
0100
0010
0100
0000
0001
0000
1000
0000
,
0100
1000
0010
0100
0010
1000
0001
0100
,
0001
0000
0010
0000
0100
0000
1000
0000
0010
0100
0010
0000
1000
0000
0001
0000
,
0010
0100
0010
0001
0100
0010
1000
1000
,
0010
0000
0100
0000
0001
0000
1000
0000
0100
0010
0100
0000
1000
0000
0001
0000
,
0100
0000
0010
0000
0100
0000
0001
0000
1000
0100
1000
0000
0010
0000
0100
0000
,
0001
0000
1000
0000
0100
0000
0010
0100
0010
0000
0001
0000
0100
0000
0010
0000
,
1000
0000
0100
0000
0010
0000
0100
0010
0100
0000
1000
0001
0000
0000
0010
0000
,
0001
0000
0100
0000
0010
0000
1000
0001
1000
0000
0100
0010
0000
0000
0001
0000
,
1000
0000
0010
0100
0000
0000
0010
0000
1000
0000
0001
1000
0000
0000
0100
0000
,
0010
0001
1000
0100
,
0010
0011
0100
0101
0010
1010
0100
1001
,
0010
0001
1000
0001
0100
0001
1000
0001
,
0010
0100
0010
1000
0010
0001
0010
0100
,
1000
0010
1000
0001
1000
0100
1000
0010
,
0100
0010
0001
0010
1000
0100
1000
0010
,
1000
0100
1000
0001
1000
0100
1000
0010
,
0100
0010
1000
0010
1000
0100
1000
0001
,
0010
0001
1000
0001
0100
0001
1000
0100
,
0010
0001
1000
0001
0100
0001
1001
0000
,
0001
0000
0010
0100
0010
0000
0001
0000
1000
0000
0100
0010
0100
0000
1000
0000
,
0001
0000
0100
0010
0100
0000
0001
0000
1000
0000
0100
0010
0100
0000
1000
0000
,
0001
0000
0010
0100
0010
0000
1000
0000
0001
0000
0100
0010
0100
0000
0001
0000
,
1000
0100
1000
0100
0010
0001
0010
0001
0100
0001
0100
0001
1000
0010
1000
0010
,
0100
0000
0001
0000
0101
0000
0000
0000
0010
0100
0010
0000
0100
0000
1000
0000
,
0001
0000
0100
0000
0101
0000
0000
0000
0010
0100
0010
0100
0010
0000
1000
0000
,
0100
0000
0010
0000
0110
0000
0000
0000
1000
0100
1000
0000
0010
0000
0100
0000
,
0001
0000
1000
0000
1001
0000
1000
0000
0010
0000
0100
0010
0000
0000
1000
0000
,
0001
0000
0010
0000
0011
0000
0000
0000
0100
0010
0100
0000
1000
0000
0001
0000
,
0100
0000
0010
0000
1010
0000
0000
0000
0010
0100
0010
0100
0010
0000
1000
0000
,
0001
0000
0010
0000
0011
0000
0000
0000
0010
0100
0010
0000
0100
0000
1000
0000
,
0001
0000
0100
0000
0001
1000
0100
0000
0010
0000
0100
0010
0000
0000
0001
0000
,
0100
0010
0011
0100
0000
0101
0000
0010
,
1000
0100
1100
0001
0000
1001
0000
0001
,
0100
0010
1010
0001
0000
1001
0000
1000
,
0100
0000
1000
0000
0110
0000
0001
0000
1000
0000
0100
0010
0000
0000
0100
0000
,
1000
0001
0101
0010
0000
1010
0000
0001
,
1000
0100
0110
0001
0000
1001
0000
0100
,
0010
0001
0010
0001
0100
0001
0100
0001
1000
0001
1000
0001
0010
0100
0010
0100
,
2000
3002
0203
0320
,
0030
0000
0000
0000
;

//---------------dance-single - ----------------
#NOTES:
     dance-single:
     :
     Easy:
     4:
     0.284,0.290,0.040,0.040,0.000: // measure 1
0000
0000
0000
0000
,  // measure 2
0000
0000
0000
0000
,  // measure 3
1000
0100
0000
0100
,  // measure 4
0000
0010
0000
0010
,  // measure 5
0001
0010
0000
0010
,  // measure 6
0100
0010
0000
0010
,  // measure 7
0001
1000
0000
1000
,  // measure 8
0010
0100
0010
0010
,  // measure 9
1000
0100
1000
0010
,  // measure 10
0100
0000
0001
0000
0010
0010
0010
0000
,  // measure 11
0100
0010
0001
0100
,  // measure 12
0001
0000
0010
0000
0100
0100
0100
0000
,  // measure 13
0010
0001
0010
0100
,  // measure 14
1000
0000
0001
0000
0010
0010
0010
0000
,  // measure 15
0001
0010
0100
0100
,  // measure 16
1000
0000
0001
0000
0010
0010
0010
0000
,  // measure 17
0001
0100
1000
1000
,  // measure 18
0100
0001
0010
0010
,  // measure 19
0001
0100
1000
0100
,  // measure 20
0010
0011
1000
1100
,  // measure 21
0000
0010
0000
0010
0000
0100
0000
0100
,  // measure 22
0000
0010
0000
0100
0000
0010
0000
0010
,  // measure 23
0000
1000
0000
1000
0000
0001
0000
0001
,  // measure 24
0000
0010
0000
0100
0000
0010
0000
1001
,  // measure 25
0000
1000
0000
0100
0000
1000
0000
1000
,  // measure 26
0000
0010
0000
0010
0000
0100
0000
0100
,  // measure 27
0000
0001
0000
0001
0000
1000
0000
1000
,  // measure 28
0000
0100
0000
0010
0000
0001
0000
0001
,  // measure 29
1000
0000
0100
0000
1000
0100
1000
0000
,  // measure 30
0010
0000
0010
0000
0001
0100
0001
0000
,  // measure 31
0010
0100
1000
1000
,  // measure 32
0010
0100
1000
1001
,  // measure 33
1000
0000
0100
0000
0001
0100
1000
0000
,  // measure 34
0100
0010
0001
1000
,  // measure 35
0100
0000
0010
0000
0001
0010
1000
0000
,  // measure 36
0100
0010
0001
0001
,  // measure 37
0010
0000
0100
0000
1000
0100
0001
0000
,  // measure 38
0010
0100
1000
1000
,  // measure 39
0010
0000
0100
0000
0001
1000
0100
0000
,  // measure 40
0010
0100
1000
1000
,  // measure 41
0010
0100
0010
1000
,  // measure 42
0001
0001
1000
1000
,  // measure 43
0001
0001
0010
0100
,  // measure 44
0010
0000
0001
0000
1000
0001
1000
0000
,  // measure 45
0001
0010
0000
0010
0000
0100
0000
0100
,  // measure 46
0000
0010
0000
0010
0000
0001
0000
0001
,  // measure 47
1000
0100
0010
0001
,  // measure 48
2000
3200
0320
0032
,  // measure 49
0003
0000
0000
0000
;

//---------------dance-single - RRRRENEGADE----------------
#NOTES:
     dance-single:
     RRRRENEGADE:
     Medium:
     6:
     0.401,0.410,0.312,0.040,0.000:
0000
0000
0000
0000
,
0000
0000
0000
0000
,
0010
0000
0100
0000
0001
1000
0100
0000
,
0010
0000
0100
0000
1000
0001
0100
0000
,
0010
0000
0100
0000
0001
1000
0100
0000
,
1000
0001
0100
0000
0001
1000
0100
0000
,
0010
0000
0100
0000
1000
0001
0100
0000
,
1000
0100
0001
0000
1000
0100
0010
0000
,
0001
0100
0010
0000
0010
0100
0010
0000
,
0010
1000
0100
0000
0010
0100
0010
0000
,
0001
0000
0100
0000
1000
0100
0001
0000
,
1000
0100
1000
0000
0001
0100
0010
0000
,
1000
0000
0001
0000
0010
0100
1000
0000
,
0010
0100
0010
0000
0100
0001
1000
0000
,
0100
0000
0010
0000
0001
0100
0010
0000
,
1000
0100
1000
0000
0010
0100
0001
0000
,
1000
0000
0100
0000
0001
0100
1000
0000
,
0001
0100
1000
0000
0001
0100
1000
0000
,
0001
0100
1000
0001
,
1000
1000
0010
0010
0100
0100
0001
0001
,
0000
0010
0000
0011
0000
0100
0000
1100
,
0000
0010
0000
1010
0000
0001
0000
1001
,
0000
0010
0000
0011
0000
0100
0000
1100
,
0000
0010
0000
1010
0000
0100
0000
0101
,
0000
0001
0000
1001
0000
0010
0000
1100
,
0000
0100
0000
0110
0000
0010
0000
0011
,
0000
0001
0000
1001
0000
0001
0000
0101
,
0000
0100
0000
0110
0000
1001
0000
0010
,
0100
0000
1000
0000
0001
0100
1000
0000
,
0100
0001
1000
0000
1000
0100
0010
0000
,
0001
0000
0100
0000
1000
0100
0010
0000
,
0001
0001
0010
0010
0100
0100
1000
1000
,
0010
0000
0110
0000
0001
0100
1000
0000
,
1000
0100
0001
0000
0001
1000
0001
0000
,
0010
0000
0011
0000
0010
0100
1000
0000
,
0010
0100
0001
0000
0010
0100
1000
0000
,
0010
0000
0110
0000
0100
0010
1000
0000
,
0100
0010
0001
0000
0100
0010
1000
0000
,
0001
0000
1001
0000
1000
0100
0010
0000
,
0001
0010
0001
0000
0001
0100
0010
0000
,
0010
1000
0000
1001
0000
0101
0000
0010
,
1010
0001
0000
0011
0000
1001
0000
0100
,
1100
0010
0000
1001
0000
0101
0000
0010
,
1000
0001
1000
0100
0010
0100
1000
0000
,
0010
0100
0000
0101
0000
0010
0000
0010
,
1000
1100
0000
0010
0000
0011
0000
0001
,
1000
1000
0010
0010
0100
0100
0001
0001
,
0020
2030
3002
0203
,
0300
0000
0000
0000
;
