#TITLE:My Sharona;
#SUBTITLE:;
#ARTIST:The Knacks;
#TITLETRANSLIT:;
#SUBTITLETRANSLIT:;
#ARTISTTRANSLIT:;
#GENRE:;
#CREDIT:;
#BANNER:[20th Century] - My Sharona-bn.png;
#BACKGROUND:[20th Century] - My Sharona-bg.png;
#LYRICSPATH:;
#CDTITLE:;
#MUSIC:[20th Century] - My Sharona.ogg;
#OFFSET:-0.323861;
#SAMPLESTART:32.820000;
#SAMPLELENGTH:12.000000;
#SELECTABLE:YES;
#BPMS:0.000000=145.945007
,28.000000=145.921005
,32.000000=147.856995
,52.000000=147.977005
,56.000000=147.658005
,65.000000=147.317001
,67.000000=146.837997
,68.000000=146.925003
,71.000000=143.524994
,72.000000=143.987000
,75.000000=145.968994
,76.000000=145.889008
,78.000000=147.531006
,80.000000=147.466995
,86.000000=148.126007
,94.000000=148.947006
,96.000000=155.910004
,97.500000=147.483994
,100.000000=153.468002
,100.500000=156.070007
,102.000000=138.005997
,103.000000=138.106003
,104.000000=147.115997
,136.000000=145.735992
,148.000000=147.306000
,152.000000=145.792999
,168.000000=155.781998
,169.500000=155.046997
,171.000000=154.535004
,172.500000=152.382996
,174.000000=143.955002
,176.000000=147.158005
,192.000000=152.382004
,199.000000=145.856995
,208.000000=152.944000
,216.000000=148.138000
;
#STOPS:
;
#BGCHANGES:;
#KEYSOUNDS:;
#ATTACKS:;

//---------------dance-single - ----------------
#NOTES:
     dance-single:
     :
     Hard:
     8:
     0.614917,0.593237,0.642151,0.632118,0.015050,302.000000,64.000000,63.000000,0.000000,0.000000,0.000000,0.614917,0.593237,0.642151,0.632118,0.015050,302.000000,64.000000,63.000000,0.000000,0.000000,0.000000:
// measure 0
0000
0000
0000
0000
,  // measure 1
0000
0000
0000
0000
,  // measure 2
0000
0000
0000
0000
,  // measure 3
0000
0000
0000
0000
,  // measure 4
1000
1000
0001
0001
1000
0000
0101
0000
,  // measure 5
1000
0000
0101
0000
1000
1000
0001
1000
,  // measure 6
0100
0100
0001
0001
1000
0000
0101
0000
,  // measure 7
2002
0000
3003
1100
1100
2002
0000
3003
,  // measure 8
0001
0001
1000
1000
0001
0000
1100
0000
,  // measure 9
0001
0000
1100
0000
0001
0001
1000
0001
,  // measure 10
0100
0100
1000
1000
0001
0000
1100
0000
,  // measure 11
2002
0000
3003
0101
0101
2002
3003
0120
,  // measure 12
0000
1030
0001
1000
0100
0010
0001
0000
,  // measure 13
1000
0001
0100
0001
1000
0000
0001
2000
,  // measure 14
0000
3100
0010
0001
1000
0001
0100
0000
,  // measure 15
0220
0000
0330
1010
1010
2002
3003
0210
,  // measure 16
0000
0301
1000
0001
0010
0100
1000
0000
,  // measure 17
0001
1000
0010
1000
0001
0000
1000
0002
,  // measure 18
0000
0013
0100
1000
0001
1000
0010
0000
,  // measure 19
0220
0000
0330
0101
0101
2002
3003
1000
,  // measure 20
0010
0001
0010
0010
0100
1000
0010
0010
,  // measure 21
0001
0100
0010
0010
0100
1000
0010
0210
,  // measure 22
0000
1300
0100
0100
0010
0001
0100
0100
,  // measure 23
1000
0010
0100
0100
0010
0001
0100
0000
,  // measure 24
0220
0000
0330
0202
0000
0303
2200
0000
,  // measure 25
3300
0022
0000
0033
0110
0000
1001
0000
,  // measure 26
1000
1000
0001
0001
1000
0010
0010
0010
,  // measure 27
0120
0000
0031
0010
1000
0001
1000
0000
,  // measure 28
0001
0000
0001
0000
1000
0000
1000
0000
0001
0000
0000
0100
0010
0000
0000
0000
,  // measure 29
0220
0000
0330
0110
0110
2002
3003
2100
,  // measure 30
0000
3001
0100
0001
1000
0100
0010
0000
,  // measure 31
0001
1000
0100
0010
0001
0000
1000
0020
,  // measure 32
0000
0130
1000
0100
0001
0100
0010
0000
,  // measure 33
2002
0000
3003
1100
0101
0220
0330
0102
,  // measure 34
0000
1003
0100
1000
0001
0100
0010
0000
,  // measure 35
1000
0001
0100
0010
1000
0000
0001
0020
,  // measure 36
0000
0130
0001
0100
1000
0100
0010
0000
,  // measure 37
2002
0000
3003
0101
1100
0220
0330
1000
,  // measure 38
0100
0001
0100
0100
0010
1000
0100
0100
,  // measure 39
0001
0010
0100
0100
0010
1000
0100
0120
,  // measure 40
0000
1030
0010
0010
0100
0001
0010
0010
,  // measure 41
1000
0100
0010
0010
0100
0001
0100
0000
,  // measure 42
2002
0000
3003
2200
0000
3300
0202
0000
,  // measure 43
0303
2020
0000
3030
0110
0000
1001
0000
,  // measure 44
1000
1000
0001
0001
1000
0010
0010
0010
,  // measure 45
0120
0000
0031
0010
1000
0001
1000
0100
,  // measure 46
1000
1000
0001
0001
1000
0100
0100
0100
,  // measure 47
0120
0000
1030
0010
0001
1000
0101
0000
,  // measure 48
0012
0000
0000
0103
0000
0000
2010
0000
,  // measure 49
0000
3100
0000
0000
1001
1100
1001
0000
,  // measure 50
0100
0010
0010
1000
0001
0001
0010
0200
,  // measure 51
0000
1300
0001
0100
0010
0100
0002
0000
,  // measure 52
1003
0000
0010
0100
0010
0000
0002
0000
0000
0000
0000
0000
0013
0000
0100
0010
,  // measure 53
0100
0002
0000
0003
0011
0110
1100
0000
;

//---------------dance-single - ----------------
#NOTES:
     dance-single:
     :
     Medium:
     6:
     0.462980,0.539307,0.361210,0.371244,0.000000,250.000000,36.000000,37.000000,0.000000,0.000000,0.000000,0.462980,0.539307,0.361210,0.371244,0.000000,250.000000,36.000000,37.000000,0.000000,0.000000,0.000000:
0000
0000
0000
0000
,
0000
0000
0000
0000
,
0000
0000
0000
0000
,
0000
0000
0000
0000
,
1000
0001
1000
0000
0010
0000
0101
0000
,
1000
0000
0101
0000
1000
0001
1000
0000
,
0001
1000
0001
0000
1000
0000
1100
0000
,
2001
0000
0000
3100
0100
0020
0000
0030
,
0001
1000
0001
0000
0010
0000
1100
0000
,
0001
0000
1100
0000
0001
1000
0001
0000
,
1000
0001
1000
0000
0001
0000
0101
0000
,
1002
0000
0000
0100
0103
0020
0000
1030
,
0000
1000
0100
0000
1000
0100
0010
0000
,
0001
0000
0100
0010
0100
0000
0001
1000
,
0000
1000
0100
0000
1000
0001
1000
0000
,
2001
0000
0000
3001
0001
2000
0000
3001
,
0000
0001
0100
0000
0001
0100
0010
0000
,
1000
0000
0100
0010
0100
0000
1000
0001
,
0000
0001
0100
0000
0001
1000
0001
0000
,
1002
0000
0000
1003
1000
0002
0000
0013
,
0000
0010
0100
0000
1100
0000
0001
0000
,
1100
0000
0001
0100
0001
0000
0100
0010
,
0000
0010
0100
0000
0101
0000
1000
0000
,
0101
0000
0100
0010
0100
0010
0100
0000
,
0202
0000
0303
2002
0000
3003
2200
0000
,
3300
0220
0000
0330
0110
0000
1001
0000
,
1000
0001
1000
0000
1000
0010
0100
0010
,
0200
0000
0000
0301
1000
0010
0100
0000
,
0001
1000
0001
1000
0100
0000
0110
0000
,
1002
0000
0000
0103
0100
0020
0000
1030
,
0000
0001
1000
0000
0001
1000
0100
0000
,
1000
0000
0100
0010
0001
0000
0100
0010
,
0000
0010
0100
0000
0001
1000
0100
0000
,
2100
0000
0000
3100
0100
0020
0000
0031
,
0000
1000
0001
0000
1000
0001
0010
0000
,
0001
0000
0010
0100
1000
0000
0010
0100
,
0000
0100
0010
0000
1000
0001
0010
0000
,
0012
0000
0000
0013
0010
0200
0000
1300
,
0000
1000
0100
0000
0011
0000
0100
0000
,
1010
0000
0100
0001
0010
0000
0010
0001
,
0000
0001
0100
0000
1010
0000
0100
0000
,
0011
0000
0100
1000
0010
0100
0001
0000
,
0202
0000
0303
2002
0000
3003
2200
0000
,
3300
0220
0000
0330
0110
0000
1001
0000
,
0100
0010
0100
0000
0100
1000
0001
1000
,
0002
0000
0000
0013
0100
1000
0001
0000
,
0010
0100
0010
0000
0010
0001
1000
0001
,
2000
0000
0000
3100
0010
0001
1000
0000
,
0020
0000
0000
0130
0000
0000
0002
0000
,
0000
1003
0000
0000
0001
1000
0001
0000
,
1000
0100
0010
0000
0001
0000
1100
0000
,
0010
0000
0101
0000
0010
1000
0100
0000
,
0100
0010
0010
0002
0000
0000
1003
0010
,
0100
0002
0000
0000
0013
0100
1000
0000
;

//---------------dance-single - ----------------
#NOTES:
     dance-single:
     :
     Easy:
     4:
     0.326809,0.350549,0.290975,0.331109,0.000000,166.000000,29.000000,33.000000,0.000000,0.000000,0.000000,0.326809,0.350549,0.290975,0.331109,0.000000,166.000000,29.000000,33.000000,0.000000,0.000000,0.000000:
0000
0000
0000
0000
,
0000
0000
0000
0000
,
0000
0000
0000
0000
,
0000
0000
0000
0000
,
1000
0001
1000
0001
,
1000
0001
1000
0000
,
0001
0100
0010
1000
,
2002
3003
0220
0330
,
0001
1000
0001
1000
,
0001
1000
0001
0000
,
1000
0100
0010
0001
,
2002
3003
0220
0330
,
0001
0100
0010
0010
,
0000
1000
1000
0000
,
0100
0010
0001
1000
,
2002
3003
0220
0330
,
1000
0100
0010
0010
,
0000
0001
0001
0000
,
0100
0010
1000
0001
,
2002
3003
0220
0330
,
1000
1100
0001
0101
,
1000
0000
1010
0000
0001
0000
0001
0020
,
0000
0030
0010
0000
1100
0000
0001
0000
,
0101
1000
0010
0010
,
1000
0000
0000
1000
0000
0000
0001
0000
,
0000
0001
0000
0000
1000
0000
1001
0000
,
0100
0100
0001
0010
,
0020
0000
0130
0110
,
0100
0100
1000
0010
,
0220
0330
2002
3003
,
0001
0010
0100
0100
,
0000
1000
1000
0000
,
0001
0100
1000
0100
,
0220
0330
2002
3003
,
1000
1000
0010
0100
,
0000
0001
0001
0000
,
1000
0100
0001
0100
,
0220
0330
2002
3003
,
1000
1100
0001
0101
,
1000
0000
1010
0000
0001
0000
0001
0020
,
0000
0030
0010
0000
1100
0000
0001
0000
,
0101
1000
0010
0010
,
0100
0000
0000
0100
0000
0000
0001
0000
,
0000
0001
0000
0000
1000
0000
1001
0000
,
1000
0001
1000
0010
,
0020
0000
0130
1001
,
0001
1000
0001
0010
,
0020
0000
0130
0110
,
1000
0000
0000
1000
0000
0000
0001
0000
,
0000
0001
0000
0000
0100
0000
0100
0000
,
0010
1000
0001
1000
,
0100
0010
0001
0100
,
0010
0000
0000
0010
0000
0000
1000
0000
,
0000
1000
0000
0000
0001
1000
0001
0000
;
