#TITLE:Makin' Out;
#SUBTITLE:;
#ARTIST:Infinity;
#TITLETRANSLIT:;
#SUBTITLETRANSLIT:;
#ARTISTTRANSLIT:;
#CREDIT:;
#BANNER:Makin' Out-bn.png;
#BACKGROUND:Makin' Out-bg.png;
#LYRICSPATH:;
#CDTITLE:Dance Mania 14.png;
#MUSIC:Makin' Out.mp3;
#OFFSET:-6.723;
#SAMPLESTART:63.354;
#SAMPLELENGTH:12.000;
#SELECTABLE:YES;
#BPMS:0.000=143.990;
#STOPS:;
#BGCHANGES:;

//---------------dance-single - ----------------
#NOTES:
     dance-single:
     :
     Hard:
     7:
     0.492,0.459,0.236,0.556,0.000:
2000
0000
3010
0000
1001
0000
0010
0100
,
0010
0000
0101
0000
0001
0010
0001
0010
,
0100
2001
3100
2100
,
3001
0100
0010
0100
0001
0100
0001
1000
,
0020
0000
0130
0000
1001
0000
0100
1000
,
0100
0000
1010
0000
0100
1000
0010
0000
,
0010
0000
0100
0001
0100
0000
0010
0000
,
2000
3020
0230
0301
,
1001
0000
0011
0000
0101
0000
0001
0100
,
0010
0000
0010
0000
0001
1000
0001
0010
,
0100
0000
1000
0010
0200
0000
0310
0000
,
1000
0100
1000
0010
1000
0000
1001
0000
,
0001
0010
0100
0000
0001
0000
0100
0010
,
0100
0000
1001
0000
0001
0010
0100
0000
,
0002
2003
3020
0230
,
0301
1001
0010
0101
,
2000
0000
0000
0000
,
0001
0000
3001
1000
,
1001
0020
0230
0302
,
0103
0000
1000
0010
1000
0000
0100
0010
,
0200
0302
0023
0130
,
0001
0000
0010
0001
0010
0000
0010
0100
,
1000
0200
2300
3002
,
0103
0000
0010
1000
0010
0000
0010
1000
,
0100
2000
3020
0230
,
0301
0000
0100
0001
0100
0000
0010
0000
,
1001
2000
0001
3010
,
0200
0000
0302
0000
0023
0000
0130
0010
,
0000
0010
0200
0000
1000
0000
0310
0000
,
2000
0000
3002
0000
0023
0000
0031
0100
,
0000
0010
0002
0000
0100
0000
1003
0000
,
0200
2300
3020
0230
,
0302
0000
2000
0003
,
3001
1000
1001
1001
,
0002
0000
0013
0000
1100
0000
0001
1000
,
0010
0000
0001
0000
0100
1000
0010
0100
,
0001
0000
0100
0000
0010
0100
0010
0000
,
0001
0100
0010
1000
0100
0000
1000
0010
,
1000
0000
1100
0000
0001
0100
0010
0100
,
0001
0000
0100
0000
0001
1000
0100
0000
,
1100
0000
0010
0100
0010
0000
0001
0010
,
0100
0000
0010
0000
0100
1000
0100
1000
,
0200
0000
1300
0000
1001
0000
0010
0100
,
0010
0000
0001
0000
0100
0010
1000
0100
,
0010
0000
0010
0100
1000
0000
0010
0000
,
0100
0010
1000
0010
0100
0000
1001
0000
,
0010
0100
0001
0000
0001
0100
0010
0100
,
0001
0000
1100
0000
0010
0100
0001
0000
,
0010
0000
0001
0100
0000
0001
0100
0000
,
0010
0000
1000
0100
1000
0000
1001
0000
,
0020
0230
0302
2003
,
3020
0000
0230
0000
0301
0100
0001
0000
,
0020
2030
3200
2300
,
3002
0000
0023
0000
0130
1000
0100
0000
,
0002
0010
1000
0103
,
0020
0000
1030
0000
0100
1000
0100
0000
,
0020
0000
0130
0000
0001
0100
0001
0000
,
2002
3003
0000
0000
;

//---------------dance-single - ----------------
#NOTES:
     dance-single:
     :
     Medium:
     5:
     0.397,0.405,0.273,0.330,0.000: // measure 1
0010
0000
0100
0000
0010
0000
0100
0001
,  // measure 2
0100
0000
0110
0000
0100
1000
0100
0000
,  // measure 3
0002
0103
0200
0301
,  // measure 4
0010
1000
0010
0000
0020
0000
0130
0000
,  // measure 5
0100
0001
1000
0010
,  // measure 6
1001
0000
0000
0000
0100
1000
0100
0000
,  // measure 7
0010
0100
0001
0010
,  // measure 8
0110
0000
0001
0001
,  // measure 9
1100
0000
0101
0000
1100
0000
0001
0100
,  // measure 10
0010
0010
0100
1000
,  // measure 11
1010
0001
0101
0010
,  // measure 12
0010
0100
0110
0000
,  // measure 13
0001
1000
0100
0010
,  // measure 14
0110
0000
0001
0010
0001
0000
0100
0000
,  // measure 15
0200
1000
0010
2300
,  // measure 16
0010
0001
0010
0100
,  // measure 17
3002
0000
0000
0000
,  // measure 18
2000
0000
3003
1001
,  // measure 19
0001
1000
0010
0100
,  // measure 20
1000
0000
0010
0000
0100
0000
0001
0100
,  // measure 21
0000
0001
0200
0000
0320
0000
2030
0000
,  // measure 22
3200
0000
2300
0000
3020
0000
0130
0001
,  // measure 23
0000
0001
0100
0000
0010
0000
1000
0000
,  // measure 24
0100
0000
0010
0000
0001
0000
0001
0010
,  // measure 25
0000
0010
0002
0000
2003
0000
3200
0000
,  // measure 26
0310
0000
0100
0010
0000
0100
0000
0010
,  // measure 27
1000
0010
0100
0001
,  // measure 28
0010
0000
0100
0000
0001
0000
1000
0001
,  // measure 29
0000
1000
0002
0000
0203
0000
0320
0000
,  // measure 30
0032
0000
0023
0000
0230
0000
0301
1000
,  // measure 31
0000
1000
0001
0000
0100
0000
0010
0000
,  // measure 32
0001
0100
1000
0010
,  // measure 33
2020
0000
0000
3030
,  // measure 34
0101
0000
0110
1001
,  // measure 35
0110
0000
0010
0000
0100
0000
0010
1000
,  // measure 36
0010
0000
0110
0000
0010
0001
0010
0000
,  // measure 37
2000
3010
0020
1030
,  // measure 38
0100
0001
0100
0000
0200
0000
0310
0000
,  // measure 39
0010
1000
0001
0100
,  // measure 40
1001
0000
0000
0000
0010
0001
0010
0000
,  // measure 41
0100
0010
1000
0100
,  // measure 42
0110
0000
1000
1000
,  // measure 43
0011
0000
1010
0000
0011
0000
1000
0010
,  // measure 44
0100
0100
0010
0001
,  // measure 45
0101
1000
1010
0100
,  // measure 46
0100
0010
0110
0000
,  // measure 47
1000
0001
0010
0100
,  // measure 48
0110
0000
1000
0100
1000
0000
0010
0000
,  // measure 49
0020
0001
0100
0032
,  // measure 50
0100
1000
0100
0010
,  // measure 51
2003
0010
0001
0010
,  // measure 52
0100
0010
0001
0100
,  // measure 53
3002
0100
1000
0010
,  // measure 54
1000
0100
0010
1003
,  // measure 55
2010
0001
0100
0010
,  // measure 56
0001
0100
0001
3000
,  // measure 57
0210
0010
0001
0310
,  // measure 58
2002
3003
0000
0000
;

//---------------dance-single - ----------------
#NOTES:
     dance-single:
     :
     Easy:
     3:
     0.283,0.270,0.094,0.198,0.005: // measure 1
0010
0100
0010
0100
,  // measure 2
0001
1000
1001
0000
,  // measure 3
0001
0010
0001
0010
,  // measure 4
0100
1000
0100
1000
,  // measure 5
0100
1000
0010
0100
,  // measure 6
0101
0000
0001
1000
,  // measure 7
0010
0100
0010
0100
,  // measure 8
0110
0000
0001
0001
,  // measure 9
1000
0100
1000
0100
,  // measure 10
1000
0010
0200
0000
,  // measure 11
0301
0010
0001
0010
,  // measure 12
0100
1000
0020
0000
,  // measure 13
0130
0010
0100
0001
,  // measure 14
1000
0001
1000
0010
,  // measure 15
0100
0000
0001
0000
,  // measure 16
0110
0000
0000
0100
,  // measure 17
0220
0000
0000
0000
,  // measure 18
0000
0000
0000
0330
,  // measure 19
0001
1000
0010
1000
,  // measure 20
0100
0010
1000
0001
,  // measure 21
1000
0001
0100
0010
,  // measure 22
0100
1000
0010
0100
,  // measure 23
0001
1000
0010
1000
,  // measure 24
0010
0000
1000
0000
,  // measure 25
0001
1000
0010
0100
,  // measure 26
0001
0000
1000
0000
,  // measure 27
0110
0001
1000
0001
,  // measure 28
1000
0000
0010
0000
,  // measure 29
0100
0001
1000
0010
,  // measure 30
0001
0000
1000
0000
,  // measure 31
0010
0100
0001
1000
,  // measure 32
0020
0000
2030
0000
,  // measure 33
3002
0000
0000
0000
,  // measure 34
0203
0000
0000
0000
,  // measure 35
0301
0010
0100
0010
,  // measure 36
1000
0001
1001
0000
,  // measure 37
1000
0100
1000
0100
,  // measure 38
0010
0001
0010
0001
,  // measure 39
0010
0001
0100
0010
,  // measure 40
1010
0000
1000
0001
,  // measure 41
0100
0010
0100
0010
,  // measure 42
0110
0000
1000
1000
,  // measure 43
0001
0010
0001
0010
,  // measure 44
0001
0100
0020
0000
,  // measure 45
1030
0100
1000
0100
,  // measure 46
0010
0001
0200
0000
,  // measure 47
0310
0100
0010
1000
,  // measure 48
0001
1000
0001
0100
,  // measure 49
0010
0000
1000
0000
,  // measure 50
0110
0000
0000
0010
,  // measure 51
0100
0200
0000
0000
0000
0000
0000
0000
0000
0000
0000
0000
0000
0000
0000
0000
0000
0000
0000
0000
0000
0000
0000
0000
0000
0000
0000
0000
0000
0000
0000
0000
0000
0000
0000
0000
0000
0000
0000
0000
0000
0000
0000
0000
0000
0000
0000
0000
0000
0000
0000
0000
0000
0000
0000
0000
0000
0000
0000
0000
0000
0000
0000
0000
0000
0000
0000
0000
0000
0000
0000
0000
0000
0000
0000
0000
0000
0000
0000
0000
0000
0000
0000
0000
0000
0000
0000
0000
0000
0000
0000
0000
0000
0000
0000
0000
0001
0000
0000
0000
0000
0000
0000
0000
0000
0000
0000
0000
0000
0000
0000
0000
0000
0000
0000
0000
0000
0000
0000
0000
0000
0000
0000
0000
0000
0000
0000
0000
0000
0000
0000
0000
0000
0000
0000
0000
0000
0000
0000
0000
0000
0000
0000
0000
0001
0000
0000
0000
0000
0000
0000
0000
0000
0000
0000
0000
0000
0000
0000
0000
0000
0000
0000
0000
0000
0000
0000
0000
0000
0000
0000
0000
0000
0000
0000
0000
0000
0000
0000
0000
0000
0000
0000
0000
0000
0000
0000
0000
0000
0000
0000
0000
,  // measure 52
0302
0000
1000
1000
,  // measure 53
2003
0000
0010
0010
,  // measure 54
3020
0000
0100
0100
,  // measure 55
0230
0000
0320
0000
,  // measure 56
2030
0000
3002
0000
,  // measure 57
0203
0000
0320
0000
,  // measure 58
2030
3000
0000
0000
;
