#TITLE:Hanky Spanky;
#SUBTITLE:;
#ARTIST:S.E.X. Appeal;
#TITLETRANSLIT:;
#SUBTITLETRANSLIT:;
#ARTISTTRANSLIT:;
#GENRE:;
#CREDIT:;
#BANNER:Hanky Spanky - S.E.X. Appealbn.png;
#BACKGROUND:Hanky Spanky - S.E.X. Appealbg.png;
#LYRICSPATH:Hanky Spanky - S.E.X. Appeal.lrc;
#CDTITLE:encorerebirth.png;
#MUSIC:Hanky Spanky - S.E.X. Appeal.ogg;
#OFFSET:0.000;
#SAMPLESTART:67.141;
#SAMPLELENGTH:13.802;
#SELECTABLE:YES;
#BPMS:0.000=145.000
;
#STOPS:
;
#BGCHANGES:;
#KEYSOUNDS:;
#ATTACKS:;

//---------------dance-single - Spork!----------------
#NOTES:
     dance-single:
     :
     Beginner:
     1:
     0.091,0.114,0.073,0.073,0.000,54.000,8.000,8.000,0.000,0.000,0.000,0.091,0.114,0.073,0.073,0.000,54.000,8.000,8.000,0.000,0.000,0.000:
0000
0000
0000
0000
,
0000
0000
0000
0000
,
0000
0000
0000
0000
,
0000
0000
0000
0000
,
1000
0000
0000
0000
,
1000
0000
0000
0000
,
0001
0000
0000
0000
,
0001
0000
0000
0000
,
0200
0000
0000
0000
,
0310
0000
0000
0000
,
0020
0000
0000
0000
,
0130
0000
0000
0000
,
0002
0000
0000
0000
,
1003
0000
0000
0000
,
2000
0000
0000
0000
,
3001
0000
0000
0000
,
1001
0000
0000
0000
,
1001
0000
0000
0000
,
1001
0000
0000
0000
,
1000
0000
0010
0000
,
0110
0000
0000
0000
,
0110
0000
0000
0000
,
0110
0000
0000
0000
,
0100
0000
0001
0000
,
1000
0000
0000
0000
,
1000
0000
0000
0000
,
0001
0000
0000
0000
,
0010
0000
0000
0000
,
0001
0000
0000
0000
,
0001
0000
0000
0000
,
1000
0000
0000
0000
,
0010
0000
0000
0000
,
0200
0000
0000
0000
,
0300
0000
0000
0000
,
0020
0000
0000
0000
,
0030
0000
0000
0000
,
2000
0000
0000
0000
,
3000
0000
0000
0000
,
0002
0000
0000
0000
,
0003
0000
0000
0000
,
0000
0000
0000
1000
,
1000
0000
0000
0000
,
0100
0000
0000
0000
,
0010
0000
0000
0000
,
0001
0000
1000
0000
,
0001
0000
0000
0000
,
0100
0000
0000
0000
,
0010
0000
0000
0000
,
0010
0000
0000
0000
,
1001
0000
0000
0000
,
0000
0000
0000
0000
,
0110
0000
0000
0000
,
0000
0000
0000
0000
,
1000
0000
0000
0000
,
0001
0000
0000
0000
,
0100
0000
0000
0000
,
0100
0000
0000
0000
,
0010
0000
0000
0000
,
0000
0000
0000
0000
,
1000
0000
0000
0000
,
0000
0000
0000
0000
,
0001
0000
0000
0000
,
0000
0000
0000
0000
,
0010
0000
0000
0000
;

//---------------dance-double - Spork!----------------
#NOTES:
     dance-double:
     :
     Challenge:
     12:
     0.860,0.910,0.372,0.662,0.880,550.000,41.000,73.000,16.000,20.000,11.000,0.860,0.910,0.372,0.662,0.880,550.000,41.000,73.000,16.000,20.000,11.000:
00000000
00000000
00000000
00000000
,
00000000
00000000
00000000
00000000
,
00000000
00000000
00000000
00000000
,
00000000
00000000
00000000
00000000
,
00000000
00000000
01002000
00000000
00000000
00010000
00000000
00103000
00000000
00000000
00020010
00000000
00000000
00001000
00000000
00030100
,
00000000
00000000
00102000
00000000
00000000
00010000
00000000
01003000
00000000
00000000
00020100
00000000
00000000
00001000
00000000
00030010
,
00000000
00000000
00012000
00000000
00000000
10000000
00000000
00013000
00000000
00000000
00020100
00000000
00000000
00000001
00000000
00031000
,
00000000
00000000
00102000
00000000
00000000
10000000
00000000
01003000
00000000
00000000
00020100
00000000
00000000
00000001
00000000
00030010
,
00001000
00000100
00001000
00000100
00000010
00000001
00000010
00000001
00000100
00000000
00000000
000M0110
00000000
00000000
00000010
00000000
,
00010000
00100000
00010000
00100000
01000000
10000000
01000000
10000000
00100000
00000000
00000000
0110M000
00000000
00000000
01000000
00000000
,
00001000
00000010
00001000
00000010
00000100
00000001
00000100
00000001
00000010
00000000
00000000
000M0110
00000000
00000000
00000100
00000000
,
00010000
01000000
00010000
01000000
00100000
10000000
00100000
10000000
01000000
00100000
00010000
01000000
00001000
00010000
00000010
00001000
,
00000001
00000010
00000001
00000010
00000100
00001000
00000100
00001000
00000010
00000000
00000000
001M1000
00000000
00000000
00100000
00000000
,
10000000
01000000
10000000
01000000
00100000
00010000
00100000
00010000
01000000
00000000
00000000
0001M100
00000000
00000000
00000100
00000000
,
00000001
00000100
00000001
00000100
00000010
00001000
00000010
00001000
00000100
00000000
00000000
010M1000
00000000
00000000
01000000
00000000
,
11000000
00000000
00000000
00000000
01100000
00000000
00000000
00100000
00110000
00000000
10010000
00000000
10000000
00100000
01000000
00010000
,
00100000
00000000
00002000
00000000
00000000
00020000
00000000
00000000
00100000
00000000
00000000
00000010
00000000
00000000
00133010
00000000
,
00000000
00000000
00002000
00000000
00000000
00020000
00000000
00000000
00000001
00000000
00000000
00000010
00000000
00000000
00033110
00000000
,
00000000
00000000
00020000
00000000
00000000
00002000
00000000
00000000
10000000
00000000
00000000
00100000
00000000
00000000
01033000
00000000
,
00001000
00010000
00001000
00100000
00001000
00010000
00000010
00010000
00001000
00000000
00010000
00000100
00000000
00000000
0000M100
00000000
,
00000000
00000000
00002000
00000000
00000000
00020000
00000000
00000000
00000010
00000000
00000000
00100000
00000000
00000000
00133010
00000000
,
00000000
00000000
00002000
00000000
00000000
02000000
00000000
00000000
00100000
00000000
00000000
10000000
00000000
00000000
13013000
00000000
,
00000000
00000000
00020000
00000000
00000000
00000200
00000000
00000000
00000010
00000000
00000000
00000001
00000000
00000000
00031300
00000000
,
00000100
00001000
00000100
00010000
00001000
01000000
00010000
01000000
00100000
00000000
10100000
00000000
10010000
00000000
00010000
10000000
,
01000000
00000000
00000000
10000000
00100000
00000000
00010000
00000000
00001000
00000000
00000000
00000010
00000100
00000000
00010000
00000000
,
00001000
00000000
00000000
01000000
00100000
00000000
00010000
00000000
00001000
00000000
00000000
00000100
00000010
00000000
00010000
00000000
,
00001000
00000000
00000000
00100000
01000000
00000000
00010000
00000000
00001000
00000000
00000000
00000100
00000001
00000000
00001000
00000000
,
00010000
00000000
00000000
01000000
10000000
00000000
00010000
00000000
00001000
00000000
00011000
00000000
00100010
00000000
00000000
00000000
,
00001000
00000000
00000000
00010000
00100000
00000000
10000000
00000000
00001000
00000000
00000000
00001000
00010000
00000100
00001000
00000010
,
00010000
00000000
00000000
00001000
00000010
00000000
00000001
00000000
00010000
00000000
00000000
00010000
00001000
00100000
00010000
01000000
,
00001000
00000000
00000000
00010000
01000000
00000000
10000000
00000000
00001000
00000000
00000000
00100000
10000000
00000000
00010000
00000000
,
00001000
00000000
00000000
00000010
00000001
00000000
00000000
00001000
00001010
00000000
00001001
00000000
00000001
00000100
00000010
00001000
,
00000200
00000302
00000203
00020300
00032000
00203000
20300000
30200000
,
02300000
23000000
30200000
00320000
00032000
00203000
00301000
00002000
,
02003000
23000000
32000000
03002000
00023000
00030010
00000002
00000023
,
00000230
00000000
00000302
00000000
00000023
00000000
00001030
00000000
00020000
00000000
00030000
00001000
00010000
00000000
00000020
00000000
,
00002030
00003200
00000320
00002030
00023000
00130000
02000000
23000000
,
32000000
03002000
00023000
00030200
00000320
00000130
01000000
02000000
,
03020000
00230000
02300000
03020000
00032000
00003200
00000320
00000032
,
00000023
00000000
00020030
00000000
00032000
00000000
00003000
00100000
00110000
00000000
10010000
00000000
10000000
00100000
01000000
00010000
,
00200000
02000000
10000000
03310000
,
00010000
10000000
00100000
10000000
01000000
10000000
00100000
01000000
00010000
01000000
00001000
00010000
00000100
00001000
00000100
00000010
,
00000001
00000100
00000001
00000010
00000001
00000100
00000010
00001000
00000100
00000000
00000000
00000000
00000100
00000000
00001000
00000000
,
00000010
00010000
00001000
00010000
00000100
00001000
00000010
00000100
00000001
00000010
00000100
00010000
00001000
01000000
00010000
00000000
,
00100000
00001000
00100000
01000000
10000000
01000000
00100000
00000000
00001000
00010000
00000010
00000100
00000001
00000100
00000010
00000000
,
00001000
00000001
00000010
00000001
00000100
00000001
00000010
00000100
00001000
00000100
00010000
00001000
01000000
00010000
01000000
00100000
,
10000000
01000000
10000000
00100000
10000000
01000000
00100000
00010000
01000000
00000000
00000000
00000000
01000000
00000000
00010000
00000000
,
00100000
00001000
00010000
00001000
01000000
00010000
00100000
01000000
10000000
00100000
01000000
00001000
00010000
00000010
00001000
00000000
,
00001100
00000000
00000000
00000000
00000110
00000000
00000000
00000010
00000011
00000000
00001001
00000000
00001000
00000010
00000100
00000001
,
00000010
00000001
00000100
00000010
00001000
00000100
00000010
00000001
00000010
00000100
00010000
00001000
00010000
00000010
00001000
00000010
,
00010000
00001000
01000000
00010000
00100000
01000000
10000000
00010000
01000000
00000000
00000000
00000000
00100000
00000000
01000000
00000000
,
00100000
10000000
01000000
00100000
00010000
01000000
00100000
10000000
00100000
01000000
00001000
00010000
00001000
00100000
00010000
00100000
,
00001000
00010000
00000100
00001000
00000010
00000100
00000001
00001000
00000100
00000000
00000000
00000000
00000010
00000000
00000100
00000000
,
00001001
00000000
00001000
00000010
00010000
00001000
00100000
00010000
10000000
00000000
00010000
01000000
00001000
00010000
00000100
00001000
,
00000001
00000000
00001000
00000010
00010000
00001000
00100000
00001000
00010000
00000100
00010000
00001000
01000000
00001000
00010000
00000100
,
00000010
00000001
00000100
00001000
00010000
01000000
10000000
00100000
,
00110000
00000000
00000000
00000000
00011000
00000000
00000000
00001000
00001010
00000000
00000110
00000000
00000100
00001000
00000001
00000100
,
00000040
00040030
00030040
00400030
,
003M0100
01000000
00000000
00001000
00000000
00000000
10010M00
00000000
,
00400000
00000000
00304000
00000000
00003000
00100000
00000040
0000M000
,
01000030
00000000
00000000
00000000
00000100
00000000
00M00000
00000000
00010000
0M000000
00000000
00000000
00010000
00000000
00000000
00000000
,
00000400
00000000
00040300
00000000
00030400
0000M000
04000300
00000000
,
03000010
00000000
00100000
00000000
000M0000
00000000
00001000
00000000
00000000
00000000
00000000
00000000
10010000
000000M0
00000000
00000000
,
01000M00
00000000
00000000
00000000
00001000
00000000
00000000
00000000
01000000
00000000
00000000
00000100
00000000
00000000
00100000
00000000
,
00000010
00001000
00000001
00010000
;

//---------------dance-double - Spork!----------------
#NOTES:
     dance-double:
     :
     Easy:
     4:
     0.279,0.265,0.254,0.172,0.000,168.000,28.000,19.000,0.000,0.000,0.000,0.279,0.265,0.254,0.172,0.000,168.000,28.000,19.000,0.000,0.000,0.000:
00000000
00000000
00000000
00000000
,
00000000
00000000
00000000
00000000
,
00000000
00000000
00000000
00000000
,
00000000
00000000
00000000
00000000
,
01000000
00000000
00001000
00000000
,
00010000
00000000
00000010
00000000
,
00001000
00000000
00000100
00000000
,
00000010
00000000
00000010
00000000
,
00001002
00000000
00000103
00000000
,
00000200
00000000
00001300
00001000
,
00020000
00000000
01030000
00000000
,
02000000
00000000
13000000
00000000
,
20010000
00000000
30100000
00000000
,
00200000
00000000
00310000
00010000
,
00002000
00000000
00003010
00000000
,
00000020
00000000
00000130
00000000
,
00001000
00000001
00000100
00000101
,
00000000
00000100
00001000
00011000
,
00000000
00010000
01000000
11000000
,
10000000
00010000
01000000
01000000
,
00010000
10000000
00100000
10100000
,
00000000
00100000
00010000
00011000
,
00000000
00001000
00000010
00000011
,
00000002
00000000
00002003
00000000
,
00003001
00000000
00000010
00000001
,
00000100
00000000
00000010
00010000
,
00001000
00000000
01000000
00001000
,
00010000
01000000
10000000
00010000
,
10000000
00000000
00100000
10000000
,
01000000
00000000
00100000
00001000
,
00010000
00000000
00000100
00010000
,
00001000
00000100
00000001
00001000
,
00001001
00000000
00011000
00000000
,
00010000
10000000
00010000
00000000
,
10010000
00000000
00011000
00000000
,
00001000
00010000
01000000
00000000
,
10010000
00000000
00011000
00000000
,
00001000
00000001
00001000
00000000
,
00001001
00000000
00011000
00000000
,
00010000
00001000
00000100
00000000
,
00000100
00000000
00000000
00000000
,
00000101
00000010
00000100
00010000
,
00000010
00010000
00001000
01000000
,
10100000
01000000
00100000
00001000
,
00010000
00001000
01000000
00100000
,
11000000
00100000
00001000
01000000
,
00001000
00010000
00000010
00000100
,
00000011
00000100
00010000
00001000
,
00010000
00000010
00000100
00000000
,
00000101
00000001
00001001
00000000
,
00000100
00010000
01000000
00000000
,
10100000
10000000
10010000
00000000
,
00100000
00001000
00000010
00000000
,
00000200
00000000
00000310
00001000
,
00000200
00000000
00001300
00000001
,
00000110
00000001
00000100
00000010
,
00010000
00000000
00010000
00000000
,
00012000
00000000
01000000
00000000
,
00010000
00000000
00003000
00000000
,
00021000
00000000
00000000
00000010
,
00001000
00000000
00031000
00000000
,
00021000
00000000
00000100
00000000
,
00001000
00000000
00030000
00000000
,
00002000
00000000
00203000
00000000
,
02300000
00000000
23000000
00000000
,
30000000
00000000
00000000
00000000
;

//---------------dance-single - Spork!----------------
#NOTES:
     dance-single:
     :
     Easy:
     3:
     0.215,0.236,0.027,0.263,0.000,134.000,3.000,29.000,0.000,0.000,0.000,0.215,0.236,0.027,0.263,0.000,134.000,3.000,29.000,0.000,0.000,0.000:
0000
0000
0000
0000
,
0000
0000
0000
0000
,
0000
0000
0000
0000
,
0000
0000
0000
0000
,
0001
0000
0010
0000
,
0100
0000
0100
0000
,
1000
0000
0010
0000
,
0100
0000
0100
0100
,
0001
0000
0010
0010
,
0100
0000
1000
1000
,
0001
0000
1000
1000
,
0001
0100
0001
0001
,
1000
0000
0010
0010
,
0100
0000
0001
0001
,
1000
0000
0001
0001
,
1000
0100
0010
0010
,
0002
0000
1003
0000
,
2000
0000
3100
0000
,
0200
0000
0310
0000
,
0010
0000
1001
0000
,
2000
0000
3001
0000
,
0002
0000
0103
0000
,
0200
0000
0310
0000
,
0020
0000
0000
0000
,
1030
0000
0100
0000
,
1000
0000
0010
0000
,
1000
0000
0001
0000
,
0100
0000
0100
0000
,
0001
0000
0010
0000
,
0001
0000
0100
0000
,
0001
0000
1000
0000
,
0010
0000
0010
0000
,
0200
0000
0320
0000
,
2030
0000
3001
0000
,
0002
0000
2003
0000
,
3100
0010
0100
0000
,
0200
0000
0320
0000
,
0032
0000
1003
0000
,
2000
0000
3002
0000
,
0203
0000
0310
0000
,
0010
0000
0000
0000
,
1000
0100
1000
0000
,
1000
0001
1000
0000
,
0001
0010
0001
0000
,
0002
0000
2003
0000
,
3001
0100
0001
0000
,
0001
1000
0001
0000
,
1000
0010
1000
0000
,
0200
0000
0320
0000
,
0031
1000
1001
0000
,
1000
0000
0001
0000
,
1000
0001
1001
0000
,
0010
0000
0100
0000
,
0002
0000
0013
0001
,
2000
0000
3010
0000
,
0100
0010
0100
0000
,
0010
0000
0010
0000
,
2000
0000
0000
0000
,
3100
0000
0000
0000
,
0200
0000
0000
0000
,
0310
0000
0000
0000
,
0020
0000
0000
0000
,
0031
0000
0000
0000
,
0002
0000
0000
0000
,
2003
0000
0000
0000
,
3000
0000
0000
0000
;

//---------------dance-single - Spork!----------------
#NOTES:
     dance-single:
     :
     Medium:
     5:
     0.317,0.295,0.254,0.172,0.000,198.000,28.000,19.000,0.000,0.000,0.000,0.317,0.295,0.254,0.172,0.000,198.000,28.000,19.000,0.000,0.000,0.000:
0000
0000
0000
0000
,
0000
0000
0000
0000
,
0000
0000
0000
0000
,
0000
0000
0000
0000
,
0010
0000
1000
0000
,
0100
0000
0100
0000
,
0010
0000
0001
0000
,
0100
0100
0100
0100
,
0001
0000
0100
0000
0001
0000
0010
0001
,
1000
0000
0010
0000
1000
0000
0100
1000
,
0001
0000
0010
0000
0001
0000
0100
0001
,
1000
0010
0100
0001
,
1000
0000
0100
0000
1000
0000
0010
1000
,
0001
0000
0010
0000
0001
0000
0100
0001
,
1000
0000
0010
0000
1000
0000
0100
1000
,
0001
0001
0010
0100
,
0012
0000
0103
0010
,
2100
0000
3100
0010
,
0102
0000
0013
0100
,
1010
1000
0001
1000
,
1200
0000
1300
0010
,
0201
0000
0301
1000
,
0021
0000
0031
0100
,
2002
0000
3003
0000
,
0001
0010
0001
0100
,
0010
0000
0010
1000
,
0001
0000
0001
1000
,
0100
0000
1000
0001
0000
0001
1000
0000
,
1000
0010
1000
0100
,
0010
0000
0010
0001
,
1000
0000
1000
0001
,
0100
0001
0010
0010
,
0011
0000
1001
0000
,
1010
0010
1000
0100
,
1100
0000
0011
0000
,
0001
1000
0110
0000
,
1100
0000
1001
0000
,
0101
0100
0001
0000
,
0011
0000
1100
0000
,
0010
0100
1001
0100
,
1001
0000
0000
0001
,
1000
0000
0100
0000
0001
0000
0100
1000
,
0000
1000
0001
0000
0100
0000
0100
0000
,
0001
0000
0010
0000
1000
0000
0010
0001
,
0000
0001
1000
0001
1000
0000
0100
0000
,
1000
0000
0010
0000
0001
0000
0010
1000
,
0000
1000
0001
0000
0010
0000
0010
0000
,
0001
0100
1000
0100
,
0001
1000
0001
0000
1001
0000
0000
0000
,
1000
0100
1200
0000
,
1000
0001
1300
0000
,
1000
0001
0100
0000
0201
0000
0000
0000
,
0001
1000
0301
0000
,
0020
0000
1030
0001
,
0020
0000
0130
0000
,
0011
0000
1010
0000
,
1001
0100
1001
0010
,
0002
0000
0100
0000
,
0103
0000
0000
0000
,
2000
0000
0010
0000
,
3001
0000
1000
0000
,
0200
0000
0010
0000
,
0310
0000
0000
0000
,
0002
0000
0023
0000
,
0230
0000
2300
0000
,
3000
0000
0000
0000
;

//---------------dance-double - Spork!----------------
#NOTES:
     dance-double:
     :
     Medium:
     7:
     0.399,0.442,0.154,0.236,0.036,265.000,17.000,26.000,0.000,0.000,0.000,0.399,0.442,0.154,0.236,0.036,265.000,17.000,26.000,0.000,0.000,0.000:
00000000
00000000
00000000
00000000
,
00000000
00000000
00000000
00000000
,
00000000
00000000
00000000
00000000
,
00000000
00000000
00000000
00000000
,
00000100
00001100
00000000
00010100
,
00000000
00000000
00100100
00000000
00000000
00000000
00001000
01000000
,
00010000
01010000
00000000
01001000
,
00000000
00000000
01000010
00000000
00000000
00000000
00010000
00000100
,
00001000
00000000
00000000
00000000
00001000
00000000
00000000
00000000
00000100
00000000
00000000
00000100
00000000
00000000
00000100
00000000
,
00000010
00000000
00000000
00000000
00000001
00000000
00000000
00000000
00001000
00000000
00000000
00001000
00000000
00000000
00000010
00000000
,
00000010
00000000
00000000
00000000
00010000
00000000
00000000
00000000
00001000
00000000
00000000
00010000
00000000
00000000
00001000
00000000
,
00010000
00000000
00000000
00000000
01000000
00000000
00000000
00000000
00100000
00000000
00000000
01000000
00000000
00000000
10000000
00000000
,
00010000
00000000
00000000
00000000
00010000
00000000
00000000
00000000
01000000
00000000
00000000
01000000
00000000
00000000
01000000
00000000
,
00100000
00000000
00000000
00000000
10000000
00000000
00000000
00000000
00010000
00000000
00000000
00010000
00000000
00000000
00100000
00000000
,
00100000
00000000
00000000
00000000
00001000
00000000
00000000
00000000
00010000
00000000
00000000
00001000
00000000
00000000
00010000
00000000
,
00001000
00000000
00000000
00000000
00000100
00000000
00000000
00000000
00000010
00000000
00000000
00000100
00000000
00000000
00000001
00000000
,
00000002
00000000
00000013
00000000
00000100
00000000
00010000
00000100
,
00002000
00000000
00003010
00000000
00010000
00000000
00001000
00010000
,
00002000
00000000
00103000
00000000
00001000
00000000
00100000
00010000
,
02000000
03100000
01100000
10010000
,
20000000
00000000
31000000
00000000
00100000
00000000
00001000
00100000
,
00020000
00000000
01030000
00000000
00001000
00000000
00010000
00001000
,
00020000
00000000
00030100
00000000
00010000
00000000
00000100
00001000
,
00000020
00000000
00000230
00000000
,
00000301
00001000
00000010
00010000
,
00001000
00100000
00010000
01000000
,
00001000
00100000
01000000
10000000
,
01000000
00000000
00100000
00000000
00010000
10000000
00010000
00000000
,
20000000
00100000
30010000
01000000
,
00002000
00000000
00010000
00000000
01003000
00000000
00001000
00001000
,
00020000
00001000
00030100
00001000
,
00000002
00000010
00001003
00000100
,
00000010
00000100
00000010
00000000
00000100
00010000
00000100
00000000
,
00010000
00000000
00001000
01000000
00001000
00000000
00000000
01000000
,
00010000
00000000
00100000
01000000
00100000
00000000
00010000
10000000
,
00010000
01000000
01100000
00000000
,
00100000
00000000
10000000
00100000
10000000
00000000
00010000
00000000
,
00100000
00000000
00001000
01000000
00001000
00000000
00000000
00010000
,
00000010
00000000
00010000
00001000
00010000
00000000
00000100
00000000
,
00001000
00000001
00001000
00000000
00000110
00000000
00000001
00000000
,
00000220
00000000
00000330
00001000
,
00000001
00000010
00000001
00000010
00000100
00000010
00000100
00000010
,
00000100
00001000
00000100
00000000
00010000
00000000
00001000
00001000
,
01000000
00010000
01000000
00100000
01000000
00100000
01000000
00000000
,
00100000
01000000
00100000
10000000
00100000
10000000
00010000
00000000
,
10000000
01000000
10000000
01000000
00100000
01000000
00100000
01000000
,
00100000
00010000
00100000
00000000
00001000
00000000
00010000
00010000
,
00000010
00001000
00000010
00000100
00000010
00000100
00000010
00000000
,
00000100
00000010
00000100
00000000
00001001
00000000
00000000
00000000
,
00000001
00000010
00000100
00001000
00000001
00000000
00000100
00000000
,
00001000
00010000
02000000
03000000
,
10000000
01000000
00100000
00010000
10000000
00000000
00100000
00000000
,
00010000
00001000
00000020
00000030
,
00000110
00000001
00001100
00000010
,
00000201
00000000
00000000
00000000
00001300
00000000
00010000
00010000
,
00001000
00100000
01000000
10000000
,
01100000
10000000
01010000
00100000
,
20000000
00000000
01000000
00000000
,
00001000
00000000
30000000
00000000
,
00002000
00000000
00100000
00003000
,
00020000
00000000
00000010
00030000
,
00000002
00000000
00000100
00000000
,
00010000
00000000
00000003
00000000
,
00020000
00000000
00032000
00000000
,
02003000
00000000
03200000
00000000
,
00300000
00000000
00000000
00000000
;

//---------------dance-double - Spork!----------------
#NOTES:
     dance-double:
     :
     Hard:
     9:
     0.586,0.649,0.454,0.408,0.168,357.000,50.000,45.000,0.000,0.000,0.000,0.586,0.649,0.454,0.408,0.168,357.000,50.000,45.000,0.000,0.000,0.000:
00000000
00000000
00000000
00000000
,
00000000
00000000
00000000
00000000
,
00000000
00000000
00000000
00000000
,
00000000
00000000
00000000
00000000
,
00000000
00000000
00010000
00000000
00000000
00010000
00000000
01000000
00000000
00000000
00100000
00000000
00000000
00100000
00000000
10000000
,
00000000
00000000
01000000
00000000
00000000
01000000
00000000
00100000
00000000
00000000
00001000
00000000
00010000
00000000
00010000
00000000
,
00000100
00000000
00001000
00000000
00000000
00001000
00000000
00000010
00000000
00000000
00000100
00000000
00000000
00000100
00000000
00000001
,
00000000
00000000
00000010
00000000
00000000
00000010
00000000
00000100
00000000
00000000
00010000
00000000
00001000
00010000
00001000
00000000
,
00011000
00000000
00000000
00000000
00010100
00000000
00000000
00000000
00010010
00000000
00000000
00001001
00000000
00000000
00010100
00000000
,
00011000
00000000
00000000
00000000
00101000
00000000
00000000
00000000
01001000
00000000
00000000
10010000
00000000
00000000
00101000
00000000
,
00011000
00000000
00000000
00000000
01001000
00000000
00000000
00000000
00101000
00000000
00000000
10010000
00000000
00000000
01001000
00000000
,
00011000
00000000
00000000
00000000
00010010
00000000
00000000
00000000
00010100
00000000
00000000
00001001
00000000
00000000
00010010
00000000
,
00011000
00000000
00010000
00000000
00000100
00000000
00000001
00000000
00000101
00000000
00000000
00000110
00000000
00000000
00010100
00000000
,
00011000
00000000
00001000
00000000
01000000
00000000
10000000
00000000
11000000
00000000
00000000
01100000
00000000
00000000
01001000
00000000
,
00011000
00000000
00001000
00000000
00100000
00000000
10000000
00000000
10100000
00000000
00000000
01100000
00000000
00000000
00101000
00000000
,
00011000
00000000
00000000
00000000
00010010
00000000
00000000
00000000
00000110
00000000
00000000
00000101
00000000
00000000
00001001
00000000
,
00000000
00000000
00002000
00000000
00000000
00003200
00000000
00000000
00000302
00000000
00000000
00000203
00000000
00000000
00020300
00000000
,
00000000
00030000
00002000
00000000
00000000
00003020
00000000
00000000
00000032
00000000
00000000
00000023
00000000
00000000
00002030
00000000
,
00000000
00003000
00020000
00000000
00000000
00230000
00000000
00000000
20300000
00000000
00000000
30200000
00000000
00000000
00320000
00000000
,
00000000
00030000
00002000
00000000
00000000
02003000
00000000
00000000
23000000
00000000
00000000
32000000
00000000
00000000
03010000
00000000
,
10000000
00000000
00020000
00000000
00000000
00230000
00000000
00000000
20300000
00000000
00000000
30200000
00000000
00000000
00302000
00000000
,
00000000
00003000
00020000
00000000
00000000
02030000
00000000
00000000
23000000
00000000
00000000
32000000
00000000
00000000
03020000
00000000
,
00000000
00030000
00002000
00000000
00000000
00003200
00000000
00000000
00000302
00000000
00000000
00000203
00000000
00000000
00002300
00000000
,
00020000
00003000
00000000
00000000
00000000
00000000
00000000
00000000
00000000
00000000
00000000
00000000
00030000
00000000
00000000
00000000
,
00001000
00100000
00001000
00100000
01000000
00100000
01000000
00100000
,
00010000
01000000
00010000
01000000
00100000
10000000
00100000
10000000
,
00010000
00100000
10000000
00100000
00010000
01000000
00001000
00010000
,
00000100
00001000
00000010
00000001
00000010
00010000
00011000
00000000
,
00010000
00000010
00010000
00000010
00000100
00000010
00000100
00000010
,
00001000
00000100
00001000
00000100
00000010
00000001
00000010
00000001
,
00001000
00000100
00000001
00000100
00001000
00000010
00010000
00001000
,
00100000
00010000
01000000
10000000
01000000
00001000
00010000
00001000
,
00001000
00100000
01000000
00010000
00001000
00100000
00001000
00010000
,
00010000
00000010
00000100
00001000
00010000
00000100
00000000
00000100
,
00010000
00001000
00000100
00000001
00000010
00000100
00010000
00001000
,
01000000
00100000
10000000
00000000
10010000
00000000
00100000
00001000
,
00001000
01000000
00100000
00010000
00001000
01000000
00001000
00010000
,
00010000
00000100
00000010
00001000
00010000
00000000
00010000
00001000
,
00001000
00010000
00100000
10000000
01000000
00100000
00001000
00010000
,
00000010
00000100
00000001
00000000
00001001
00000000
00000010
00000000
,
00002002
00000000
00000000
00003003
,
00001000
00000100
00000010
00000100
00000001
00000100
00001000
00001000
,
00000001
00000100
00001000
00010000
01000000
00000000
01000000
00100000
,
00010000
10000000
00100000
00010000
00001000
00000010
00001000
00001000
,
00100000
00010000
00000010
00001000
00010000
01000000
10000000
00000000
,
00010000
00100000
01000000
00100000
10000000
00100000
00010000
00010000
,
10000000
00100000
00010000
00001000
00000010
00000000
00000010
00000100
,
00001000
00000001
00000100
00001000
00010000
01000000
00010000
00010000
,
00011000
00010100
01001000
10010000
,
01000000
01000000
01000000
00001000
00010000
00000100
00000010
00000001
,
00000010
00001000
00010000
00000000
00010100
00000000
00001000
00001000
,
00000010
00000010
00000010
00010000
00001000
00100000
01000000
10000000
,
01000000
00010000
00001000
00000000
00101000
00000000
00011000
00010000
,
00010100
00000000
00000001
00000010
00001000
00010000
00100000
10000000
,
00010000
00000000
00000000
00000000
00100000
00000000
00000000
01000000
00000000
01000000
00100000
00000000
00010000
00000000
00010000
00000000
,
10000000
00100000
00010000
00001000
00000010
00000000
00000001
00000100
,
00001000
00010000
01000000
00000000
00010000
00000000
00011000
00000000
,
00020000
00000000
00000010
00000000
,
00030200
00000000
00000000
00000000
,
00002300
00000000
00000010
00000000
,
00003001
00000100
00001000
00010000
,
00002000
00000000
00100000
00000000
,
02003000
00000000
00000000
00000000
,
03020000
00000000
00100000
00000000
,
20030000
00000000
02000000
00000000
,
33000000
00000000
00000000
00000000
;

//---------------dance-single - Spork!----------------
#NOTES:
     dance-single:
     :
     Hard:
     9:
     0.621,0.618,0.127,0.454,0.277,415.000,14.000,50.000,0.000,0.000,0.000,0.621,0.618,0.127,0.454,0.277,415.000,14.000,50.000,0.000,0.000,0.000:
0000
0000
0000
0000
,
0000
0000
0000
0000
,
0000
0000
0000
0000
,
0000
0000
0000
0000
,
0001
0000
0010
0000
0000
0010
0000
0100
0000
0000
1000
0000
0000
1000
0000
0001
,
0000
0000
0100
0000
0000
0100
0000
0010
0000
0000
1000
0000
0001
0000
0001
0000
,
1000
0000
0100
0000
0000
0100
0000
0010
0000
0000
0001
0000
0000
0001
0000
0000
,
1001
0000
0000
0000
0110
0000
0000
0100
0001
0000
0001
0000
1000
0001
1000
0001
,
1000
0000
0100
0000
1000
0000
0010
0000
0100
0000
0000
0100
0000
0000
0100
0000
,
0001
0000
0010
0000
0001
0000
0100
0000
0010
0000
0000
0010
0000
0000
0010
0000
,
1000
0000
0010
0000
1000
0000
0100
0000
0010
0000
0000
0010
0000
0000
0010
0000
,
0001
0010
1000
0010
0001
0100
1000
0100
,
0001
0000
0100
0000
0001
0000
0010
0000
0100
0000
0000
0100
0000
0000
0100
0000
,
1000
0000
0010
0000
1000
0000
0100
0000
0010
0000
0000
0010
0000
0000
0010
0000
,
0001
0000
0010
0000
0001
0000
0100
0000
0010
0000
0000
0010
0000
0000
0010
0000
,
0110
0000
0000
0000
1001
0000
0000
1000
0001
0000
0010
0000
0100
0010
0100
0010
,
0100
0000
2000
0000
0000
3200
0000
0000
0320
0000
0000
0032
0000
0000
0203
0000
,
0000
0300
0002
0000
0000
0023
0000
0000
0230
0000
0000
2300
0000
0000
3002
0000
,
0000
0003
2000
0000
0000
3020
0000
0000
0230
0000
0000
0302
0000
0000
0023
0000
,
0000
0030
0100
0000
1000
0001
0000
0001
0200
0000
0000
0302
0000
0000
2003
0000
,
0000
3000
0002
0000
0000
0023
0000
0000
0230
0000
0000
2300
0000
0000
3020
0000
,
0000
0030
2000
0000
0000
3200
0000
0000
0320
0000
0000
0032
0000
0000
2003
0000
,
0000
3000
0002
0000
0000
0203
0000
0000
0320
0000
0000
2030
0000
0000
3100
0000
,
0220
0000
0000
0000
0000
0000
0000
0000
0330
0000
0001
0000
0001
0000
1000
0001
,
1000
0000
0000
0010
1000
0000
1000
0000
0100
0000
0000
0010
0001
0000
0001
0000
,
0100
0000
0000
0001
1000
0000
1000
0000
0001
0000
0000
0010
0001
0000
0001
0000
,
0100
0000
0000
0010
1000
0000
1000
0000
0001
0000
0000
0010
0001
0000
0001
0000
,
0100
0000
0000
0010
1000
0000
1000
0000
0100
0000
0110
0000
1001
0000
0000
0000
,
1000
0000
0000
1000
0100
0000
0010
0000
0001
0000
0100
0000
1000
0000
0100
0000
,
0001
0000
0000
0001
0010
0000
0100
0000
1000
0000
0000
1000
0010
0000
1000
0000
,
0001
0000
0000
0001
0100
0000
0010
0000
1000
0000
0100
0000
0001
0000
0100
0000
,
1000
0000
0000
1000
0001
0000
0000
0001
0100
0000
0001
0000
1000
0001
1000
0001
,
1000
0010
0100
0001
0010
0100
1000
0100
,
0010
0001
0100
0010
1000
0001
1000
1000
,
0001
0010
0100
1000
0010
0100
0001
0100
,
0010
1000
0001
0000
1001
0000
1000
1000
,
0001
0010
0100
0001
0100
0010
0001
0100
,
0010
1000
0100
0010
0001
1000
0001
0001
,
1000
0010
0100
1000
0100
0010
1000
0100
,
0010
0001
1000
0000
1001
0000
0100
0000
,
2002
0000
3003
0110
,
1000
0100
0001
0100
0010
0001
0010
0100
,
1000
0010
0001
0010
1000
0000
1000
1000
,
0001
0010
1000
0010
0001
0100
1000
0100
,
0001
0000
0010
0000
1000
0000
0100
0000
0001
0000
1000
0001
1000
0000
0000
0000
,
0001
0100
1000
0100
0010
1000
0010
0100
,
0001
0010
1000
0010
0001
0000
0001
0001
,
1000
0010
0001
0010
1000
0100
0001
0100
,
1001
0000
0000
0000
0110
0000
0000
0010
1000
0000
1000
0000
0001
1000
0001
1000
,
0001
0010
0100
2000
0000
0100
0001
3000
,
0001
1000
0001
0000
1001
0000
0010
0010
,
1000
0100
0010
0001
2000
0000
3001
0010
,
0100
1000
0002
0000
2003
0000
3001
0001
,
0010
0000
0100
0010
0001
0100
0010
1000
,
0001
0000
0010
0100
1000
0010
0100
0001
,
1000
0000
0100
0000
0001
0000
0100
0000
2000
0000
0000
3000
0001
0000
0010
0000
,
1000
0000
0010
0000
0002
0000
0000
1003
0010
0000
0010
0000
0100
0010
0100
0010
,
0200
0010
0001
0301
,
2000
0100
3002
0010
,
0203
0010
0001
0301
,
1000
0000
0100
0000
0010
0000
0010
0001
0000
0000
0100
0000
0010
0000
1000
0000
,
0200
0010
1000
1300
,
0002
0100
2003
0100
,
3020
0100
1000
1030
,
0001
0000
0010
0000
0100
0000
0100
1000
0000
0000
0010
0000
1000
0000
0001
0000
;

//---------------dance-single - Spork!----------------
#NOTES:
     dance-single:
     :
     Challenge:
     11:
     0.850,0.941,0.508,0.290,0.748,568.000,56.000,32.000,17.000,2.000,11.000,0.850,0.941,0.508,0.290,0.748,568.000,56.000,32.000,17.000,2.000,11.000: // measure 0
0000
0000
0000
0000
,  // measure 1
0000
0000
0000
0000
,  // measure 2
0000
0000
0000
0000
,  // measure 3
0000
0000
0000
0000
,  // measure 4
1000
0000
0100
0000
1000
0010
0000
0100
0010
0000
0100
0000
0001
0010
0000
0100
,  // measure 5
0010
0000
0100
0000
1000
0100
0000
0010
0100
0000
1000
0000
1010
0000
1001
0000
,  // measure 6
0011
0000
0010
0000
0001
0100
0000
0010
0100
0000
0010
0000
1000
0100
0000
0000
,  // measure 7
0110
0000
0000
0000
1001
0000
0000
1000
0010
0000
0010
0000
0100
0001
1000
0001
,  // measure 8
0020
0000
0100
0030
2000
0000
0010
3000
0200
0000
0301
0020
0000
0031
2000
0000
,  // measure 9
0020
3000
0100
0030
0002
0000
0010
0003
0200
0000
1300
0020
0000
1030
0002
0000
,  // measure 10
0200
0003
0010
0300
2000
0000
0100
3000
0020
0000
0031
0200
0000
0301
2000
0000
,  // measure 11
0200
3000
0010
0300
0002
0000
0100
0003
0020
0000
1030
0200
0000
1300
0002
0000
,  // measure 12
1003
0100
1000
0100
0010
0001
0010
0001
0200
0000
0301
0020
0000
0031
2000
0000
,  // measure 13
3001
0100
0001
0100
0010
1000
0010
1000
0200
0000
1300
0020
0000
1030
0002
0000
,  // measure 14
0013
0100
0010
0100
1000
0001
1000
0001
0200
0000
0310
2000
0000
3001
0010
0000
,  // measure 15
0110
0000
0000
0000
1001
0000
0000
0100
1000
0000
1000
0000
0010
1000
0001
1000
,  // measure 16
0100
0000
0110
0000
0010
0001
0000
0001
0100
0000
0010
1000
0000
1000
0001
0000
,  // measure 17
0100
0000
0110
0000
0010
1000
0000
1000
0100
0000
0010
0001
0000
0001
1000
0000
,  // measure 18
0010
0000
0110
0000
0100
0001
0000
0001
0010
0000
0100
1000
0000
1000
0001
0000
,  // measure 19
1000
0100
0010
0001
0100
0010
1000
0001
0010
0000
0001
0100
0000
0010
1000
0000
,  // measure 20
0001
0000
1001
0000
0001
0010
0000
0010
0100
0000
1000
0010
0000
0010
0100
0000
,  // measure 21
0001
0000
1001
0000
1000
0100
0000
0100
0010
0000
0001
0100
0000
0100
0010
0000
,  // measure 22
1000
0000
1001
0000
0001
0100
0000
0100
0010
0000
1000
0001
0000
0001
1000
0000
,  // measure 23
0001
0010
0100
1000
0010
0100
0001
1000
0100
0000
1100
0000
1001
0000
1000
0001
,  // measure 24
0100
0000
0010
0100
0010
0000
1000
0000
0100
0000
0010
0100
0010
0000
0001
0000
,  // measure 25
1000
0000
0001
1000
0001
0000
0100
0000
0010
0000
1000
0001
1000
0000
0001
0000
,  // measure 26
0010
0000
0001
0100
0010
0000
1000
0000
0100
0000
1000
0010
0100
0000
0001
0000
,  // measure 27
0010
0000
0001
1000
0010
0000
1000
0000
0100
0000
0110
0000
1001
0000
0000
0000
,  // measure 28
1000
0010
1000
0010
1000
0010
1000
0010
0100
0010
0100
0010
0100
0010
0100
0010
,  // measure 29
0100
0001
0100
0001
0100
0001
0100
0001
1000
0001
1000
0001
1000
0000
1000
0000
,  // measure 30
0001
0010
0001
0010
0001
0010
0001
0010
0100
0010
0100
0010
0100
0010
0100
0010
,  // measure 31
0100
1000
0100
1000
0100
1000
0100
1000
0001
0000
0001
0000
0100
0001
1000
0001
,  // measure 32
0010
0001
M101
0100
1000
0010
011M
0100
,  // measure 33
1000
0001
M011
0010
0100
0001
0101
1001
,  // measure 34
1010
1000
110M
0100
0001
0010
M110
0100
,  // measure 35
0001
1000
110M
0100
0001
0000
0011
0110
,  // measure 36
0100
1000
0001
1000
0100
1000
0001
1000
0100
1000
0010
1000
0010
1000
0010
0100
,  // measure 37
0001
0010
M110
0010
1000
0000
1100
0110
,  // measure 38
0010
0001
1000
0001
0010
0001
1000
0001
0010
0001
0100
0001
0100
0001
0100
0010
,  // measure 39
1000
0000
0100
0000
011M
0000
0000
0100
0001
0000
0001
0000
0010
0001
1000
0001
,  // measure 40
0200
0020
0001
1330
,  // measure 41
0001
0000
0010
0000
1000
0000
0010
0000
1010
0000
0000
0110
0000
0000
0011
0000
,  // measure 42
0001
1000
0010
0100
0110
0000
0100
0001
,  // measure 43
1000
0000
0100
0000
0001
0000
0100
0000
0101
0000
0000
0110
0000
0000
1100
0000
,  // measure 44
1000
0000
0001
0000
0100
0000
0010
0000
1000
0000
0010
0100
0001
0000
0001
0000
,  // measure 45
1000
0000
0010
0000
0001
0000
0010
0000
0011
0000
0000
0110
0000
0000
1010
0000
,  // measure 46
1000
0001
0010
0100
0110
0000
0100
1000
,  // measure 47
0001
0000
0100
0000
1000
0000
0100
0000
1100
0000
0000
0110
0000
0000
0101
0000
,  // measure 48
1001
0000
0000
0000
0110
0000
0000
0010
1000
0000
1000
0000
0001
0010
0100
1000
,  // measure 49
0001
0000
0100
0001
0010
0000
0100
1000
0010
0000
0200
0000
0020
0000
0300
0000
,  // measure 50
1030
0000
0100
1000
0001
0000
0010
0001
0000
0100
0000
0100
0010
0000
1000
0000
,  // measure 51
1000
0000
0100
1000
0010
0000
0100
0001
0010
0000
0100
0000
0010
0000
0001
0000
,  // measure 52
1000
0000
0010
1000
0100
0000
0010
0100
0000
1000
0000
1000
0010
0000
0010
0000
,  // measure 53
0110
0000
0010
1000
0010
0000
0100
0000
0001
0000
0010
0001
0010
0000
0100
0000
,  // measure 54
1000
0000
0010
1000
0001
0000
0010
0001
0000
0100
0000
0100
0010
0000
1000
0000
,  // measure 55
0001
0000
0010
0000
1000
0000
0010
0000
1010
0000
0000
0110
0000
0000
0011
0000
,  // measure 56
1001
0000
0000
0000
0110
0000
0000
0100
0001
0000
0001
0000
1000
0100
0010
0001
,  // measure 57
0400
0340
4030
3004
,  // measure 58
M013
0100
0000
1000
0000
0000
1M01
0000
,  // measure 59
0040
0000
0430
0000
0300
0001
4000
00M0
,  // measure 60
3100
0000
1000
0000
0010
0000
001M
0100
0000
M000
0010
0000
1000
0000
1000
0000
,  // measure 61
0040
0000
0430
0000
0304
00M0
4003
0000
,  // measure 62
3010
0000
0100
0000
M000
0000
0001
0000
0000
0000
0000
0000
1001
00M0
0000
0000
,  // measure 63
0M01
0000
0010
0000
0001
0000
0001
0100
0000
0000
0010
0000
1000
0000
0001
0000
,  // measure 64
1000
0000
0100
0000
1000
0000
1000
0010
0000
0000
0010
0000
1000
0000
0001
0000
;
