#TITLE:Carnaval de Paris;
#SUBTITLE:;
#ARTIST:Dario G;
#TITLETRANSLIT:;
#SUBTITLETRANSLIT:;
#ARTISTTRANSLIT:;
#CREDIT:;
#BANNER:Carnaval de Paris.PNG;
#BACKGROUND:Carnaval de Paris-bg.PNG;
#LYRICSPATH:;
#CDTITLE:;
#MUSIC:Carnaval de Paris.mp3;
#OFFSET:-0.025;
#SAMPLESTART:24.475;
#SAMPLELENGTH:14.220;
#SELECTABLE:YES;
#BPMS:0.000=135.000;
#STOPS:;
#BGCHANGES:0.000=Carnaval de Paris.avi=1.000=1=1=0,
248.000=Carnaval de Paris-bg.PNG=1.000=1=0=1,
99999=-nosongbg-=1.000=0=0=0 // don't automatically add -songbackground-
;

//---------------dance-single - ----------------
#NOTES:
     dance-single:
     :
     Hard:
     8:
     0.566,0.553,0.357,0.553,0.250: // measure 1
0000
0000
0000
0000
,  // measure 2
0000
0000
0000
0000
,  // measure 3
1001
0000
0000
0110
0000
0000
0010
0000
0220
0000
0000
0000
0330
0000
0000
0000
,  // measure 4
0110
0000
0000
0101
0000
0000
0001
0000
2002
0000
0000
0000
3003
0000
0000
0000
,  // measure 5
1000
0000
0100
1000
0000
0000
0001
0000
0100
0000
0001
0100
0000
0000
0010
0000
,  // measure 6
1010
0000
0000
1000
0001
0000
1000
0000
0220
0000
0000
0000
0330
0000
0000
0000
,  // measure 7
0020
1000
0000
0100
0000
1000
0000
0130
,  // measure 8
0002
0010
0000
1000
0000
0010
0000
1003
,  // measure 9
0200
0010
0000
0001
0000
0010
0000
1300
,  // measure 10
0020
0100
0000
0001
0000
0130
0010
1000
,  // measure 11
0001
2000
0000
3001
0010
0200
0000
1300
,  // measure 12
0001
0020
0000
0031
0100
0002
0000
1003
,  // measure 13
0100
0010
0001
0100
0010
1000
0001
0100
,  // measure 14
0010
1000
0010
1000
0001
1000
0002
0000
0000
1003
0000
0000
,  // measure 15
1001
0000
0000
0000
0010
0000
0000
0001
0100
0000
0010
0000
1000
0000
0010
0000
,  // measure 16
0100
0000
0000
0000
0010
0000
0000
1000
0001
0000
0010
0000
0100
0000
0010
0000
,  // measure 17
0001
0000
0000
0000
1000
0000
0000
0100
1000
0000
0000
0000
0001
0000
0000
0100
,  // measure 18
0001
0000
1000
0000
0100
0000
0010
0000
0001
0000
0000
0000
0101
0000
0000
0010
,  // measure 19
1000
0000
0010
0000
0100
0000
0001
0000
1000
0000
0000
1000
0010
0000
0000
0100
,  // measure 20
0001
0000
1000
0000
0100
0000
0010
0000
0002
0000
0000
0000
1003
0000
0000
0001
,  // measure 21
1000
0100
0001
0100
1000
0100
0010
0100
,  // measure 22
1000
0000
0010
0000
1000
0001
1000
0000
,  // measure 23
0020
0000
0130
0010
2000
0000
0010
0000
,  // measure 24
3001
0010
1000
0010
0002
0000
0010
0000
,  // measure 25
0103
0010
1000
0100
0010
0001
0100
0010
,  // measure 26
2000
0010
0200
3300
,  // measure 27
0002
0000
0013
0001
0200
0000
1000
0000
,  // measure 28
0310
0100
0001
1000
0200
0000
0320
0000
,  // measure 29
0031
1000
0100
0010
0200
0000
2300
0000
,  // measure 30
0002
0000
0000
3003
,  // measure 31
0001
0000
1000
0001
0000
1000
0001
0000
0200
0000
0010
0000
0000
0010
0000
0000
,  // measure 32
0310
0000
1000
0001
0000
1000
0001
0000
0020
0000
0100
0000
0000
0100
0000
0000
,  // measure 33
0130
0000
0010
0001
0000
0010
0001
0000
1000
0000
0010
1000
0000
0010
1000
0000
,  // measure 34
0001
0000
0000
1000
0001
0000
1000
0000
0020
0000
1000
0000
0000
1000
0000
0000
,  // measure 35
1030
0000
0001
0100
0000
0001
0100
0000
0010
0000
0000
0000
1001
0000
0000
0000
,  // measure 36
0001
0000
1000
0010
0000
1000
0010
0000
0100
0000
0000
0000
1001
0000
0000
0000
,  // measure 37
0001
0010
0001
0010
0000
0000
0001
0000
1000
0010
1000
0010
0000
0000
1000
0000
,  // measure 38
0001
0000
0000
1000
0001
0000
1000
0000
2001
0000
0000
0000
3002
0000
0000
0000
,  // measure 39
0203
0000
0000
0320
,  // measure 40
2030
0000
0000
3002
,  // measure 41
0023
0000
0000
0000
0230
0000
0000
0000
0320
0000
0000
0000
0031
0000
0000
0002
,  // measure 42
2000
0000
0000
3003
,  // measure 43
2100
0000
0000
0100
0000
0000
0001
0000
0002
0000
0000
0000
3003
0000
0000
0000
,  // measure 44
0102
0000
0000
0100
0000
0000
1000
0000
2000
0000
0000
0000
3003
0000
0000
0000
,  // measure 45
0001
0010
0001
0010
0000
0000
0001
0000
1000
0010
1000
0010
0000
0000
0100
0000
,  // measure 46
0001
0000
0000
1000
0100
0000
0010
0000
2002
0000
0000
0000
3003
0000
0000
0000
,  // measure 47
1010
0000
0000
0010
1000
0000
0001
0000
0010
0000
0000
0000
0001
0000
0000
0000
,  // measure 48
0100
0000
0000
0001
0100
0000
0010
0000
1000
0000
0100
0000
0010
0000
0000
0001
,  // measure 49
0010
0000
0000
0000
0001
0000
0000
1000
0001
0000
0000
0000
1000
0000
0010
0000
,  // measure 50
1000
0000
0010
1000
0000
0000
0001
0000
1000
0000
0001
0000
1000
0000
0000
1000
,  // measure 51
0010
0000
0100
0000
0001
0000
1000
0000
0100
0000
0000
1000
0100
0000
0000
0010
,  // measure 52
0001
0000
0100
0000
0010
0000
1000
0000
0001
0000
0000
0000
1000
0000
0000
0100
,  // measure 53
1000
0010
0100
0001
0100
0010
1000
0001
,  // measure 54
1000
0000
0000
0001
0000
0000
0100
0000
0220
0000
0000
0000
0330
0000
0000
0000
,  // measure 55
1001
1001
2002
3003
,  // measure 56
0110
0110
0220
0330
,  // measure 57
0011
0001
1001
1000
,  // measure 58
1010
1010
2020
3030
,  // measure 59
0101
0101
0202
0303
,  // measure 60
0110
0110
0220
0330
,  // measure 61
1010
1000
1001
0001
,  // measure 62
1001
1001
2002
0000
,  // measure 63
3003
0000
0000
0000
;

//---------------dance-single - ----------------
#NOTES:
     dance-single:
     :
     Medium:
     5:
     0.419,0.470,0.125,0.616,0.054:
0000
0000
0000
0000
,
0000
0000
0000
0000
,
0001
0000
0000
1000
0000
0000
0001
0000
0002
0000
0000
0000
0003
0000
0000
0000
,
0100
0000
0000
0010
0000
0000
0100
0000
0200
0000
0000
0000
0300
0000
0000
0000
,
0010
0000
0000
1000
0000
0000
0010
0000
1000
0000
0000
0001
0000
0000
1000
0000
,
0100
0000
0010
0100
0020
0000
0030
0000
,
0001
0010
0000
0100
0000
1000
0000
0100
,
1000
0001
0000
0100
0000
0010
0000
1000
,
0001
0100
0000
0010
0000
0100
0000
0001
,
0010
0001
0000
1000
0000
0100
0010
0001
,
0010
0100
0000
0010
0001
1000
0000
0010
,
1000
0001
0000
0100
0010
0100
0000
0010
,
1000
0001
0000
1000
0100
0010
0000
0001
,
1000
0001
2002
3003
,
1000
0000
0100
0010
0100
0000
0010
0000
,
0001
0000
1000
0010
0100
0000
0001
0100
,
0001
0000
1000
0010
1000
0000
0001
1000
,
0001
0000
1000
0000
0100
0000
0010
0001
,
0100
0000
0010
0000
1000
0010
0100
0010
,
0100
0000
0001
0000
1000
0000
0100
0010
,
0100
0010
0001
1000
,
0002
0010
1000
0103
,
0020
0000
2030
3200
,
0320
0032
2000
3003
,
0002
0203
0320
2030
,
0002
0000
0000
3003
,
0002
0000
2003
3002
,
0203
0320
2030
3001
,
0020
0032
2003
3002
,
2000
0000
0000
3003
,
0001
0000
0000
0100
0000
0000
0001
0000
2000
0000
0000
0000
3000
0000
0000
0000
,
1000
0000
0000
0100
0000
0000
1000
0000
0002
0000
0000
0000
0003
0000
0000
0000
,
1000
0000
0000
0001
0000
0000
1000
0000
0001
0000
0000
0100
0000
0000
0001
0000
,
0100
0000
0010
0010
0020
0000
0030
0000
,
1000
0000
0000
0001
0000
0000
1000
0000
0001
0000
0000
0000
1001
0000
0000
0000
,
0010
0000
0000
0100
0000
0000
0010
0000
0100
0000
0000
0000
0110
0000
0000
0000
,
0010
0000
0000
1000
0000
0000
0010
0000
0100
0000
0000
0001
0000
0000
2000
0000
,
0001
0001
0001
3002
,
0203
0000
0000
0320
,
2030
0000
0000
3002
,
0023
0032
2003
3020
,
0230
0000
0000
0320
,
2000
0000
0030
3002
,
0020
0000
0003
0230
,
0320
0032
2003
3002
,
0103
0010
2002
3003
,
0001
0000
0010
0000
0001
0000
1000
0010
,
0100
0000
0010
0000
1000
0000
0001
0010
,
0001
0000
1000
0100
1000
0000
0001
1000
,
0001
0000
0100
0000
0010
0000
1000
0010
,
0100
0000
0001
0000
0100
0001
0100
0001
,
1000
0000
0001
0000
1000
0000
0100
0010
,
0100
0010
0001
0100
,
0010
0000
1000
0001
1000
0000
0010
0000
,
0001
0001
0002
0003
,
0100
0100
0200
0300
,
2002
3003
0220
0330
,
1001
1001
2002
3003
,
0001
0001
0002
0003
,
1000
1000
2000
3000
,
2200
3300
0022
0033
,
1001
1001
2002
0000
,
3003
0000
0000
0000
;

//---------------dance-single - ----------------
#NOTES:
     dance-single:
     :
     Easy:
     3:
     0.275,0.360,0.214,0.348,0.000:
0000
0000
0000
0000
,
0000
0000
0000
0000
,
2002
0000
3003
0000
,
0220
0000
0330
0000
,
0110
0000
1001
0000
,
0010
0100
0220
0330
,
0010
0000
1000
0000
,
0001
0000
1000
0000
,
0100
0000
0010
0000
,
0001
0000
1000
0001
,
1000
1000
0001
0001
,
0100
0100
0010
0010
,
1000
0010
1000
0001
,
2002
0000
3003
0000
,
1000
0100
1000
0000
,
0001
0100
0001
0000
,
1000
0100
0010
0001
,
0100
0010
0100
0000
,
0010
1000
0001
1000
,
0100
0010
0001
0000
,
1000
0001
1000
0001
,
0100
0010
0100
0000
,
0020
0000
2030
0000
,
0001
0001
0002
3003
,
0001
0010
0001
1000
,
0200
0000
0300
0000
,
0020
0000
0032
0000
,
1000
1000
2000
3003
,
1000
0010
0100
0001
,
2002
0000
0000
3003
,
0220
0000
0330
0000
,
2002
0000
3003
0000
,
1001
0000
0110
0000
,
0001
1000
2002
3003
,
0220
0000
0330
0110
,
2002
0000
3003
1001
,
0001
0000
1000
0000
,
0110
0110
0220
0330
,
0002
0000
0003
0000
,
2000
0000
3000
0000
,
0002
0000
0023
0000
,
0230
0000
0300
0000
,
0020
0000
0030
0000
,
0200
0000
0300
0000
,
0010
0001
1000
0001
,
2000
0000
3001
0000
,
0001
1000
0010
0000
,
1000
0001
0100
0000
,
0001
0010
0001
1000
,
0100
1000
0001
0000
,
0010
0001
0100
0010
,
1000
0100
0010
0000
,
0100
0010
0001
0000
,
0100
0010
1000
0000
,
0001
0001
0001
0000
,
1000
1000
1000
0000
,
0110
0000
1001
0000
,
0100
0100
0100
0000
,
0010
1000
0010
0000
,
0100
0001
0100
0000
,
0001
0000
1000
0000
,
1001
1001
2002
0000
,
3003
0000
0000
0000
;

//---------------dance-single - ----------------
#NOTES:
     dance-single:
     :
     Beginner:
     2:
     0.163,0.247,0.187,0.000,0.000:
0000
0000
0000
0000
,
0000
0000
0000
0000
,
1001
0000
0000
0000
,
1001
0000
0000
0000
,
0010
0000
0100
0000
,
0010
0000
0110
0000
,
0001
0000
0000
0000
,
1000
0000
0000
0000
,
0001
0000
1000
0000
,
0100
0000
0010
0000
,
0100
0000
0100
0000
,
0010
0000
0010
0000
,
0001
0000
1000
0000
,
1001
0000
0000
0000
,
0001
0000
0100
0000
,
0001
0000
1000
0000
,
0100
0000
0010
0000
,
0100
0000
0000
0000
,
0010
0000
0001
0000
,
1000
0000
0001
0000
,
1000
0000
0001
0001
,
0001
0000
0000
0000
,
1001
0000
0000
0000
,
1000
0000
0000
0000
,
0010
0000
0100
0000
,
0110
0000
0000
0000
,
0010
0000
0000
0000
,
0100
0000
0000
0000
,
0001
0000
1000
0000
,
1001
0000
0000
0000
,
1001
0000
0000
0000
,
1001
0000
0000
0000
,
0010
0000
0100
0000
,
0110
0000
0000
0000
,
0110
0000
0000
0000
,
0110
0000
0000
0000
,
1000
0000
0001
0000
,
1001
1001
1001
0000
,
0100
0000
0000
0000
,
0100
0000
0000
0000
,
0001
0000
1000
0000
,
0100
0000
0000
0000
,
0110
0000
0000
0000
,
1001
0000
0000
0000
,
0001
0000
1000
0000
,
0001
0000
1001
0000
,
0001
0000
1000
0000
,
0100
0000
0010
0000
,
0100
0000
0010
0000
,
0100
0100
0100
0000
,
1000
0000
0001
0000
,
0100
0000
0010
0000
,
1000
0000
0001
0001
,
0001
0000
1000
0000
,
0010
0010
0010
0000
,
0100
0100
0100
0000
,
0001
0000
1000
0000
,
0001
0001
0001
0000
,
1000
1000
1000
0000
,
0001
0001
0001
0000
,
0010
0000
0100
0000
,
0110
0110
0110
0000
;
