#TITLE:93 Til Infinity;
#SUBTITLE:;
#ARTIST:Souls of Mischief;
#TITLETRANSLIT:;
#SUBTITLETRANSLIT:;
#ARTISTTRANSLIT:;
#GENRE:;
#CREDIT:;
#BANNER:;
#BACKGROUND:;
#LYRICSPATH:;
#CDTITLE:;
#MUSIC:93 Til Infinity cut.mp3;
#OFFSET:-9.336000;
#SAMPLESTART:74.275932;
#SAMPLELENGTH:16.593887;
#SELECTABLE:YES;
#BPMS:0.000000=103.050003
;
#STOPS:
;
#BGCHANGES:;
#KEYSOUNDS:;
#ATTACKS:;

//---------------dance-single - ----------------
#NOTES:
     dance-single:
     :
     Easy:
     3:
     0.128824,0.131083,0.000000,0.000000,0.000000,124.000000,0.000000,0.000000,0.000000,0.000000,0.000000,0.128824,0.131083,0.000000,0.000000,0.000000,124.000000,0.000000,0.000000,0.000000,0.000000,0.000000:
0000
0000
0000
0000
,
0000
0000
0000
0000
,
0000
0000
0000
0000
,
0000
0000
0000
0000
,
0001
0100
0010
0000
,
0010
1000
0100
0000
,
0010
0001
1000
0000
,
0100
0000
0010
0000
,
0001
0100
0010
0000
,
1000
0100
0010
0000
,
0100
1000
0001
0000
,
0100
0000
0010
0000
,
1000
0001
1000
0001
,
0010
0100
1000
0000
,
0001
0100
0010
0000
,
1000
0000
0001
0000
,
0010
0001
0010
0001
,
1000
0100
0010
0000
,
0001
0100
0010
0000
,
0010
0000
0100
0000
,
0001
0000
0010
0000
,
0100
0000
1000
0000
,
0010
0000
0100
0000
,
0001
0000
0100
0000
,
0010
0000
1000
0000
,
0001
0000
0010
0000
,
0100
0000
1000
0000
,
0010
0000
0100
0000
,
0001
1000
0001
1000
,
0001
0010
0100
0000
,
1000
0001
0100
0000
,
0010
0000
1000
0000
,
0100
0010
0100
0010
,
0100
1000
0010
0000
,
0100
0001
1000
0000
,
0100
0000
0010
0000
,
0001
0000
1000
0000
,
0010
0000
0100
0000
,
0001
1000
0001
0000
,
0010
0000
0100
0000
,
1000
0000
0010
0000
,
0100
0000
0001
0000
,
0010
0000
0100
0000
,
1000
0000
0010
0000
,
0100
0000
0001
0000
,
0100
0000
0010
0000
,
1000
0000
0001
0000
,
0010
0010
0100
0000
,
1000
1000
0001
0001
,
0100
0010
1000
0000
,
0001
0010
0100
0000
,
1000
0000
0001
0000
;

//---------------dance-single - ----------------
#NOTES:
     dance-single:
     :
     Medium:
     4:
     0.245181,0.225805,0.000000,0.239986,0.000000,203.000000,0.000000,33.000000,0.000000,0.000000,0.000000,0.245181,0.225805,0.000000,0.239986,0.000000,203.000000,0.000000,33.000000,0.000000,0.000000,0.000000:
0000
0000
0000
0000
,
0000
0000
0000
0000
,
0000
0000
0000
0000
,
0000
0000
0000
0000
,
0001
0100
0010
1000
,
0001
0000
0020
0000
0030
0100
0010
0000
,
0001
0000
2000
0000
3000
0010
0100
0000
,
0001
0000
0020
0000
0030
0100
1000
0000
,
0010
0100
0001
1000
,
0100
0000
0020
0000
0030
0100
0010
0000
,
0001
0000
2000
0000
3000
0001
1000
0000
,
0010
0000
0200
0000
0300
0010
0100
0000
,
0001
0010
0001
0010
,
0100
0000
2000
0000
3000
0100
1000
0000
,
0001
0000
0200
0000
0300
0001
0100
0000
,
0010
0000
2000
0000
3000
0010
1000
0000
,
0100
0010
0100
0010
,
0100
0000
2000
0000
3000
0100
1000
0000
,
0001
0000
0200
0000
0300
0001
0100
0000
,
0010
1000
0100
0001
,
0100
1000
0020
0030
,
0100
0001
0010
1000
,
0010
0001
2000
3000
,
0001
0100
0010
1000
,
0001
0010
0200
0300
,
1000
0010
0100
0001
,
0010
0000
0001
0000
1000
0001
0000
0001
,
2000
0000
3010
0000
0100
0001
0100
0000
,
0020
0000
1030
0000
0100
0010
0100
0000
,
2000
0000
3010
0000
0100
0001
0100
0000
,
0020
0000
1030
0000
0001
0010
0001
0000
,
0020
0000
1030
0000
0010
0100
0010
0000
,
0200
0000
1300
0000
0010
1000
0010
0000
,
0200
0000
0301
0000
0010
0100
0010
0000
,
0002
0000
1003
0000
0001
0100
0001
0000
,
0020
0000
0130
0000
1000
0010
1000
0000
,
0001
0100
0010
1000
,
0001
0010
0100
0100
,
1000
0001
0010
0000
,
0001
0100
0010
1000
,
0001
0000
0020
0000
0030
0001
0010
0000
,
0100
0000
2000
0000
3000
0100
1000
0000
,
0010
0000
0200
0000
0300
0010
0100
0000
,
0002
0000
0013
0001
0000
0001
0010
0000
,
0200
0000
1300
0100
0000
0100
1000
0000
,
0020
0000
0130
0010
0000
0010
0100
0000
,
0002
0000
1003
0001
0000
0001
1000
0000
,
0001
0010
0100
1000
,
0001
0100
0010
1000
,
0002
0000
0013
0001
0000
0001
1000
0000
,
0020
0000
0130
0000
0001
1000
0100
0000
,
0020
0000
0000
0100
0000
0000
0130
0000
;

//---------------dance-single - ----------------
#NOTES:
     dance-single:
     :
     Hard:
     6:
     0.388549,0.357525,0.298164,0.000000,0.076359,333.000000,41.000000,0.000000,0.000000,0.000000,0.000000,0.388549,0.357525,0.298164,0.000000,0.076359,333.000000,41.000000,0.000000,0.000000,0.000000,0.000000:
// measure 0
0000
0000
0000
0000
,  // measure 1
0000
0000
0000
0000
,  // measure 2
0000
0000
0000
0000
,  // measure 3
0000
0000
0000
0000
,  // measure 4
0010
1000
0100
1000
0001
0100
0110
0000
,  // measure 5
0010
1000
0100
0001
0100
1000
0011
0000
,  // measure 6
0001
0100
0010
0100
0001
0010
1100
0000
,  // measure 7
0001
0100
0010
0100
0001
1000
0110
0000
,  // measure 8
0001
0010
0100
1000
0010
0100
1001
0000
,  // measure 9
0001
0010
0100
1000
0001
0100
1010
0000
,  // measure 10
0010
0100
0010
1000
0001
0010
0110
0000
,  // measure 11
0100
1000
0001
0100
0010
0100
0101
0000
,  // measure 12
0001
0010
0001
1000
0100
1000
1010
0000
,  // measure 13
0010
0100
0001
0100
0010
1000
1100
0000
,  // measure 14
0100
0001
0100
1000
0010
0100
0101
0000
,  // measure 15
0001
0010
0001
0100
0010
0100
1001
0000
,  // measure 16
0001
0010
1000
0010
0001
0100
0110
0000
,  // measure 17
0010
0000
0000
0000
1000
0000
0000
0000
0100
0000
0000
0000
0010
0000
0000
0000
0001
0000
0000
0000
1000
0000
0000
0000
0000
0000
0000
0000
0000
1001
0000
0000
,  // measure 18
0000
0000
1001
0000
0000
0000
0001
0000
0000
1000
0000
0000
0010
0000
0000
0100
0000
0000
1001
0000
0000
0000
0000
0000
,  // measure 19
0001
0010
0001
0100
0000
0100
0010
0000
,  // measure 20
1000
0100
0010
0001
0000
0001
0100
0000
,  // measure 21
1000
0100
0010
1000
0000
1000
0001
0000
,  // measure 22
0010
0100
0001
1000
0000
1000
0010
0000
,  // measure 23
0100
1000
0010
0100
0000
0100
0001
0000
,  // measure 24
1000
0100
0010
0001
0000
0001
0010
0000
,  // measure 25
0100
0001
0100
1000
0000
1000
0010
0000
,  // measure 26
0100
0010
0001
0010
1000
0101
0000
0010
,  // measure 27
1100
0000
1000
0001
0100
0010
1000
1001
,  // measure 28
0001
0000
0010
0000
0100
0000
1000
0010
0000
1000
0010
0000
0100
0000
0001
0000
,  // measure 29
0010
0000
0100
0000
1000
0000
0001
0000
0100
0001
0100
0000
0010
0000
1000
0000
,  // measure 30
0001
0000
0010
0000
0100
0000
1000
0000
0001
1000
0001
0000
0100
0000
0010
0000
,  // measure 31
0100
0000
0001
0000
1000
0000
0001
0000
0010
0000
0000
0010
0001
0000
1000
0000
,  // measure 32
0001
0000
1000
0000
0010
0000
0100
0010
0000
0100
0010
0000
1000
0000
0001
0000
,  // measure 33
0010
0000
0100
0000
1000
0000
0001
0100
0000
0001
0100
0000
0010
0000
1000
0000
,  // measure 34
0001
0000
0010
0000
0100
0000
1000
0100
0000
1000
0100
0000
0010
0000
0001
0000
,  // measure 35
1000
0000
0000
0000
0100
0000
0000
0000
0010
0000
0000
0000
0001
0000
0000
0000
0000
0000
0000
0000
0000
0010
0000
0000
0000
0000
0000
0100
0000
0000
0000
0000
0000
1000
0000
0000
0001
0000
0000
1000
0000
0000
0001
0000
0000
0000
0000
0000
,  // measure 36
0100
0010
1000
0100
1000
0001
0100
0000
,  // measure 37
0001
0010
0100
1000
0010
1000
0001
0000
,  // measure 38
0010
0001
0100
0010
1000
0100
1000
0000
,  // measure 39
0001
0100
0010
1000
0001
0010
0100
0000
,  // measure 40
1000
0010
0100
0101
0000
0001
0011
0000
,  // measure 41
0100
1000
0010
1010
0000
0010
0110
0000
,  // measure 42
0001
1000
0100
0110
0000
0100
1001
0000
,  // measure 43
0001
0100
0010
0110
0000
0010
1010
0000
,  // measure 44
0001
0010
0100
1100
0000
0001
0011
0000
,  // measure 45
0100
1000
0010
0101
0000
0010
0110
0000
,  // measure 46
0001
0010
0100
1001
0000
0010
0110
0000
,  // measure 47
0001
0010
0001
1100
0000
0010
0101
0000
,  // measure 48
0001
0000
0000
1000
0000
0000
0010
0000
0000
0110
0000
0000
0000
0000
0000
0001
0000
0000
1000
0000
0100
0000
0010
0000
,  // measure 49
0001
0010
1100
0001
0000
0100
0110
0000
,  // measure 50
0010
1000
0001
0011
0000
0100
1100
0000
,  // measure 51
0010
0000
0100
0001
0000
1000
1001
0000
;
