#TITLE:four pieces of heaven;
#SUBTITLE:;
#ARTIST:Lion;
#TITLETRANSLIT:;
#SUBTITLETRANSLIT:;
#ARTISTTRANSLIT:;
#GENRE:;
#CREDIT:;
#BANNER:four pieces of heaven-banner.png;
#BACKGROUND:four pieces of heaven-bg.png;
#LYRICSPATH:;
#CDTITLE:./CDTITLES/BEATMANIA IIDX.PNG;
#MUSIC:04 four pieces of heaven.mp3;
#OFFSET:-1.591000;
#SAMPLESTART:95.780037;
#SAMPLELENGTH:15.000000;
#SELECTABLE:NO;
#DISPLAYBPM:125.000000:195.000000;
#BPMS:0.000000=195.000000
,177.000000=175.000000
,193.000000=168.000000
,201.000000=160.000000
,205.000000=135.000000
,209.000000=124.999992
,217.000000=130.000000
,225.000000=135.000000
,233.000000=140.000000
,241.000000=145.000000
,249.000000=150.000000
,257.000000=160.000000
,261.000000=170.000000
,265.000000=180.000000
,269.000000=195.000000
;
#STOPS:16.000000=0.923000
;
#BGCHANGES:;
#KEYSOUNDS:;
#ATTACKS:;

//---------------dance-single - ----------------
#NOTES:
     dance-single:
     :
     Hard:
     10:
     0.694356,0.711672,0.081415,0.048849,0.321591,581.000000,10.000000,6.000000,0.000000,0.000000,0.000000,0.694356,0.711672,0.081415,0.048849,0.321591,581.000000,10.000000,6.000000,0.000000,0.000000,0.000000:
0000
0000
0000
0000
,
0000
0000
0000
0000
,
0000
0000
0000
0000
,
0000
0000
0000
0000
,
1001
0000
0001
0100
0010
1000
0000
1000
,
0100
0000
1000
0010
0100
0010
1000
0100
,
1000
0001
1000
0010
0001
0010
0000
0010
,
0100
0000
0100
0001
0010
0100
1000
0010
,
0100
0010
0001
0010
1000
0100
0000
1000
,
0100
0000
0100
1000
0010
0100
0001
0010
,
0100
0010
1000
0010
0001
0100
0000
0001
,
0100
0000
0001
0010
0100
0010
0001
0100
,
0001
0000
1000
0000
0001
0000
0100
0000
0010
0000
0000
0010
0100
0000
0001
0000
,
0010
0000
0000
0010
0100
0000
1000
0000
0010
0000
0100
0000
1000
0000
0100
0000
,
0001
0000
0001
0000
1000
0000
0100
0000
0010
0000
0000
0010
0100
0000
1000
0000
,
0010
0000
0000
0010
0100
0000
0001
0000
0010
0000
0100
0000
0001
0000
0100
0000
,
1000
0000
1000
0000
0001
0000
0100
0000
1000
0000
0000
0100
0010
0000
1000
0000
,
0100
0000
0000
0010
0100
0000
1000
0000
0001
0000
0100
0010
0100
0000
0001
0000
,
0010
0000
0100
0000
1000
0000
0010
0000
0001
0000
0000
0010
0100
0000
0001
0000
,
0010
0000
0000
0100
0010
0000
0001
0000
1000
0000
0010
0100
0010
0000
1000
0000
,
0100
0010
0001
1000
0001
0000
0000
0000
,
0000
0000
0000
0000
0000
0000
1000
0010
,
0100
0010
0001
0010
1000
0000
0000
0000
,
0000
0000
0000
0001
0010
0001
0100
0010
0100
0010
1000
0010
,
1000
0000
0001
0000
1000
0000
0001
0000
0000
0010
0000
0000
0100
0000
0000
0010
0000
0000
0001
0000
0000
0100
0000
0000
,
0010
1000
0100
0010
0100
0010
0001
0100
,
0010
0010
1000
0100
0010
0100
1000
0010
,
0100
0001
0010
0100
0010
0100
1000
0010
,
0100
0100
0001
0010
0100
1000
0010
0100
,
0010
0001
0010
1000
0100
0010
0001
0100
,
0010
0010
1000
0100
0010
0001
0100
0010
,
0100
1000
0100
0001
0010
0100
1000
0010
,
0100
0000
0100
0000
0001
0000
0010
0000
0100
0000
0010
0000
0001
0100
0001
0100
,
0001
0100
0010
1000
0100
0001
0100
1000
,
0001
0000
0001
0000
1000
0000
0010
0000
0100
0000
0010
0000
1000
0100
1000
0100
,
1000
0100
0010
0001
0100
1000
0100
0001
,
1000
0000
1000
0000
0001
0000
0010
0000
0100
0000
1000
0000
0010
0100
0010
0100
,
0010
1000
0100
0010
0001
0100
0010
1000
,
0100
0000
0100
0000
1000
0000
0010
0000
0100
0000
0001
0000
0010
0100
0010
0100
,
0010
0001
0100
0010
1000
0100
0010
0001
,
0100
0100
0001
1000
0000
0001
1000
0000
,
0000
0000
0000
0000
0000
0000
0001
0100
,
0010
0100
1000
0100
0000
0100
0001
0000
,
0000
0000
0000
0000
,
0000
2001
0000
0000
,
0000
3002
0000
0000
,
0000
0023
0000
0230
,
0000
2300
0000
0002
,
3003
0000
0000
1000
0010
0100
0001
0000
0000
0001
0100
0010
,
1000
0000
0000
1000
0100
0010
0001
0000
0000
0001
0010
0100
,
1000
0001
1000
0001
0100
0010
1000
0000
0000
1000
0010
0100
,
0001
0000
0000
0001
0010
0100
1000
0000
0000
1000
0100
0010
,
0001
0000
1000
0000
0001
0000
1000
0000
0000
0010
0000
0000
0100
0000
0000
0010
0000
0000
1000
0000
0000
0000
0000
0000
,
1010
0000
1000
0100
0010
0100
1000
0010
,
0100
0001
0010
1000
0010
0001
0100
0000
,
0101
0000
0100
0010
0000
0100
0010
1000
,
0100
0010
0001
0100
0000
0100
0001
0010
,
0100
1000
0010
0100
0001
0010
1000
0010
,
0100
1000
0010
0001
0010
1000
0000
1000
,
0100
0010
0001
0100
0010
1000
0010
0100
,
0001
1000
0001
1000
0001
0000
0000
0000
1000
0001
1000
0001
1000
0000
0000
0000
,
1001
0000
0001
0100
0010
0100
0001
0010
,
0100
1000
0010
0001
0010
1000
0100
0000
,
1100
0000
1000
0010
0100
0001
0100
0010
,
1000
0001
1000
0001
1000
0000
0000
0000
0001
1000
0001
1000
0001
0000
0000
0000
,
1001
0000
1000
0100
0010
0100
1000
0010
,
0100
0001
0010
1000
0010
0001
0100
0000
,
0101
0000
0000
0000
1001
0000
1000
0100
1000
0000
0001
0000
1000
0100
1000
0000
,
1001
0000
0000
0000
1000
0010
1000
0000
0000
0000
0010
1000
0010
0000
0000
0000
,
1000
0100
0001
0000
1000
0010
0000
0010
,
0001
0000
1000
0010
0000
0100
0001
0000
,
1000
0100
0001
0100
0000
0100
1000
0000
,
0001
0000
1000
0000
0001
0100
0001
0000
0000
0000
0100
0001
0100
0000
0000
0000
,
0001
0100
1000
0000
0001
0010
0000
0010
,
1000
0000
0001
0010
0000
0100
1000
0000
,
0001
0000
0010
0000
0100
0000
1000
0001
1000
0000
0001
1000
0001
0000
1000
0001
,
1000
0000
0001
0000
1000
0001
1000
0000
0001
0000
1000
0001
1000
0000
0100
0000
,
0001
0100
1000
0000
0001
1000
0000
0001
,
1000
0000
0001
0000
1000
0010
0100
0000
0010
0000
1000
0100
0010
0000
0001
0000
,
1000
0000
1000
0000
0001
0100
0010
0000
0100
0000
0001
0010
0100
0000
1000
0000
,
0001
0000
0001
0000
1000
0010
1000
0000
0001
0000
0100
0010
0100
0000
0001
0000
,
0010
0100
1000
0000
0001
0100
0001
0000
1000
0000
0010
0100
0010
0000
1000
0000
,
0100
0010
0001
0000
1000
0000
1000
0000
0001
0000
0001
0000
1000
0001
1000
0001
,
1000
0001
1000
0001
1000
0000
0000
0000
0000
0000
0000
0000
0000
0000
0000
0000
;

//---------------dance-single - ----------------
#NOTES:
     dance-single:
     :
     Medium:
     7:
     0.576886,0.610004,0.097698,0.113981,0.158760,470.000000,12.000000,14.000000,0.000000,0.000000,0.000000,0.576886,0.610004,0.097698,0.113981,0.158760,470.000000,12.000000,14.000000,0.000000,0.000000,0.000000:
0000
0000
0000
0000
,
0000
0000
0000
0000
,
0000
0000
0000
0000
,
0000
0000
0000
0000
,
1001
0000
2010
0000
3100
0000
0100
1000
,
0010
0000
2010
0000
3001
0000
0001
1000
,
0001
0000
0102
0000
0013
0000
0010
0001
,
0100
0000
0102
0000
1003
0000
1000
0001
,
1000
0000
2100
0000
3001
0000
0001
0100
,
1000
0000
0120
0000
1030
0000
1000
0001
,
1000
0000
0102
0000
1003
0000
1000
0100
,
0001
0000
0120
0000
0031
0000
1000
0001
,
1000
0000
1000
0010
0100
0001
0000
0001
,
0100
0000
0010
0100
0010
0000
0100
0001
,
1000
0000
0001
0010
0100
1000
0000
1000
,
0010
0000
0100
0010
0100
0000
0010
1000
,
0001
0000
1000
0100
0001
0100
0000
0100
,
1000
0000
0001
0100
1000
0000
1000
0100
,
0001
0000
1000
0100
0001
0100
0000
0100
,
1000
0000
0001
0100
1000
0000
1000
0100
,
0001
0010
1000
0010
0001
0000
0000
0000
,
0000
0000
0000
0000
0000
0000
1000
0010
,
0100
0010
0001
0010
1000
0000
0000
0000
,
0000
0000
0000
0001
1000
0001
1000
0001
1000
0001
1000
0001
,
1000
0000
0001
0000
1000
0000
0001
0000
0000
0100
0000
0000
0010
0000
0000
1000
0000
0000
0010
0000
0000
0100
0000
0000
,
0001
0000
1000
0100
0001
0000
0001
0100
,
1000
0000
1000
0010
0100
0001
0100
0010
,
1000
0000
0001
0100
1000
0000
1000
0100
,
0001
0000
1000
0100
0010
0100
0001
0100
,
1000
0000
0001
0100
1000
0000
0001
0010
,
1000
0000
0001
0010
0100
0010
1000
0010
,
0001
0000
1000
0010
0001
0000
1000
0100
,
0001
0000
1000
0100
0010
0001
0100
0010
,
0100
0010
1000
0100
0010
0100
1000
1000
,
0001
1000
0001
0100
0010
1000
0100
0010
,
0100
0010
0001
0100
0010
0100
0001
0001
,
1000
0001
1000
0100
0010
0001
0100
0010
,
0001
0010
0100
0001
0010
0100
1000
1000
,
0001
1000
0001
0100
0010
1000
0100
0010
,
1000
0010
0100
1000
0010
0100
0001
0001
,
1000
0001
1000
0001
0000
0001
1000
0000
,
0000
0000
0000
0000
0000
0000
0001
0100
,
0010
0100
1000
0100
0000
0100
0001
0000
,
0000
0000
0000
0000
,
0000
2001
0000
0000
,
0000
3002
0000
0000
,
0000
0023
0000
0230
,
0000
2300
0000
0002
,
3003
0000
0000
0001
0010
0100
1000
0000
0000
1000
0100
0010
,
0001
0000
0000
0001
0100
0010
1000
0000
0000
1000
0010
0100
,
0001
1000
0001
1000
0100
0010
0001
0000
0000
0001
0010
0100
,
1000
0000
0000
1000
0010
0100
0001
0000
0000
0001
0100
0010
,
1000
0000
0001
0000
1000
0000
0001
0000
0000
0100
0000
0000
0010
0000
0000
0100
0000
0000
0001
0000
0000
0000
0000
0000
,
0101
0000
0001
0010
0100
0010
0001
0100
,
0010
1000
0100
0001
0100
1000
0010
0000
,
1010
0000
0010
0100
0000
0010
0100
0001
,
0010
0100
1000
0010
0000
0010
1000
0100
,
0010
0001
0100
0010
1000
0100
0001
0100
,
1000
0001
0100
1000
0100
0001
0000
0001
,
0010
0100
1000
0010
0100
0001
0100
0010
,
1000
0001
1000
0001
1000
0000
0000
0000
0001
1000
0001
1000
0001
0000
0000
0000
,
0000
0000
0000
0000
,
0000
0000
0000
0000
,
0000
0000
0000
0000
,
1000
0001
1000
0001
1000
0000
0000
0000
0001
1000
0001
1000
0001
0000
0000
0000
,
0000
0000
0000
0000
,
0000
0000
0000
0000
,
0000
0000
1000
0100
0010
0001
0010
0100
,
1000
0000
0001
0100
0000
0010
1000
0000
,
0001
0010
1000
0000
0001
0100
0000
0100
,
1000
0000
0001
0100
0000
0010
1000
0000
,
0001
0010
1000
0010
0000
0010
0001
0000
,
1000
0001
1000
0100
0000
0010
0001
0000
,
1000
0010
0001
0000
1000
0100
0000
0100
,
0001
0000
1000
0100
0000
0010
0001
0000
,
1000
0000
0010
0000
0100
0000
0001
1000
0001
0000
1000
0001
1000
0000
0001
1000
,
0001
1000
0001
0001
0100
0010
0010
1000
,
0100
1000
0010
0000
1000
0100
0000
0010
,
0001
0100
0100
0001
0010
0010
0100
0100
,
1000
0010
0010
1000
0100
0100
0010
0010
,
0001
0100
1000
0100
0100
0001
0010
0100
,
1000
0010
0001
0010
0010
1000
0100
0010
,
0001
1000
1000
0001
0001
1000
0001
1000
,
0001
1000
0001
0000
0000
0000
0000
0000
;

//---------------dance-single - ----------------
#NOTES:
     dance-single:
     :
     Easy:
     4:
     0.276812,0.338891,0.146548,0.081415,0.000000,210.000000,18.000000,10.000000,0.000000,0.000000,0.000000,0.276812,0.338891,0.146548,0.081415,0.000000,210.000000,18.000000,10.000000,0.000000,0.000000,0.000000:
// measure 0
0000
0000
0000
0000
,  // measure 1
0000
0000
0000
0000
,  // measure 2
0000
0000
0000
0000
,  // measure 3
0000
0000
0000
0000
,  // measure 4
1001
0001
0000
0000
,  // measure 5
0000
0001
0000
1000
,  // measure 6
0010
0100
0000
0000
,  // measure 7
0000
0001
0000
1000
,  // measure 8
0001
1000
0000
0000
,  // measure 9
0000
0001
0000
1000
,  // measure 10
0010
0100
0000
0000
,  // measure 11
0000
0001
0000
1000
,  // measure 12
0001
1000
0010
0100
,  // measure 13
0010
1000
0010
0100
,  // measure 14
0100
0001
0010
0100
,  // measure 15
0010
0001
0010
0100
,  // measure 16
0100
1000
0010
0100
,  // measure 17
0010
1000
0010
0100
,  // measure 18
0100
0001
0010
0100
,  // measure 19
0010
0001
0010
0100
,  // measure 20
0100
1000
0000
0000
,  // measure 21
0000
0000
0000
0000
,  // measure 22
0000
0001
0000
0000
,  // measure 23
0000
0000
0000
0000
,  // measure 24
0000
1000
0010
0100
,  // measure 25
0010
1000
0100
0010
,  // measure 26
0010
0001
0100
0010
,  // measure 27
0100
0001
0010
0100
,  // measure 28
0100
1000
0010
0100
,  // measure 29
0010
1000
0100
0010
,  // measure 30
0010
0001
0100
0010
,  // measure 31
0100
0001
0010
0100
,  // measure 32
0100
1000
0010
0100
,  // measure 33
0001
0000
1000
0000
0100
0000
0010
0100
,  // measure 34
0010
0001
0100
0010
,  // measure 35
1000
0000
0001
0000
0010
0000
0100
0010
,  // measure 36
0100
1000
0100
0010
,  // measure 37
0001
0000
1000
0000
0010
0000
0100
0010
,  // measure 38
0100
0001
0100
0010
,  // measure 39
1000
0000
0001
0000
0010
0000
0100
0010
,  // measure 40
0100
1000
0000
0000
,  // measure 41
0000
0000
0000
0000
,  // measure 42
0000
0001
0000
0000
,  // measure 43
0000
0000
0000
0000
,  // measure 44
0000
2001
0000
0000
,  // measure 45
0000
3002
0000
0000
,  // measure 46
0000
0023
0000
0230
,  // measure 47
0000
2300
0000
0002
,  // measure 48
3003
1002
0000
0000
,  // measure 49
0000
0000
0000
0000
,  // measure 50
0000
2000
0000
0000
,  // measure 51
0000
0000
0000
0000
,  // measure 52
3003
1001
0000
0000
,  // measure 53
0000
0011
0000
0000
,  // measure 54
0000
0101
0000
0000
,  // measure 55
0000
1010
0000
0000
,  // measure 56
0000
1100
1000
0010
,  // measure 57
0100
0001
0010
0100
,  // measure 58
1000
0010
0100
0001
,  // measure 59
0010
0100
1000
0010
,  // measure 60
0100
0002
0000
0000
,  // measure 61
0000
0000
0000
0000
,  // measure 62
0000
0000
0000
0000
,  // measure 63
0000
0000
0000
0000
,  // measure 64
0000
2003
0000
0000
,  // measure 65
0000
0000
0000
0000
,  // measure 66
0000
0000
0000
0000
,  // measure 67
0000
3001
0001
0001
,  // measure 68
0001
1000
0100
0010
,  // measure 69
0001
0010
0100
1000
,  // measure 70
1001
0001
0010
0100
,  // measure 71
1000
0100
0010
0001
,  // measure 72
1001
1001
0000
1010
,  // measure 73
0000
0101
0000
0011
,  // measure 74
0000
1100
0000
1001
,  // measure 75
0000
1000
0010
0100
,  // measure 76
0001
1000
0100
0001
,  // measure 77
0100
1000
0010
0001
,  // measure 78
0010
1000
0100
0010
,  // measure 79
0001
0100
1000
0100
,  // measure 80
0001
0010
1000
0010
,  // measure 81
0001
0100
0010
1000
,  // measure 82
0001
0010
0100
1000
,  // measure 83
1001
1001
0000
0000
;

//---------------dance-single - ----------------
#NOTES:
     dance-single:
     :
     Beginner:
     2:
     0.157015,0.271113,0.154689,0.065132,0.000000,108.000000,19.000000,8.000000,0.000000,0.000000,0.000000,0.157015,0.271113,0.154689,0.065132,0.000000,108.000000,19.000000,8.000000,0.000000,0.000000,0.000000:
0000
0000
0000
0000
,
0000
0000
0000
0000
,
0000
0000
0000
0000
,
0000
0000
0000
0000
,
1001
0001
0000
0000
,
0000
0000
0000
0000
,
0000
0001
0000
0000
,
0000
0000
0000
0000
,
0000
1000
0000
0000
,
0000
0000
0000
0000
,
0000
1000
0000
0000
,
0000
0000
0000
0000
,
0000
1001
0000
0000
,
0000
0001
0000
0000
,
0000
0100
0000
0000
,
0000
0010
0000
0000
,
0000
1000
0000
0000
,
0000
0100
0000
0000
,
0000
0010
0000
0000
,
0000
0001
0000
0000
,
0000
1001
0000
0000
,
0000
0000
0000
0000
,
0000
1001
0000
0000
,
0000
0000
0000
0000
,
0000
1001
0000
0000
,
0000
0001
0000
0001
,
0001
0001
0000
0000
,
0000
1000
0000
1000
,
1000
1000
0000
0000
,
0000
0001
0000
0001
,
0001
0001
0000
0000
,
0000
1000
0000
1000
,
1000
1000
0000
0100
,
0000
0010
0000
0001
,
0000
1000
0000
0010
,
0000
0100
0000
0001
,
0000
1000
0000
0100
,
0000
0010
0000
0001
,
0000
1000
0000
0010
,
0000
0100
0000
0001
,
0000
1001
0000
0000
,
0000
0000
0000
0000
,
0000
1001
0000
0000
,
0000
0000
0000
0000
,
0000
2001
0000
0000
,
0000
3002
0000
0000
,
0000
0023
0000
0230
,
0000
2300
0000
0002
,
3003
2001
0000
0000
,
0000
0000
0000
0000
,
0000
0002
0000
0000
,
0000
0000
0000
3003
,
0000
0011
0000
0000
,
0000
0101
0000
0000
,
0000
1010
0000
0000
,
0000
1100
0000
0000
,
0000
0110
0000
0000
,
0000
1001
0000
0000
,
0000
0110
0000
0000
,
0000
1001
0000
0000
,
0000
1001
0000
0000
,
0000
0000
0000
0000
,
0000
0000
0000
0000
,
0000
0000
0000
0000
,
0000
1001
0000
0000
,
0000
0000
0000
0000
,
0000
0000
0000
0000
,
0000
1000
1000
1000
,
1000
0001
0000
0100
,
0000
0010
0000
1000
,
0000
0001
0000
0010
,
0000
0100
0000
1000
,
1000
1000
0000
0010
,
0000
0100
0000
0001
,
0000
1000
0000
0100
,
0000
0010
0000
0001
,
0001
0001
0010
0100
,
0000
1000
0010
0100
,
0000
0001
0010
0100
,
0000
1000
0010
0100
,
0000
0001
0000
0010
,
0000
0100
0000
1000
,
0000
0010
0000
0100
,
0000
0001
0000
0000
;
