#TITLE:The Way You Make Me Feel;
#SUBTITLE:;
#ARTIST:Michael Jackson;
#TITLETRANSLIT:;
#SUBTITLETRANSLIT:;
#ARTISTTRANSLIT:;
#GENRE:;
#CREDIT:;
#BANNER:The_Way_You_Make_Me_Feel-bn.jpg;
#BACKGROUND:The_Way_You_Make_Me_Feel-bg.jpg;
#LYRICSPATH:;
#CDTITLE:;
#MUSIC:02 The Way You Make Me Feel.mp3;
#OFFSET:0.000000;
#SAMPLESTART:100.419853;
#SAMPLELENGTH:12.000000;
#SELECTABLE:YES;
#BPMS:0.000000=115.000000
;
#STOPS:141.333328=0.174000
;
#BGCHANGES:;
#KEYSOUNDS:;
#ATTACKS:;

//---------------dance-single - ----------------
#NOTES:
     dance-single:
     :
     Hard:
     9:
     0.510190,0.484538,0.006688,0.147134,1.000000,511.000000,1.000000,22.000000,0.000000,0.000000,0.000000,0.510190,0.484538,0.006688,0.147134,1.000000,511.000000,1.000000,22.000000,0.000000,0.000000,0.000000:
// measure 0
0000
0000
0000
0000
,  // measure 1
0000
0000
0000
0000
,  // measure 2
0000
0000
0000
0000
,  // measure 3
0000
0000
0000
0000
,  // measure 4
0000
0000
1000
0001
0010
0100
1000
0000
1000
0010
0100
0001
,  // measure 5
0010
0000
0010
0001
0000
0010
0001
0000
1000
0100
0000
1000
,  // measure 6
0100
0000
0001
0010
0100
1000
0001
0000
1000
0100
0010
0001
,  // measure 7
1000
0000
0010
1000
0000
0010
1000
0000
0001
0100
0000
0001
,  // measure 8
0100
0000
0010
1000
0010
1000
0010
0000
1000
0001
1000
0001
,  // measure 9
1000
0000
0001
1000
0000
1000
0001
0000
0001
0100
0000
0100
,  // measure 10
0010
0000
0010
1000
0000
1000
0100
0000
0100
0010
0000
0010
,  // measure 11
0001
0000
0001
0010
0000
0010
0001
0000
0010
1000
0100
0010
,  // measure 12
0001
1000
0000
0001
0010
0000
0010
0001
0000
0001
0100
0000
,  // measure 13
0100
0010
0000
0010
1000
0000
1000
0100
0000
0001
0010
0100
,  // measure 14
1000
0001
0000
1000
0100
0000
0100
0010
0000
0010
0001
0000
,  // measure 15
0001
0100
0000
0100
0010
0000
0010
1000
0000
1000
0100
0010
,  // measure 16
0001
1000
0000
0001
1000
0000
1000
0001
0000
0001
0010
0000
,  // measure 17
0010
0100
0000
0100
0010
0000
0010
0001
0000
1000
0100
0010
,  // measure 18
0001
1000
0000
0010
1000
0000
1000
0010
0000
0010
0100
0000
,  // measure 19
0100
0010
0000
0010
1000
0000
1000
0100
0000
0100
0010
0001
,  // measure 20
0100
0010
0000
1000
0001
0000
1000
0001
0000
0100
0010
0000
,  // measure 21
0100
0020
0000
0000
1000
0000
1030
0000
0000
1000
0010
0000
,  // measure 22
0010
1000
0000
0001
1000
0000
0001
1000
0000
0010
0100
0000
,  // measure 23
0010
0200
0000
0000
0001
0000
0002
0000
0000
0000
0000
0000
,  // measure 24
0303
0000
0000
1000
0010
0000
0010
1000
0000
1000
0100
0000
,  // measure 25
0100
1000
0000
1000
0001
0000
0001
1000
0000
1000
0100
0010
,  // measure 26
0001
1000
0000
0010
0100
0000
0100
0010
0000
0010
1000
0000
,  // measure 27
1000
0000
0002
0000
0000
0000
0000
0000
0000
2000
0000
0000
0000
0000
0000
0000
0000
0000
0000
0000
0000
0000
3003
0000
,  // measure 28
0000
1000
0100
0010
0001
1000
0010
0100
0000
0100
0010
0000
,  // measure 29
0010
0100
0000
0100
0010
1000
0100
0010
0001
0000
0001
0100
,  // measure 30
0000
0010
1000
0000
1000
0100
0010
0001
0100
0010
1000
0100
,  // measure 31
0000
0010
0001
0000
1000
0100
0000
0010
0001
0000
1000
0100
,  // measure 32
0000
0010
0001
0000
0001
0100
0010
0100
0001
0010
0100
1000
,  // measure 33
0000
1000
0010
0000
0010
0100
0000
0100
0010
0000
0010
1000
,  // measure 34
0000
1000
0001
0000
0001
0010
0100
1000
0010
1000
0100
0010
,  // measure 35
0002
0000
2000
0000
0000
3003
0000
0000
1000
0100
0010
0001
,  // measure 36
1000
0000
0000
0001
1000
0000
0001
2000
0000
0000
3100
0000
,  // measure 37
0010
0000
0000
0001
1000
0000
0001
2000
0000
0000
3010
0000
,  // measure 38
0100
0000
0000
0001
1000
0000
0001
2000
0000
0000
3100
0000
,  // measure 39
0010
0000
0000
0001
1000
0000
0001
2000
0000
0000
3010
0000
,  // measure 40
0100
0000
0000
1000
0001
0000
1000
0002
0000
0000
0013
0000
,  // measure 41
0100
0000
0000
1000
0001
0000
1000
0002
0000
0000
0103
0000
,  // measure 42
0010
0000
0000
1000
0001
0000
1000
0002
0000
0000
0013
0000
,  // measure 43
0100
0000
0000
1000
0001
0000
0001
1000
0000
1000
0100
0010
,  // measure 44
0001
0100
0000
0001
1000
0000
0001
1000
0000
0010
0100
0000
,  // measure 45
0010
0200
0000
0000
0001
0000
0301
0000
0000
0001
0100
0000
,  // measure 46
0100
0001
0000
1000
0001
0000
1000
0001
0000
0100
0010
0000
,  // measure 47
0100
0020
0000
0000
1000
0000
2000
0000
0000
0000
0000
0000
,  // measure 48
3030
0000
0000
0000
0000
0000
0000
0000
0000
0010
0000
0000
0000
0000
1000
0000
0002
0000
0000
0000
0000
0010
0003
0000
,  // measure 49
0000
0000
0001
0000
2000
0000
0000
0000
0000
0010
3000
0000
0000
0000
1000
0000
0001
0000
0000
0000
1000
0000
0100
0000
,  // measure 50
0010
0001
0100
0000
0000
0010
0000
0000
0010
0000
1000
0001
,  // measure 51
1000
0000
2002
0000
0000
0000
3003
0000
0000
1000
0010
0100
,  // measure 52
0001
0010
0000
0010
0001
0100
0010
1000
0100
0000
0100
0010
,  // measure 53
0000
0010
0001
0000
0001
0010
0100
1000
0010
0000
0100
0010
,  // measure 54
0000
0010
1000
0000
1000
0100
0010
0001
0100
0000
0010
1000
,  // measure 55
0000
1000
0100
0000
0100
0010
0000
0010
0001
0000
0001
0100
,  // measure 56
0001
0010
0100
0000
0100
1000
0010
0100
0010
0000
0010
1000
,  // measure 57
0000
1000
0100
0000
0100
0010
0001
0100
0010
0000
0010
1000
,  // measure 58
0000
1000
0010
0000
0010
0100
0001
0010
0100
0000
1000
0001
,  // measure 59
0000
0001
1000
0000
1000
0010
0000
0010
1000
0000
1000
0001
,  // measure 60
0000
0001
1000
0000
0001
0100
0010
0100
0001
0000
0001
0010
,  // measure 61
0000
0010
0100
0000
0100
1000
0000
1000
0010
0000
1000
0010
,  // measure 62
0100
0001
0010
0000
0100
1000
0010
0100
0001
0010
0100
1000
,  // measure 63
0010
0000
0010
1000
0000
0001
0100
0000
0010
1000
0000
0001
,  // measure 64
0100
0000
0010
1000
0000
1000
0100
0010
0001
0100
0010
0001
,  // measure 65
0010
1000
0100
0010
0000
0010
0001
0000
0001
0100
0000
0010
,  // measure 66
1000
0000
1000
0100
0010
0001
0100
0010
1000
0100
0010
0001
,  // measure 67
0010
0001
0100
0010
0000
0010
1000
0000
1000
0001
1000
0001
,  // measure 68
1000
0001
0200
0000
0000
0000
0000
0000
0000
0000
0000
0000
,  // measure 69
0300
0000
0000
0000
;

//---------------dance-single - ----------------
#NOTES:
     dance-single:
     :
     Medium:
     6:
     0.232165,0.250127,0.006688,0.026752,0.103662,238.000000,1.000000,4.000000,0.000000,0.000000,0.000000,0.232165,0.250127,0.006688,0.026752,0.103662,238.000000,1.000000,4.000000,0.000000,0.000000,0.000000:
0000
0000
0000
0000
,
0000
0000
0000
0000
,
0000
0000
0000
0000
,
0000
0000
0000
0000
,
0000
1000
0001
0100
,
0100
1000
1000
0010
,
0010
0000
0000
0100
0000
0001
1000
0000
0000
0010
0000
0000
,
0001
0001
0001
0010
,
0010
0000
0000
0001
0000
0000
0100
0000
0001
1000
0000
0000
,
0001
0001
1000
0010
,
0100
0000
0000
0001
0000
0000
0010
0000
0000
0100
0000
0001
,
1000
0100
1000
0001
,
1000
0000
0000
1000
0000
0000
0100
0000
0000
1000
0000
0001
,
0010
0100
0001
1000
,
0001
0000
0000
0001
0000
0000
0010
0000
0000
0100
0000
0010
,
1000
0010
0100
0001
,
1000
0000
0000
1000
0000
0000
0001
0000
0000
1000
0000
0010
,
0100
0010
0100
0001
,
1000
0000
0000
0100
0000
0000
0001
0000
0000
0100
0000
1000
,
0010
0100
0001
0010
,
0010
0000
0000
0001
0000
0000
0001
0000
0000
0010
0000
0100
,
0010
0000
0000
0000
0000
0000
0001
0000
0000
0001
0000
0010
,
0100
0000
0000
1000
0000
0000
1000
0000
0000
0100
0000
0010
,
0100
0000
2000
0000
,
3000
0001
0100
0001
,
0010
0000
0000
0001
0000
0000
1000
0000
0000
0001
0000
0010
,
1000
0000
0000
0100
0000
0000
0010
0000
0000
0100
0000
1000
,
0001
0000
0000
0000
,
0000
0100
0100
0010
,
0100
0000
0000
0010
0000
0000
0010
0000
0000
0000
0000
1000
,
0001
0000
0100
0100
,
0000
0000
0001
1000
0000
0000
0000
0000
0000
0010
0100
0000
,
0000
0000
0010
0010
,
0000
0000
0000
0000
0000
1000
0001
0000
0000
0000
0000
0000
,
0000
0000
0000
0000
0000
0000
0010
0000
1000
0001
0000
0000
,
2000
0000
0000
0000
0000
3000
0000
0000
0000
0010
0000
0000
,
0001
1000
1000
0000
,
0100
0000
0000
1000
0000
0000
1000
0000
0000
0000
0000
1000
,
0010
0000
0000
1000
0000
0000
1000
0000
0000
0000
0000
0001
,
0100
0000
0000
1000
0000
0000
1000
0000
0000
0000
0000
0100
,
0010
0001
0001
0000
,
0010
0001
0001
0000
,
0100
0000
0000
0001
0000
0000
0001
0000
0000
0000
0000
0001
,
0010
0000
0000
0001
0000
0000
1000
0000
0000
0001
0000
0010
,
1000
0001
0010
0001
,
1000
0000
0000
0010
0000
0000
0100
0000
1000
0001
0000
0000
,
1000
0010
0100
0001
,
0010
0000
0000
0100
0000
0000
2002
0000
3003
1000
0000
0000
,
0100
0000
0000
0010
0000
0000
0100
0000
0000
0001
0000
0001
,
1000
0000
0000
0100
0000
0000
1000
0000
0100
0001
0000
0000
,
1000
0000
0000
0100
0000
0000
1000
0000
0000
0100
0000
1000
,
0010
0000
0000
0001
,
1000
0000
0000
0100
0000
0000
0100
0000
0000
0000
0000
0001
,
1000
0000
0000
0000
0000
0000
0010
0000
0000
0000
0000
0100
,
0010
0000
0000
0000
0000
0000
0100
0000
0000
0000
0000
0001
,
1000
0000
0000
0000
,
1000
0000
0000
0000
0000
0000
0100
0000
0000
0000
0000
0001
,
1000
0000
0000
0000
0000
0000
1000
0000
0000
0000
0000
1000
,
0001
0000
1000
0000
,
1000
0000
0010
0000
,
0100
0000
0100
0000
,
0001
1000
0010
0010
,
0010
0000
0100
0100
,
0100
0001
0010
0001
,
0010
0001
0010
0010
,
0100
0100
1000
0010
,
0001
0010
0010
0010
,
0100
0100
0001
1000
,
0001
0000
0000
0000
;

//---------------dance-single - ----------------
#NOTES:
     dance-single:
     :
     Easy:
     4:
     0.202548,0.250127,0.006688,0.026752,0.000000,207.000000,1.000000,4.000000,0.000000,0.000000,0.000000,0.202548,0.250127,0.006688,0.026752,0.000000,207.000000,1.000000,4.000000,0.000000,0.000000,0.000000:
0000
0000
0000
0000
,
0000
0000
0000
0000
,
0000
0000
0000
0000
,
0000
0000
0000
0000
,
0000
1000
0001
0100
,
0100
1000
1000
0010
,
0010
0100
1000
0010
,
0001
0001
0001
0010
,
0010
0001
0100
1000
,
0001
0001
1000
0010
,
0100
0001
0010
0100
,
1000
0100
1000
0001
,
1000
1000
0100
1000
,
0010
0100
0001
1000
,
0001
0001
0010
0100
,
1000
0010
0100
0001
,
1000
1000
0001
1000
,
0100
0010
0100
0001
,
1000
0100
0001
0100
,
0010
0100
0001
0010
,
0010
0001
0001
0010
,
0010
0000
0001
0001
,
0100
1000
1000
0100
,
0100
0000
2000
0000
,
3000
0001
0100
0001
,
0010
0001
1000
0001
,
1000
0100
0010
0100
,
0001
0000
0000
0000
,
0000
0100
0100
0010
,
0100
0010
0010
0000
,
0001
0000
0100
0100
,
0000
1000
0000
0010
,
0000
0000
0010
0010
,
0000
0000
0001
0000
,
0000
0000
0010
0001
,
2000
0000
0000
0000
0000
3000
0000
0000
0000
0010
0000
0000
,
0001
1000
1000
0000
,
0100
1000
1000
0000
,
0010
1000
1000
0000
,
0100
1000
1000
0000
,
0010
0001
0001
0000
,
0010
0001
0001
0000
,
0100
0001
0001
0000
,
0010
0001
1000
0001
,
1000
0001
0010
0001
,
1000
0010
0100
0001
,
1000
0010
0100
0001
,
0010
0000
0000
0100
0000
0000
2002
0000
3003
1000
0000
0000
,
0100
0010
0100
0001
,
1000
0100
1000
0001
,
1000
0100
1000
0100
,
0010
0000
0000
0001
,
1000
0100
0100
0000
,
1000
0000
0010
0000
,
0010
0000
0100
0000
,
1000
0000
0000
0000
,
1000
0000
0100
0000
,
1000
0000
1000
0000
,
0001
0000
1000
0000
,
1000
0000
0010
0000
,
0100
0000
0100
0000
,
0001
1000
0010
0010
,
0010
0000
0100
0100
,
0100
0001
0010
0001
,
0010
0001
0010
0010
,
0100
0100
1000
0010
,
0001
0010
0010
0010
,
0100
0100
0001
1000
,
0001
0000
0000
0000
;
