#TITLE:SAVIOR SWING;
#SUBTITLE:;
#ARTIST:KC-roomin' feat. Salita;
#TITLETRANSLIT:;
#SUBTITLETRANSLIT:;
#ARTISTTRANSLIT:;
#GENRE:;
#CREDIT:brunobg24;
#MENUCOLOR:;
#METERTYPE:DDR;
#BANNER:[12ths Week] - SAVIOR SWING.png;
#BACKGROUND:[12ths Week] - SAVIOR SWING-bg.png;
#LYRICSPATH:;
#CDTITLE:;
#MUSIC:[12ths Week] - SAVIOR SWING.mp3;
#OFFSET:-0.020;
#SAMPLESTART:44.117;
#SAMPLELENGTH:14.357;
#SELECTABLE:YES;
#LISTSORT:;
#DISPLAYBPM:200.000;
#BPMS:0.000=200.040,146.000=217.500,147.000=200.040;
#STOPS:;
#BGCHANGES:;
#ATTACKS:;

//---------------dance-single - ----------------
#NOTES:
     dance-single:
     :
     Hard:
     9:
     0.666,1.000,0.667,0.246,0.626: // measure 1
0000
0000
0000
0012
,  // measure 2
0000
0000
1003
0100
0000
0100
0010
0000
0000
0011
0000
0000
,  // measure 3
1001
0000
0000
0210
0000
0000
0000
0000
0310
0000
0000
0010
,  // measure 4
1000
1100
0101
1020
,  // measure 5
0000
0000
1030
0000
0000
1000
0001
0000
0000
0100
0000
0000
,  // measure 6
1010
1002
0000
1003
,  // measure 7
0010
0100
0101
1002
,  // measure 8
0000
0000
1003
0010
0000
0010
0100
0000
0000
0110
0000
0000
,  // measure 9
0101
0000
0000
0021
0000
0000
0000
0000
0130
0000
0000
0100
,  // measure 10
1000
1100
1001
0101
,  // measure 11
0000
0000
0101
0000
0000
0001
1000
0000
0000
0100
0000
0000
,  // measure 12
0010
0002
0000
0000
,  // measure 13
0203
0000
0301
1000
,  // measure 14
0000
1000
0010
0000
,  // measure 15
0010
0100
0001
0010
,  // measure 16
1000
0000
0010
0001
,  // measure 17
0000
0001
1000
0000
,  // measure 18
1000
0100
0001
0100
,  // measure 19
1000
0000
1000
1001
,  // measure 20
0001
0010
0100
0000
,  // measure 21
1000
1100
0100
0010
,  // measure 22
0001
0000
0001
0101
,  // measure 23
0100
0010
1000
0000
,  // measure 24
0010
1010
1000
0001
,  // measure 25
1000
0100
1000
0001
1000
0001
1000
0010
1000
0001
0000
0010
,  // measure 26
0000
0000
0100
1000
0000
0000
0010
0000
0000
0110
0000
0000
,  // measure 27
0101
0000
0000
0001
0000
1000
0000
0000
0001
0100
0000
0000
,  // measure 28
0010
0000
0000
1010
0000
0000
1001
0000
0000
1000
0000
0100
,  // measure 29
0000
0000
1000
0001
0000
0000
0001
0000
0100
0000
0000
0010
,  // measure 30
1000
0100
0001
0100
,  // measure 31
1100
0000
0000
1000
0000
0000
0100
0000
0000
0010
0000
0001
,  // measure 32
0000
0000
0001
1000
0000
0000
0010
0000
0000
0110
0000
0000
,  // measure 33
1010
0000
0000
0100
0000
1000
0000
0000
1000
0001
0000
0000
,  // measure 34
0100
0000
0000
1010
0000
0000
1001
0000
0000
1000
0000
0100
,  // measure 35
0000
0000
0010
0001
0000
0000
1000
0000
0001
0000
0000
0100
,  // measure 36
0001
0100
1000
0100
,  // measure 37
0101
0000
0000
0001
1000
0001
1000
0000
0000
2010
0000
0000
,  // measure 38
0000
0000
3100
0010
0000
0010
1000
0000
0000
0010
0000
0000
,  // measure 39
0001
0000
0000
0201
0000
0000
0000
0000
0310
0000
0000
0010
,  // measure 40
1000
0001
0100
1002
,  // measure 41
0000
0000
0103
0000
0000
0100
0010
0000
0000
1000
0000
0000
,  // measure 42
1100
0000
0000
1001
0000
0000
0000
0000
0001
0100
0000
0000
,  // measure 43
0110
1010
1100
2001
,  // measure 44
0000
3000
0010
0001
0000
0010
1000
0000
0000
0001
0000
0000
,  // measure 45
0100
0000
0000
0120
0000
0000
0000
0000
1030
0000
0000
1000
,  // measure 46
0001
0010
0100
1010
,  // measure 47
0000
0000
1010
0000
0000
0001
0100
0000
0000
0010
0000
0000
,  // measure 48
0110
0000
0000
1001
0000
0000
1000
0100
0010
0001
0000
0000
,  // measure 49
1100
0110
0011
0101
,  // measure 50
0000
0001
1000
0000
,  // measure 51
1000
0100
0000
0100
,  // measure 52
0010
0001
1000
0010
,  // measure 53
0000
0000
0000
0010
0000
0000
0100
0000
0000
0000
0000
0100
,  // measure 54
0000
0001
0000
1000
,  // measure 55
0001
0000
1000
0010
1000
0001
1000
0100
1000
0001
0000
0010
,  // measure 56
0000
0000
0001
1000
0000
0000
0010
0000
0010
0100
0000
0100
,  // measure 57
0001
0000
0001
1000
0000
0100
0000
0000
0100
0010
0000
0000
,  // measure 58
0011
1001
0001
1000
,  // measure 59
0100
0001
1000
0001
,  // measure 60
0100
1100
0000
1000
,  // measure 61
0101
0011
1001
0002
,  // measure 62
0000
0000
0000
1003
0100
1000
0001
1000
0001
1000
0010
1000
,  // measure 63
0200
0000
0000
0000
0000
0000
0000
0000
0000
0310
0000
0001
,  // measure 64
0000
0000
0001
2000
0000
0000
0000
0000
0000
0000
0000
0000
,  // measure 65
3020
0000
0000
0000
0000
0000
1030
0000
0001
0100
0001
0100
,  // measure 66
0010
1000
0010
1000
0000
1000
0001
0000
0000
0200
0000
0000
,  // measure 67
0000
0000
0000
0000
0000
0000
0301
0000
0010
0000
0000
0010
,  // measure 68
0100
2100
0000
3001
,  // measure 69
0101
1020
0000
0000
,  // measure 70
1030
0100
1000
0001
1000
0001
0100
0010
0100
0010
0100
0010
,  // measure 71
0100
0010
0100
0001
0010
0001
0010
0001
0010
0001
1000
0001
,  // measure 72
1000
0001
1000
0001
1000
0001
1000
0100
1000
0100
1000
0100
,  // measure 73
2000
0000
3001
0101
,  // measure 74
0110
1002
0000
1003
,  // measure 75
0110
0011
0201
0000
,  // measure 76
0000
0000
0000
0310
0000
0000
0000
0000
0000
1000
0100
1000
,  // measure 77
0100
0000
1000
0001
0000
0100
0001
0010
0001
0010
0000
0100
,  // measure 78
1000
0000
0010
1000
0001
1000
0001
0000
0010
0001
0000
1000
,  // measure 79
0001
0100
0001
1000
0010
1000
0001
0100
0001
0200
0000
0000
,  // measure 80
0000
0000
0000
0000
,  // measure 81
0000
0000
0000
0000
0300
0000
0000
0000
0000
0000
0000
0000
;

//---------------dance-single - ----------------
#NOTES:
     dance-single:
     :
     Medium:
     7:
     0.513,0.701,0.277,0.277,0.210:
0000
0000
0000
2000
,
0000
0000
0000
3001
0000
0001
0100
0000
0000
0010
0000
0000
,
0110
0000
0000
0002
0000
0000
0000
0000
1003
0000
0000
1000
,
0010
0100
0101
0200
,
0000
0000
0301
0000
0000
0001
0010
0000
0000
0100
0000
0000
,
1000
1002
0000
0103
,
0020
0000
0030
0200
,
0000
0000
0000
0310
0000
0010
1000
0000
0000
0001
0000
0000
,
1001
0000
0000
0020
0000
0000
0000
0000
0130
0000
0000
0100
,
0001
1000
1010
1000
,
0000
0000
1001
0000
0000
0000
0001
0000
0000
0010
0000
0000
,
1000
0020
0000
0000
,
0031
0000
1000
0010
,
0000
0010
0100
0000
,
0100
0001
0010
0100
,
1000
0000
0001
1000
,
0000
1000
0010
0000
,
0010
0100
0001
0010
,
0100
0000
1000
0100
,
0010
0001
0100
0000
,
0010
1000
0001
1000
,
0100
0000
1000
0100
,
0010
0100
1000
0000
,
0001
1000
0010
0100
,
0001
0000
0000
0001
0000
0000
1000
0000
0001
1000
0000
0100
,
0000
0100
0010
0001
,
1000
0000
0000
0001
0000
0100
0000
0000
0000
0100
0000
0000
,
1000
0000
0000
0100
0000
0000
0001
0000
0000
1000
0000
0010
,
0000
0000
0000
0010
0000
0000
0100
0000
0001
0000
0000
0000
,
0001
0010
0100
1000
,
1010
0000
0000
0110
0000
0000
0101
0000
0000
1000
0000
0010
,
0000
0010
0100
0001
,
0010
0000
0000
0100
0000
1000
0000
0000
0000
1000
0000
0000
,
0001
0000
0000
0100
0000
0000
0010
0000
0000
0100
0000
0001
,
0000
0000
0000
0001
0000
0000
1000
0000
0100
0000
0000
0000
,
0100
1000
0100
0010
,
1001
0000
0000
0100
0000
0100
0010
0000
0000
2000
0000
0000
,
0000
0000
0000
3100
0000
0100
0010
0000
0000
0001
0000
0000
,
0110
0000
0000
0020
0000
0000
0000
0000
1030
0000
0000
1000
,
0001
0010
0011
0200
,
0000
0000
0301
0000
0000
0001
1000
0000
0000
0010
0000
0000
,
0100
0102
0000
1003
,
0020
0000
0130
0002
,
0000
0000
0000
1003
0000
1000
0100
0000
0000
0010
0000
0000
,
0101
0000
0000
2000
0000
0000
0000
0000
3001
0000
0000
0001
,
0100
0010
1001
0010
,
0000
0000
1010
0000
0000
0000
1000
0000
0000
0100
0000
0000
,
0001
0200
0000
1300
,
0011
1001
1100
1010
,
0000
0010
1000
0000
,
1000
0001
0000
0001
,
0010
0100
1000
0001
,
0000
0001
1000
0000
,
1000
0010
0000
0010
,
0100
0000
0000
0001
0000
0000
1000
0000
0000
0010
0000
0100
,
0000
0100
0001
1000
,
0010
0000
0000
0100
0000
0001
0000
0000
0000
0001
0000
0000
,
0010
0100
1000
0100
,
0010
0001
1000
0001
,
0100
0110
0000
0000
,
1001
0001
1000
0020
,
0000
0000
1030
0000
0001
0100
0010
0100
,
0002
0000
0000
1003
,
0000
0000
0100
0020
0000
0000
0000
0000
0000
0000
0000
0000
,
0230
0000
0000
0000
1300
0000
0001
0010
,
0100
0010
0001
0000
1000
0000
0200
0000
,
0000
0000
0000
0000
0000
0000
1300
0000
0000
0000
0000
0001
,
0100
0020
0000
1030
,
1001
0002
0000
0000
,
1003
0010
0100
0010
1000
0001
1000
0001
,
1000
0001
0100
0010
0100
0010
1000
0100
,
1000
0100
1000
0100
0010
0001
0010
0001
,
0020
0000
0031
1001
,
1100
2000
0000
3001
,
0101
0110
0020
0000
,
0000
0000
0000
1030
0000
0000
0000
0000
0000
1000
0000
1000
,
0001
0000
0001
0100
0000
0000
0010
0000
0010
0100
0000
0100
,
0001
0000
0000
1000
0000
1000
0010
0000
0010
0100
0000
0000
,
0001
0000
0001
1000
0000
1000
0010
0000
0010
0200
0000
0000
,
0000
0000
0000
0000
,
0000
0000
0000
0000
0300
0000
0000
0000
0000
0000
0000
0000
;

//---------------dance-single - ----------------
#NOTES:
     dance-single:
     :
     Easy:
     3:
     0.330,0.371,0.082,0.318,0.000:
0000
0000
0000
2000
,
0000
3001
0100
0100
,
0100
0002
0000
1003
,
0010
0010
0010
2000
,
0000
3001
1000
1000
,
1000
0020
0000
0000
,
0000
0000
0030
2000
,
0000
3001
0100
0100
,
0100
0002
0000
1003
,
0010
0010
0010
0100
,
0000
0100
0001
0001
,
0001
2000
0000
0000
,
3010
0000
0000
1000
,
0000
0000
0001
0000
,
0000
0100
0000
0000
,
0010
0000
0000
0100
,
0000
0000
0010
0000
,
0000
1000
0000
0000
,
0001
0000
0000
1000
,
0000
0000
0100
0000
,
0000
0010
0000
0000
,
0001
0000
0000
1000
,
0000
0000
0010
0000
,
0000
0100
0000
0000
,
0001
0001
1000
1001
,
0000
1000
0001
0000
,
0001
1000
1000
1000
,
0010
0000
0010
0100
,
0000
0100
0001
0000
,
0001
0010
0010
0010
,
0100
0000
1000
0010
,
0000
0010
0100
0000
,
0100
0001
0001
0001
,
1000
0000
0010
0100
,
0000
0100
0001
0000
,
0001
1000
1000
1000
,
0020
0000
0030
2000
,
0000
3001
0100
0100
,
0100
0002
0000
1003
,
0010
0010
0010
0200
,
0000
0301
1000
1000
,
1000
0200
0000
0000
,
0000
0000
0300
0020
,
0000
0031
1000
1000
,
1000
0200
0000
1300
,
0001
0001
0001
0100
,
0000
0100
0010
0010
,
0010
2000
0000
0000
,
3001
0000
0000
1001
,
0000
0000
0010
0000
,
0000
0100
0000
0000
,
0010
0000
0000
1000
,
0000
0000
0001
0000
,
0000
1000
0000
0000
,
0001
0001
1000
1001
,
0000
1000
0001
1000
,
0001
1000
0000
0010
,
0100
0010
0000
1000
,
1000
0001
0001
0000
,
1000
0010
0000
0010
,
0100
0000
0000
0002
,
0000
0003
1000
1000
,
0020
0000
0000
0130
,
0000
0002
0000
0000
,
2003
0000
3001
1000
,
0001
1000
0010
0200
,
0000
0000
0301
0000
,
0010
0020
0000
0130
,
0100
2000
0000
0000
,
3001
1000
0002
0000
,
0000
0203
0000
0320
,
0000
0000
2030
0000
,
3002
0000
1003
1000
,
0010
0020
0000
1030
,
1000
0100
0200
0000
,
0000
0310
0000
1001
,
0000
0000
0110
0000
,
0000
1001
0000
0000
,
0110
0000
0000
2002
,
0000
0000
0000
0000
,
0000
0000
0000
0000
3003
0000
0000
0000
0000
0000
0000
0000
;

//---------------dance-single - ----------------
#NOTES:
     dance-single:
     :
     Beginner:
     1:
     0.158,0.165,0.000,0.072,0.000:
0000
0000
0000
1000
,
0000
0000
1000
0000
,
0000
0001
0000
0000
,
0001
0000
0000
0100
,
0000
0000
0100
0000
,
0000
0010
0000
0000
,
0000
0000
0000
1000
,
0000
0000
1000
0000
,
0000
0001
0000
0000
,
0001
0000
0000
0010
,
0000
0000
0010
0000
,
0000
0100
0000
0000
,
0000
0000
0000
1000
,
0000
0000
1000
0000
,
0000
1000
0000
0000
,
1000
0000
0000
0001
,
0000
0000
0001
0000
,
0000
0001
0000
0000
,
0001
0000
0000
0100
,
0000
0000
0100
0000
,
0000
0100
0000
0000
,
0100
0000
0000
0010
,
0000
0000
0010
0000
,
0000
0010
0000
0000
,
0010
0000
0000
1000
,
0000
0000
1000
0000
,
0000
0001
0000
0000
,
0001
0000
0000
0100
,
0000
0000
0100
0000
,
0000
0001
0000
0000
,
0001
0000
0000
1000
,
0000
0000
1000
0000
,
0000
0010
0000
0000
,
0010
0000
0000
0100
,
0000
0000
0100
0000
,
0000
0001
0000
0000
,
0001
0000
0000
0010
,
0000
0000
0010
0000
,
0000
0100
0000
0000
,
0100
0000
0000
1000
,
0000
0000
1000
0000
,
0000
0100
0000
0000
,
0100
0000
0000
0010
,
0000
0000
0010
0000
,
0000
0001
0000
0000
,
0001
0000
0000
1000
,
0000
0000
1000
0000
,
0000
0010
0000
0000
,
0010
0000
0000
0100
,
0000
0000
0100
0000
,
0000
0100
0000
0000
,
0100
0000
0000
0010
,
0000
0000
0010
0000
,
0000
0010
0000
0000
,
0010
0000
0000
1000
,
0000
0000
1000
0000
,
0000
0001
0000
0000
,
0001
0000
0000
0100
,
0000
0000
0100
0000
,
0000
0010
0000
0000
,
0010
0000
0000
2000
,
0000
0000
3000
0000
,
0002
0000
0000
0003
,
0000
0200
0000
0000
,
0300
0000
0010
0000
,
0000
0010
0000
2000
,
0000
0000
3000
0000
,
0000
0002
0000
0003
,
0000
0200
0000
0000
,
0300
0000
0001
0000
,
0000
0001
0000
1000
,
0000
0000
1000
0000
,
0001
0000
0000
0001
,
0000
0100
0000
0000
,
0100
0000
0010
0000
,
0000
0010
0000
1000
,
0000
0000
1000
0000
,
0000
0001
0000
0000
,
0001
0000
0000
0200
,
0000
0000
0000
0000
,
0000
0000
0000
0000
0300
0000
0000
0000
0000
0000
0000
0000
;
