#VERSION:0.81;
#TITLE:Run Devil Run;
#SUBTITLE:;
#ARTIST:Girls' Generation;
#TITLETRANSLIT:;
#SUBTITLETRANSLIT:;
#ARTISTTRANSLIT:;
#GENRE:;
#ORIGIN:;
#CREDIT:;
#BANNER:[12ths Week] - Run Devil Run.png;
#BACKGROUND:[12ths Week] - Run Devil Run-bg.png;
#PREVIEWVID:;
#JACKET:[12ths Week] - Run Devil Run-jacket.png;
#CDIMAGE:;
#DISCIMAGE:;
#LYRICSPATH:;
#CDTITLE:cdtitle.png;
#MUSIC:[12ths Week] - Run Devil Run.ogg;
#OFFSET:-0.035;
#SAMPLESTART:50.999;
#SAMPLELENGTH:14.769;
#SELECTABLE:YES;
#BPMS:0.000=130.000;
#STOPS:;
#DELAYS:;
#WARPS:;
#TIMESIGNATURES:0.000=4=4;
#TICKCOUNTS:0.000=4;
#COMBOS:0.000=1;
#SPEEDS:0.000=1.000=0.000=0;
#SCROLLS:0.000=1.000;
#FAKES:;
#LABELS:0.000=Song Start;
#BGCHANGES:15.500=[12ths Week] - Run Devil Run.avi=1.000=1=0=0=StretchNoLoop==CrossFade==,
99999=-nosongbg-=1.000=0=0=0 // don't automatically add -songbackground-
;
#KEYSOUNDS:;
#ATTACKS:
;

//---------------dance-single - ----------------
#NOTEDATA:;
#CHARTNAME:;
#STEPSTYPE:dance-single;
#DESCRIPTION:;
#CHARTSTYLE:;
#DIFFICULTY:Hard;
#METER:8;
#RADARVALUES:0.523,0.510,0.447,0.261,0.561,271.000,41.000,24.000,0.000,0.000,0.000,0.000,0.000,0.523,0.510,0.447,0.261,0.561,271.000,41.000,24.000,0.000,0.000,0.000,0.000,0.000;
#CREDIT:;
#NOTES:
0000
0000
0000
0000
,
0000
0000
0000
0000
,
0000
0000
0000
0000
,
0000
0000
0000
0000
,
1000
0000
0000
0100
0000
0000
0010
0000
0001
0010
0000
0001
,
1000
0000
0000
0010
0000
0000
0100
0000
0010
0100
0000
0001
,
1000
0000
0000
0001
0000
0000
1000
0000
1000
0001
0000
0001
,
0010
0000
0000
0100
0000
0000
0010
0000
0010
0100
0000
0100
,
1000
0000
0000
0010
0000
0000
0100
0000
0010
0100
0000
0001
,
0100
0000
0000
0001
0000
0000
1000
0000
0001
1000
0000
1000
,
0200
0000
0000
0300
0000
0100
0010
0000
0000
0001
0000
0001
,
2000
0000
0000
3000
0000
1000
0001
0000
0000
1001
0000
0000
,
0002
0000
0000
0103
0000
0100
0020
0000
0000
2030
0000
0000
,
3001
0000
0001
0020
0000
0000
0130
0000
0000
0110
0000
0000
,
0200
0000
0000
1300
0000
1000
0001
0000
0001
0100
0000
0000
,
0010
0100
0010
1000
0010
1000
0001
1000
0001
0010
0000
0010
,
0100
0000
0000
1100
0000
0100
1000
0000
1000
0001
0000
0001
,
0100
0000
0000
0101
0000
0100
0010
0000
1000
0010
0000
1000
,
0001
0000
0000
0011
0000
0010
0100
0000
0000
0110
0000
0100
,
1000
0000
0000
1100
0000
1000
0010
0000
0100
0010
0000
0100
,
0001
0000
0000
0101
0000
0001
0010
0000
0010
0001
0000
0001
,
1000
0000
0000
1010
0000
0010
0100
0000
0001
0100
0000
0001
,
1000
0000
0000
1001
0000
0001
0010
0000
0000
0011
0000
0010
,
0200
2300
3001
1001
,
0001
0010
0100
1000
0000
1000
0010
0000
0010
0100
0000
0100
,
0001
0000
0001
1000
0001
1000
0100
1000
0100
0020
0000
0000
,
0130
0000
0100
0010
0000
0010
0001
1000
0001
0100
0000
0100
,
0001
0100
0010
0100
0010
1000
0010
1000
0100
0010
0000
0000
,
0001
0000
0000
0101
0000
1000
0000
0000
0000
1001
0000
1000
,
0100
0000
0000
1100
0000
0001
0000
0000
0000
1001
0000
1000
,
0001
0000
0000
0101
0000
0100
0010
0000
0010
1000
0000
1000
,
0001
0000
0000
0011
0000
0011
0000
0000
0010
0001
0000
0001
,
1000
0000
0000
1010
0000
0001
0000
0000
0000
1001
0000
1000
,
0001
0000
0000
0011
0000
1000
0000
0000
0000
1001
0000
1000
,
0001
0000
0000
0011
0000
0010
0100
0000
0100
1000
0000
1000
,
0001
0000
0000
0101
0000
0110
0000
0000
1010
0000
0000
1000
,
0200
0320
0032
2003
,
3001
0000
0000
0001
0000
1000
0000
0000
1000
0001
0000
0000
,
0100
0000
0000
0100
0000
0010
0000
0000
0010
0100
0000
0000
,
0001
0000
0000
0001
0000
1000
0000
0000
1000
0001
0000
0000
,
0011
0000
0000
1001
0000
0000
1010
0000
0000
0110
0000
0100
,
0001
0000
0000
0101
0000
0000
1001
0000
0000
1100
0000
0100
,
0010
0002
2003
3002
,
0103
0000
0100
0020
0000
0000
1030
0000
0000
1010
0000
0000
,
2000
0000
0000
3001
0000
0001
0010
0000
0010
0200
0000
0000
,
0310
0000
0000
0110
0000
0010
0000
0001
0000
1001
0000
0000
,
1000
0000
0000
1010
0000
0010
0100
0000
0000
0110
0000
0000
,
0100
0000
0100
0002
0000
0000
1003
0000
0000
1001
0000
0000
,
0002
0000
0000
0013
0000
0010
0100
0000
0100
1000
0000
0000
,
2002
3003
0000
0000
;

//---------------dance-single - ----------------
#NOTEDATA:;
#CHARTNAME:;
#STEPSTYPE:dance-single;
#DESCRIPTION:;
#CHARTSTYLE:;
#DIFFICULTY:Medium;
#METER:6;
#RADARVALUES:0.359,0.402,0.207,0.185,0.256,195.000,19.000,17.000,0.000,0.000,0.000,0.000,0.000,0.359,0.402,0.207,0.185,0.256,195.000,19.000,17.000,0.000,0.000,0.000,0.000,0.000;
#CREDIT:;
#NOTES:
0000
0000
0000
0000
,
0000
0000
0000
0000
,
0000
0000
0000
0000
,
0000
0000
0000
0000
,
0001
0000
0000
0100
0000
0000
0010
0000
0000
1000
0000
0010
,
1000
0010
1000
0001
,
0010
0000
0000
0001
0000
0000
0010
0000
0000
0100
0000
0010
,
0100
0010
0001
1000
,
0001
0000
0000
0100
0000
0000
0001
0000
0000
1000
0000
0001
,
1000
0001
1000
0100
,
2200
0000
0000
3300
0000
1000
0100
0000
0000
1000
0000
0000
,
0202
0000
0000
0303
0000
0001
0100
0000
0000
1001
0000
0000
,
1000
0100
0010
0001
,
1000
0010
0220
0330
,
0100
0000
0000
0010
0000
0010
1000
0000
1000
0001
0000
0000
,
2002
0000
0000
3003
,
1000
0000
0000
0100
0000
0000
0010
0000
0000
0100
0000
0010
,
0100
0000
0000
0010
0000
0000
0001
0000
0000
0010
0000
0001
,
0010
0000
0000
0001
0000
1000
0001
0000
0000
1000
0000
0010
,
1000
0000
0000
0010
0000
0100
0010
0000
0000
1000
0000
0000
,
0001
0000
0000
0010
0000
0000
0100
0000
0000
1000
0000
0100
,
1000
0000
0000
0001
0000
0000
0100
0000
0000
0001
0000
0100
,
0001
0000
0000
1000
0000
0001
1000
0000
0000
0100
0000
1000
,
0100
0010
0001
1001
,
1000
0001
1000
0001
0000
0000
1000
0000
0000
0001
0000
0000
,
0100
0000
0000
0010
0000
0000
0100
0010
0100
0010
0000
0000
,
1000
0000
0000
0001
0000
0000
0010
0100
0010
0100
0000
0000
,
2000
3002
0203
0310
,
2010
0000
0000
0000
0000
0001
0000
0000
0000
0000
0000
0100
,
0000
0000
0000
0000
0000
0001
0000
0000
0000
0000
0000
3010
,
0000
0000
0000
0100
0000
0000
0001
0000
0001
1000
0000
1000
,
0100
0000
0000
0010
0000
0001
0000
0000
0010
0001
0000
0000
,
0012
0000
0000
0000
0000
1000
0000
0000
0000
0000
0000
0100
,
0000
0000
0000
0000
0000
0010
0000
0000
0000
0000
0000
1003
,
0000
0000
0000
0001
0000
0000
0100
0000
0100
0010
0000
0010
,
1000
0000
0000
0001
0000
1000
0000
0000
1001
0000
0000
0000
,
0001
0010
0100
1000
,
0001
0000
0000
0000
0000
1001
0000
0000
0000
0001
0000
0000
,
0100
0000
0000
0000
0000
0110
0000
0000
0000
0010
0000
0000
,
1000
0000
0000
0000
0000
1001
0000
0000
0001
1000
0000
0000
,
0100
0010
0001
0011
,
0001
0100
0110
1010
,
1001
0001
0010
0100
,
1000
0000
1000
0001
0000
0000
0200
0000
0000
0300
0000
0000
,
0010
0000
0000
0100
0000
0000
0010
0000
0010
1000
0000
0000
,
0001
0011
0001
1010
,
1000
0000
0000
0010
0000
0010
0100
0000
0000
0001
0000
0000
,
1000
0000
1000
0100
0000
0000
0020
0000
0000
0030
0000
0000
,
0001
0000
0000
0010
0000
0000
0001
0000
0001
1000
0000
0000
,
2002
3003
0000
0000
;

//---------------dance-single - ----------------
#NOTEDATA:;
#CHARTNAME:;
#STEPSTYPE:dance-single;
#DESCRIPTION:;
#CHARTSTYLE:;
#DIFFICULTY:Easy;
#METER:3;
#RADARVALUES:0.235,0.240,0.120,0.065,0.000,134.000,11.000,6.000,0.000,0.000,0.000,0.000,0.000,0.235,0.240,0.120,0.065,0.000,134.000,11.000,6.000,0.000,0.000,0.000,0.000,0.000;
#CREDIT:;
#NOTES:
0000
0000
0000
0000
,
0000
0000
0000
0000
,
0000
0000
0000
0000
,
0000
0000
0000
0000
,
1000
0010
0100
0001
,
1000
1000
0000
0001
,
1000
0100
0010
0001
,
0001
1000
1000
0010
,
0100
0001
1000
0100
,
0010
0010
0000
0100
,
0220
0000
0330
0001
,
2002
0000
3003
0000
,
1000
1000
0001
0001
,
1000
0001
1001
0000
,
1000
0010
0100
0001
,
1001
0000
0000
0000
,
1000
0000
0001
1000
,
0010
0010
0000
0100
,
0001
0000
0101
0000
,
1000
0000
1100
0100
,
0010
0000
0100
0010
,
0001
0001
0000
0010
,
0001
0000
0011
0000
,
1000
1000
1010
0000
,
0010
0100
0001
0001
,
1000
0001
1000
1000
,
0100
0010
0001
1000
,
2002
0000
0000
3003
,
0001
0000
1000
0000
,
0100
0000
0010
0000
,
0001
0010
0001
0001
,
1000
1000
1000
0000
,
0010
0000
0100
0000
,
0001
0000
1000
0000
,
0001
0001
0010
0010
,
0100
0100
0100
0000
,
1000
0100
1000
0010
,
0100
0000
0100
0000
,
0001
0000
0001
0000
,
1000
0000
1000
0000
,
0001
0010
0001
0010
,
0100
1000
0100
1000
,
0010
0010
0100
0100
,
0010
0100
0001
0000
,
0100
0000
0001
0000
,
1001
0000
0000
0000
,
1000
1000
0001
0001
,
1000
0100
0010
0000
,
0001
0001
0100
0100
,
0110
0000
0000
0000
;

//---------------dance-single - ----------------
#NOTEDATA:;
#CHARTNAME:;
#STEPSTYPE:dance-single;
#DESCRIPTION:;
#CHARTSTYLE:;
#DIFFICULTY:Beginner;
#METER:1;
#RADARVALUES:0.114,0.133,0.011,0.000,0.000,72.000,1.000,0.000,0.000,0.000,0.000,0.000,0.000,0.114,0.133,0.011,0.000,0.000,72.000,1.000,0.000,0.000,0.000,0.000,0.000,0.000;
#CREDIT:;
#NOTES:
// measure 0
0000
0000
0000
0000
,  // measure 1
0000
0000
0000
0000
,  // measure 2
0000
0000
0000
0000
,  // measure 3
0000
0000
0000
0000
,  // measure 4
0001
0000
0000
0000
,  // measure 5
0100
0000
0100
0000
,  // measure 6
0010
0000
0000
0000
,  // measure 7
1000
0000
0000
0000
,  // measure 8
0100
0000
0000
0000
,  // measure 9
0010
0000
0010
0000
,  // measure 10
0001
0000
0000
0000
,  // measure 11
1000
0000
0000
0000
,  // measure 12
0001
0000
0001
0000
,  // measure 13
0001
0000
0000
0000
,  // measure 14
1000
0000
1000
0000
,  // measure 15
1000
0000
0000
0000
,  // measure 16
0100
0000
0000
0000
,  // measure 17
0100
0000
0010
0000
,  // measure 18
0001
0000
0000
0000
,  // measure 19
1000
0000
0010
0000
,  // measure 20
0100
0000
0000
0000
,  // measure 21
0010
0000
0100
0000
,  // measure 22
0001
0000
0000
0000
,  // measure 23
1000
0000
0001
0000
,  // measure 24
1000
1000
1000
0000
,  // measure 25
0001
0000
1000
0000
,  // measure 26
0001
0001
0001
0000
,  // measure 27
1001
0000
0000
0000
,  // measure 28
1000
0000
0000
0000
,  // measure 29
0001
0000
0000
0000
,  // measure 30
0100
0000
0010
0000
,  // measure 31
0100
0000
0000
0000
,  // measure 32
0001
0000
0000
0000
,  // measure 33
1000
0000
0000
0000
,  // measure 34
0100
0000
0010
0000
,  // measure 35
0100
0000
0000
0000
,  // measure 36
1000
0000
0010
0000
,  // measure 37
0100
0000
0000
0000
,  // measure 38
0001
0000
0000
0000
,  // measure 39
1000
0000
0000
0000
,  // measure 40
0100
0000
0100
0000
,  // measure 41
0010
0000
0010
0000
,  // measure 42
0001
0000
0001
0000
,  // measure 43
0010
0010
0010
0000
,  // measure 44
0001
0000
1000
0000
,  // measure 45
0001
0000
0000
0000
,  // measure 46
1000
0000
0010
0000
,  // measure 47
1000
1000
1000
0000
,  // measure 48
0001
0000
1000
0000
,  // measure 49
0001
0000
0000
0000
;
