#TITLE:One Way Or Another;
#SUBTITLE:;
#ARTIST:Sophie Ellis Bextor;
#TITLETRANSLIT:;
#SUBTITLETRANSLIT:;
#ARTISTTRANSLIT:;
#CREDIT:;
#BANNER:One Way Or Another.png;
#BACKGROUND:One Way Or Another-bg.png;
#LYRICSPATH:;
#CDTITLE:;
#MUSIC:One Way Or Another.mp3;
#OFFSET:-6.003;
#SAMPLESTART:23.690
#SAMPLELENGTH:12.000;
#SELECTABLE:YES;
#BPMS:0.000=162.000;
#STOPS:;
#BGCHANGES:;

//---------------dance-single - ----------------
#NOTES:
     dance-single:
     :
     Beginner:
     2:
     0.142,0.216,0.007,0.029,0.004:
1000
0000
0010
0000
,
1000
0000
0010
0000
,
1000
0000
0010
0000
,
1000
0000
0010
0000
,
0100
0000
0100
0000
,
1000
0000
1000
0000
,
0010
0000
0000
0000
,
0100
0000
0001
0000
,
1000
0000
1000
0000
,
0010
0000
0100
0000
,
0001
0000
1000
0000
,
0010
0000
0100
0000
,
0001
0000
0000
0000
,
1000
0000
0000
0000
,
0100
0000
0000
0000
,
0010
0000
0010
0000
,
0001
0000
0000
0000
,
1000
0000
0000
0000
,
0100
0000
0000
0000
,
0010
0000
0010
0000
,
0001
0000
0000
0000
,
0100
0000
0000
0000
,
1000
0000
0000
0000
,
0001
0000
0001
0000
,
0100
0000
0000
0000
,
0010
0000
0000
0000
,
1000
0000
0000
0000
,
0100
0000
0001
0000
,
1000
0000
1000
0000
,
0100
0000
0100
0000
,
0001
0000
0000
0000
,
0000
1000
0000
0000
,
0010
0000
0010
0000
,
1000
0000
0000
0001
0000
0000
0000
0000
,
0000
0100
0000
0000
0000
0000
0000
0000
0000
0000
0000
0000
0000
0000
0000
0000
,
0000
1000
0000
0000
,
0010
0000
0100
0000
,
0001
0000
1000
0000
,
0100
0000
0000
0000
,
0000
0001
0000
0000
,
0000
1000
0000
0000
,
0000
0100
0000
0000
,
0010
0010
0000
0000
,
1000
1000
0000
0000
,
0001
0001
0000
0000
,
0100
0100
0000
0000
,
0010
0010
0000
0000
,
0000
0000
0000
0000
,
1000
1000
0000
0000
,
0001
0001
0000
0000
,
0100
0010
1000
0001
,
0100
0000
0000
0000
,
1000
0000
0000
0000
,
0001
0000
0000
0000
,
1000
0000
1000
0000
,
0010
0000
0100
0000
,
0001
0000
0001
0000
,
1000
0000
1000
0000
,
0100
0000
0000
0000
,
0010
0000
0000
1000
,
0010
1000
0000
0001
,
0100
0010
0010
0000
,
1000
0000
0001
0000
,
1000
0000
0010
0000
,
0100
0000
0100
0000
,
0001
0000
0001
0000
,
1000
0000
0000
0000
,
0001
0000
0000
0100
,
0010
0100
0000
0000
,
1000
0000
1000
0000
,
0001
0000
0000
0100
,
0001
0100
0000
0010
,
1000
0010
0000
0100
,
0000
0001
0000
0000
,
1000
0000
0000
0000
,
0000
0000
0001
0000
,
0000
0000
0100
0000
,
0000
0000
0000
0000
,
2000
0000
0000
0000
,
0000
0000
3000
0000
,
0010
0000
0000
0000
,
0100
0000
0000
0000
,
0002
0000
0000
0000
,
0000
0003
0000
0000
,
2002
0000
0000
0000
,
0000
0000
0000
3003
;

//---------------dance-single - ----------------
#NOTES:
     dance-single:
     :
     Easy:
     4:
     0.302,0.309,0.108,0.043,0.000:
1000
1000
0001
0100
,
0010
0010
1000
0001
,
0100
0100
0000
0001
,
1000
0010
0100
0001
,
1000
1000
0000
0000
,
0010
0100
0001
1000
,
0010
0010
0000
1000
,
0001
0100
0010
1000
,
0001
0001
0000
0000
,
1000
0001
0100
0010
,
1000
0100
0000
0000
,
0001
1000
0010
0100
,
0001
1001
0000
0010
,
0100
1010
0000
0100
,
0001
0101
0000
0010
,
1000
0010
1000
0010
,
0100
0100
0000
0001
,
1000
0001
0000
0100
,
0010
0010
0000
1000
,
0001
0100
0010
1000
,
0001
1001
0000
0010
,
0100
1010
0000
0001
,
0100
0101
0000
0010
,
1000
0100
0010
0001
,
1000
0001
0000
1000
,
0010
0100
0000
0001
,
1000
0010
0000
0000
,
0100
0000
0100
0000
,
0010
0010
0010
0010
,
0100
0100
0100
0100
,
0001
0001
0001
0001
,
0001
0001
0001
0001
,
1000
1000
1000
1000
,
0100
0100
0100
0100
,
0010
0010
0010
0010
,
0001
0010
0010
0100
,
1000
0001
0100
0010
,
0200
0000
0001
0000
,
0320
0000
0100
0000
,
0000
0000
0000
0000
,
0030
0000
0000
0000
,
0000
0000
0000
0000
,
1000
0000
0000
0000
,
0001
0000
0000
0000
,
1000
0010
0100
0001
,
1000
0010
0000
0000
,
0100
0100
0001
0001
,
0001
1000
0001
0100
,
0010
1000
0001
0100
,
0010
0010
0100
0001
,
2000
0010
0001
0010
,
3100
0001
0100
0010
,
1000
0002
0100
0010
,
0103
1000
0010
0100
,
0001
1000
0001
1000
,
0010
1000
0010
0100
,
0001
1000
0010
0100
,
0001
1000
0010
0010
,
1000
1001
0010
0100
,
0001
0101
0000
1000
,
0010
1010
0000
0001
,
0100
0010
1010
0000
,
0001
0100
0010
1000
,
0001
1001
0000
0010
,
0100
1010
0000
0001
,
0100
0000
0100
0000
,
0001
1000
0000
0010
,
0100
0001
0000
1000
,
0010
0100
0000
0001
,
1000
0010
0100
0010
,
1000
0001
0000
0100
,
0010
1001
0000
0010
,
0100
0110
0000
0001
,
0100
1000
0001
0000
,
2000
0000
0010
0000
,
0001
0000
0010
3000
,
0002
0000
0100
0000
,
1000
0000
0010
0003
,
1000
0001
1000
0000
,
0010
0100
0001
1000
,
0010
0000
0100
0000
,
0010
1000
0001
0100
,
0001
0100
0001
0100
,
0010
0100
0010
0100
,
0010
1000
0010
1000
,
0010
0100
0001
1000
,
1001
0000
0000
0000
;

//---------------dance-single - Copied from----------------
#NOTES:
     dance-single:
     Copied from:
     Medium:
     7:
     0.464,0.502,0.395,0.050,0.025:
2001
0001
0001
0001
,
0001
0001
0001
0001
,
3002
0100
0100
0100
,
0100
0000
0100
0000
0100
0000
0100
0003
,
1000
0000
1010
0000
0001
0100
0001
0000
,
1000
0010
0100
0001
,
1000
0010
1000
0000
0001
0000
0100
0000
,
0010
1000
0001
0100
,
0010
0100
0010
0000
1000
0000
0001
0000
,
0100
0010
1000
0001
,
0100
0001
0100
0000
0010
0000
1000
0000
,
0010
0100
0001
1000
,
1010
1010
0001
0100
,
0101
0101
0010
1000
,
0110
0110
0001
1000
,
1010
1010
1010
1010
,
0001
0101
0010
1000
,
0010
0110
0001
1000
,
0010
1010
0100
0001
,
0011
0011
0011
0011
,
0010
1010
0100
0001
,
0100
1010
0001
0100
,
0001
0101
0000
1000
,
1100
1100
1100
1100
,
0001
2001
3010
0010
,
0100
0000
1001
0000
0010
0100
0010
1000
,
0001
0101
0010
1000
,
0010
0100
0001
1000
,
0010
0000
0000
1000
0000
0010
0100
0000
0010
0100
0000
0000
,
0010
0000
0000
1000
0000
0010
1000
0000
0010
1000
0000
0000
,
0001
0100
0010
1000
,
0001
0100
0000
0000
,
1000
0000
0010
1000
0000
0010
1000
0000
0010
1000
0000
0000
,
0001
0100
0010
1000
,
0001
0100
0010
1000
,
0001
0100
0100
0100
,
0010
1000
0010
0100
0001
0000
1001
0000
,
0010
1010
0100
0001
,
2010
0000
0010
0000
0010
3000
0000
0000
,
0002
0000
0100
0000
0100
0003
0000
0000
,
2000
0010
3010
0000
,
1000
1000
0001
0100
,
0010
1000
0010
0000
0100
0000
0001
0000
,
1000
0010
1000
0000
0001
0000
0100
0000
,
0010
0100
0010
0000
1000
0000
0001
0100
,
0010
1000
0001
0000
0100
0000
0010
0000
,
1000
0010
1000
0000
0001
0000
0100
0000
,
0010
0100
0010
0000
1000
0000
0001
0000
,
0100
0010
1000
0000
0001
0100
0010
0000
,
0100
0100
0001
1000
,
0010
0100
0010
1000
0010
0100
0010
0000
,
0100
0100
0001
0010
,
0100
0010
1000
0010
0100
0001
0000
0100
,
0000
0010
1000
0010
,
0100
0001
1000
0010
0100
0000
0001
0000
,
0001
1000
1000
0010
,
0100
0001
1000
0010
0100
0001
0100
0000
,
0010
1000
0001
0100
,
0010
1010
0100
0001
,
0010
0011
0010
1000
,
0010
0100
0100
0001
,
1000
0010
0100
0000
0101
0000
0010
0000
,
1000
0010
0100
0000
0000
0000
0001
0000
,
1000
0000
1001
0000
0010
0000
0100
0010
,
1000
0000
1001
0000
0000
0010
0100
0010
,
1000
1000
1000
1000
,
0010
0100
0010
0000
0001
0000
0010
1000
,
0010
0000
0100
0000
0001
1000
0010
0100
,
0001
0000
1001
0000
0010
0100
0010
1000
,
0010
0100
0001
0100
0010
1000
0001
0000
,
1001
0000
1001
0000
0010
0000
0100
0010
,
1000
0000
1010
0000
0001
0100
0010
1000
,
0001
1001
0010
0100
,
1000
0001
1000
0000
0010
0000
0000
0000
,
0010
1010
0001
0101
,
0010
1010
0100
0101
,
0010
1100
0001
0011
,
0100
1100
0010
0011
,
1000
0010
1000
0010
0100
0000
0001
0000
,
1001
1001
0000
0000
,
1010
0000
0101
0000
,
1010
0000
0100
0000
0001
0100
0010
0000
,
1000
0010
0100
0010
,
1000
0001
1000
0000
0010
0000
0100
0000
,
0001
1000
0010
0000
0100
0000
0100
0000
,
0001
1000
0010
0000
0100
0000
0100
0000
,
0002
0000
0000
0000
,
0000
0000
0000
0003
0000
0000
0000
0000
;

//---------------dance-single - Copied from----------------
#NOTES:
     dance-single:
     Copied from:
     Hard:
     9:
     0.552,0.532,0.546,0.079,0.086: // measure 1
2001
0010
0001
0010
,  // measure 2
0001
0010
0001
3010
,  // measure 3
0102
1000
0100
1000
,  // measure 4
0100
1000
0100
1003
,  // measure 5
0100
0000
1010
0000
0001
1000
0001
0100
,  // measure 6
0010
0000
1010
0000
0001
0100
0010
1000
,  // measure 7
0001
0000
1001
0000
0010
0100
0010
1000
,  // measure 8
0001
0000
0110
0000
0001
1000
0010
0100
,  // measure 9
0001
0000
1001
0000
0010
0100
1000
0100
,  // measure 10
0001
0000
1001
0000
0010
0100
0010
1000
,  // measure 11
0001
0000
0101
0000
1000
0010
0001
0000
,  // measure 12
1000
0000
0110
0000
1000
0001
0100
0000
,  // measure 13
1010
0000
1010
0000
0001
0100
0010
0000
,  // measure 14
0101
0000
0101
0000
1000
0100
0010
1000
,  // measure 15
0101
0000
0011
0000
0000
0100
1000
0100
,  // measure 16
0001
0100
1000
0100
0001
0100
1000
0100
,  // measure 17
0011
0000
1010
0000
0001
0100
1000
0000
,  // measure 18
0011
0000
1001
0000
0000
0010
1000
0001
,  // measure 19
0110
0000
0110
0000
0000
0001
0100
1000
,  // measure 20
0001
1000
0100
1000
0001
1000
0100
0001
,  // measure 21
1001
0000
1001
0000
0010
0100
0010
0000
,  // measure 22
1100
0000
1001
0000
0100
0001
1000
0000
,  // measure 23
1001
0000
1001
0000
0000
0001
0100
0001
,  // measure 24
1000
0001
0100
0001
1000
0001
0100
0000
,  // measure 25
0011
0000
0110
0000
0000
0000
0001
1000
,  // measure 26
0001
0000
0110
0000
0000
0010
1000
0010
,  // measure 27
1000
1010
0000
0000
,  // measure 28
0101
1100
0101
1100
,  // measure 29
0010
0000
1000
0010
0000
1000
0010
0000
1000
0010
0000
0000
,  // measure 30
0001
0000
0100
0001
0000
0100
0001
0000
0100
0001
0000
0000
,  // measure 31
1000
0010
0100
0001
,  // measure 32
1000
0000
0100
1000
0000
0100
1000
0000
0100
1000
0000
0000
,  // measure 33
0010
0000
0100
0010
0000
0100
0010
0000
0100
0010
0000
0100
,  // measure 34
0001
0000
0100
0001
0000
0100
0001
0000
0100
0001
0000
0100
,  // measure 35
0010
0000
0100
0010
0000
1000
0010
0000
1000
0010
0000
1000
,  // measure 36
0010
0000
1000
0001
0000
1000
0001
0000
1000
0001
0000
0000
,  // measure 37
0100
0000
0001
0001
0000
1000
1000
0000
,  // measure 38
0010
0100
1000
0001
,  // measure 39
0002
1000
1000
0000
,  // measure 40
0100
0100
0000
0000
,  // measure 41
1000
1000
0000
0000
,  // measure 42
0010
0010
0003
0000
,  // measure 43
1000
0010
1000
0000
0001
0100
0001
0000
,  // measure 44
0010
0100
0010
0000
1000
0010
1000
0000
,  // measure 45
0001
0100
0001
0000
0010
0100
0010
1000
,  // measure 46
0002
0003
0000
0000
0000
0000
0000
0000
,  // measure 47
0001
1000
0001
0000
0100
0010
1000
0100
,  // measure 48
0001
0100
0020
0000
1030
0000
0001
0000
,  // measure 49
0100
0010
0100
0000
0001
1000
0100
0000
,  // measure 50
0002
0000
0010
0013
,  // measure 51
1000
0000
0100
0000
0100
0001
0000
1001
,  // measure 52
0000
0010
0100
0000
0001
1000
0001
0000
,  // measure 53
0100
0001
0100
0010
1000
0010
0000
0101
,  // measure 54
0000
0001
0010
0000
1000
0000
0010
0000
,  // measure 55
0100
0010
1000
0010
0100
0010
0100
0001
,  // measure 56
0100
0010
1000
0001
0100
0010
0100
0000
,  // measure 57
1000
0001
1000
0010
1000
0001
1000
0010
,  // measure 58
1000
0001
1000
0000
0010
0100
0100
0000
,  // measure 59
1010
0000
0101
0000
0010
1000
0010
0100
,  // measure 60
0001
0000
0101
0000
0000
0010
1000
0010
,  // measure 61
1100
0000
0110
0000
0000
0001
1000
0010
,  // measure 62
0100
0010
1100
0000
1001
0000
0010
0000
,  // measure 63
0100
0010
0100
0110
0000
0000
0100
0010
,  // measure 64
1100
0000
1001
0000
0000
0001
0100
1000
,  // measure 65
0011
0000
0101
0000
0000
0010
1000
0010
,  // measure 66
0100
0001
1000
0010
0100
0010
0000
0000
,  // measure 67
1001
1001
0000
1001
,  // measure 68
0110
0000
1001
0000
0000
0001
1000
0010
,  // measure 69
1100
0000
0110
0000
0000
0001
1000
0010
,  // measure 70
0100
0001
1000
0010
1000
0001
0100
0000
,  // measure 71
0011
0000
0110
0000
0000
0001
1000
0010
,  // measure 72
0101
0000
1010
0000
0000
0001
0100
0010
,  // measure 73
0001
0000
0011
0000
0000
0100
0010
1000
,  // measure 74
0010
0100
0101
0000
1010
0000
0000
0000
,  // measure 75
2010
0010
0100
0100
,  // measure 76
0010
0000
0010
0000
0001
0000
3010
0001
,  // measure 77
0102
0100
1000
1000
,  // measure 78
0010
0010
0100
0003
,  // measure 79
2010
0000
0010
0001
,  // measure 80
0001
0000
0001
3000
0000
0000
0000
0000
,  // measure 81
1001
1001
0110
0110
,  // measure 82
1010
1010
0101
0101
,  // measure 83
0010
1000
0010
0100
0001
0100
1000
0100
,  // measure 84
0001
0100
0010
0000
1000
0000
0001
0000
,  // measure 85
0100
0010
1000
0010
1000
0001
1000
0010
,  // measure 86
1000
0001
1000
0010
1000
0001
0001
0000
,  // measure 87
2002
0000
0000
0000
,  // measure 88
0000
3003
0000
0000
0000
0000
0000
0000
;
