#TITLE:Never Forget;
#SUBTITLE:;
#ARTIST:Gréta Salóme & Jónsi;
#TITLETRANSLIT:;
#SUBTITLETRANSLIT:;
#ARTISTTRANSLIT:Greta Salome & Jonsi;
#GENRE:;
#CREDIT:;
#BANNER:neverforget-bn.png;
#BACKGROUND:background.png;
#LYRICSPATH:;
#CDTITLE:;
#MUSIC:Gréta Salóme & Jónsi - Never Forget.ogg;
#OFFSET:-0.565000;
#SAMPLESTART:62.699078;
#SAMPLELENGTH:14.370369;
#SELECTABLE:YES;
#BPMS:0.000000=135.000000
;
#STOPS:
;
#BGCHANGES:;
#KEYSOUNDS:;
#ATTACKS:;

//---------------dance-single - ----------------
#NOTES:
     dance-single:
     :
     Beginner:
     1:
     0.068270,0.108853,0.008850,0.000000,0.000000,53.000000,1.000000,0.000000,0.000000,0.000000,0.000000,0.068270,0.108853,0.008850,0.000000,0.000000,53.000000,1.000000,0.000000,0.000000,0.000000,0.000000:
1000
0000
0000
0000
,
0000
0000
0000
0000
,
0001
0000
0000
0000
,
0000
0000
0000
0000
,
0100
0000
0000
0000
,
0000
0000
0000
0000
,
0010
0000
0000
0000
,
0000
0000
0000
0000
,
1000
0000
0000
0000
,
0000
0000
0000
0000
,
0100
0000
0000
0000
,
0000
0000
0000
0000
,
0010
0000
0000
0000
,
0000
0000
0000
0000
,
0001
0000
0000
0000
,
0100
0000
0000
0000
,
0000
0000
0000
0000
,
0010
0000
0000
0000
,
0000
0000
0000
0000
,
1000
0000
0000
0000
,
0000
0000
0000
0000
,
0001
0000
0000
0000
,
0010
0000
0000
0000
,
0100
0000
0000
0000
,
1000
0000
0000
0000
,
0001
0000
0000
0000
,
0100
0000
0000
0000
,
0010
0000
0000
0000
,
0100
0000
0000
0000
,
0001
0000
0000
0000
,
1000
0000
0000
0000
,
0100
0000
0000
0000
,
0010
0000
0000
0000
,
0100
0000
0000
0000
,
1000
0000
0000
0000
,
0001
0000
0000
0000
,
0100
0000
0000
0000
,
0010
0000
0000
0000
,
1000
0000
0000
0000
,
0001
0000
0000
0000
,
0010
0000
0000
0000
,
0100
0000
0000
0000
,
1000
0000
0000
0000
,
0010
0000
0000
0000
,
0100
0000
0000
0000
,
0001
0000
0000
0000
,
1000
0000
0000
0000
,
0100
0000
0000
0000
,
0010
0000
0000
0000
,
0001
0000
0000
0000
,
1000
0000
0000
0000
,
0010
0000
0000
0000
,
0100
0000
0000
0000
,
0001
0000
0000
0000
,
0010
0000
0000
0000
,
0001
0000
0000
0000
,
0100
0000
0000
0000
,
0010
0000
0000
0000
,
1000
0000
0000
0000
,
0010
0000
0000
0000
,
0100
0000
0000
0000
,
0001
0000
1001
0000
;

//---------------dance-single - ----------------
#NOTES:
     dance-single:
     :
     Easy:
     2:
     0.174469,0.217707,0.123898,0.115048,0.000000,111.000000,14.000000,13.000000,0.000000,0.000000,0.000000,0.174469,0.217707,0.123898,0.115048,0.000000,111.000000,14.000000,13.000000,0.000000,0.000000,0.000000:
1001
0000
0000
0000
,
0100
0000
0000
0000
,
0010
0000
0000
0000
,
0001
0000
0000
0000
,
0100
0000
0000
0000
,
0010
0000
0000
0000
,
1000
0000
0000
0000
,
0002
0003
1000
0000
,
0001
0000
0000
0000
,
0010
0000
0000
0000
,
0100
0000
0000
0000
,
2000
0000
3001
0000
,
0100
0000
0010
0000
,
0200
0000
0301
0000
,
0010
0000
0100
0000
,
1000
0000
0000
0000
,
0001
0000
0000
0000
,
0100
0000
0010
0000
,
0100
0000
1000
0000
,
0001
0000
0010
0000
,
1000
0000
1000
0000
,
0001
0000
0000
0000
,
0010
0000
0000
0000
,
0100
0000
0000
0000
,
1000
0000
0001
0000
,
0100
0000
0010
0000
,
1000
0000
0010
0000
,
0100
0000
0001
0000
,
0010
0000
0100
0000
,
1000
0000
0001
0000
,
0010
0000
1000
0000
,
0010
0000
0001
0000
,
0100
0000
0010
0000
,
0120
0000
1000
0000
,
0001
0000
1030
0000
,
0002
0000
0103
0000
,
0010
0000
1010
0000
,
0200
0000
0310
0000
,
0001
0000
1001
0000
,
2000
0000
3010
0000
,
0100
0000
1100
0000
,
2000
0000
3100
0000
,
0010
0000
0011
0000
,
0010
0000
1000
0000
,
0002
0000
0013
0000
,
0110
0000
0000
0000
,
1001
0000
0000
0000
,
0001
0000
0010
0000
,
0100
0000
1100
0000
,
0020
0000
0130
0000
,
0001
0000
0101
0000
,
0020
0000
0031
0000
,
1000
0000
1100
0000
,
1001
0000
0001
0000
,
0100
0000
0010
0000
,
1000
0000
0100
0000
,
0010
0100
1000
0001
,
1001
0000
0010
0000
,
0100
0000
0001
0000
,
0020
0000
0130
0000
,
1000
0001
0100
0010
,
2000
3000
1001
0000
;

//---------------dance-single - ----------------
#NOTES:
     dance-single:
     :
     Medium:
     5:
     0.305953,0.299347,0.097349,0.070799,0.176997,223.000000,11.000000,8.000000,0.000000,0.000000,0.000000,0.305953,0.299347,0.097349,0.070799,0.176997,223.000000,11.000000,8.000000,0.000000,0.000000,0.000000:
1001
0000
0000
0000
0100
0000
0000
0000
0010
0000
0000
0000
,
0001
0000
0000
0000
0100
0000
0000
0000
0010
0000
0000
0000
,
1000
0100
0001
0100
,
0010
0001
1000
0000
,
0010
0100
0001
1000
,
0100
0010
0001
0010
,
0100
1000
0001
0000
,
0100
0010
0100
0001
,
0010
0000
0100
0000
,
1000
0001
0100
0000
,
0010
0000
0100
0000
,
0001
1000
0100
0000
,
0010
0010
0100
0100
,
1000
0001
0100
0000
,
0010
0010
0100
0001
,
1000
0000
0100
0000
,
0010
0000
0001
0000
,
0100
0000
0000
0000
0010
0000
0000
0000
1000
0000
0000
0000
,
0001
0001
0010
0010
,
0100
0100
2000
0000
,
3010
0000
0000
0000
0100
0000
0000
0000
0001
0000
0000
0000
,
1000
0000
0100
0000
,
0010
0000
0001
0000
,
0100
0010
1000
0001
,
0010
0010
0100
0100
,
1000
0010
0100
0001
,
1000
0010
0110
0100
,
0001
1000
1100
0100
,
0010
0100
1001
0010
,
0100
0001
0011
0001
,
1000
0010
0101
0010
,
1000
0100
0011
0100
,
1000
0010
0110
0010
,
2000
0000
0100
0001
,
3020
0000
0130
0000
,
0001
0000
0100
0000
0001
0000
0100
0000
0000
0010
0000
0000
,
1000
0000
0100
0000
1000
0000
0100
0000
0000
0010
0000
0000
,
0001
0000
1000
0000
0001
0000
1000
0000
0000
0010
0000
0100
,
0000
0001
0010
0100
,
1000
0000
0010
0000
1000
0000
0001
0000
0000
0010
0000
0000
,
0001
0000
1000
0000
0010
0000
1000
0000
0001
0000
0000
0000
,
0010
0100
1000
0000
,
0001
0100
0010
1000
,
0002
0000
0013
0000
,
0100
1000
0010
0000
,
0110
0000
0000
0000
,
1001
0000
0000
0000
,
0021
1000
0230
1000
,
0320
1000
0100
0031
,
0100
0000
0001
0000
1000
0000
0100
0000
0000
0010
0000
0000
,
0100
0000
1000
0000
0001
0000
0100
0000
0000
0010
0000
0000
,
1000
0000
0000
0000
0100
0000
0010
0000
0001
0000
0100
0000
,
0010
1000
0100
0010
,
0001
0000
0010
0000
0001
0000
0010
0000
0000
0100
0000
0000
,
1000
0000
0010
0000
1000
0000
0010
0000
0000
0100
0000
0000
,
0001
0000
0000
0010
0000
0000
0001
0000
0000
0000
1000
0000
,
0010
0100
0001
0010
,
0001
0000
0010
0000
0100
0000
1000
0000
0000
0000
0000
0000
,
0001
0000
0100
0000
0010
0000
1000
0000
0000
0000
1000
0000
,
0010
0000
0000
0000
0100
0000
0010
0000
1000
0000
0001
0000
,
0010
0100
1000
0001
,
0200
0000
0310
0000
;

//---------------dance-single - ----------------
#NOTES:
     dance-single:
     :
     Hard:
     8:
     0.527199,0.598694,0.362845,0.274346,0.761089,345.000000,41.000000,31.000000,0.000000,0.000000,0.000000,0.527199,0.598694,0.362845,0.274346,0.761089,345.000000,41.000000,31.000000,0.000000,0.000000,0.000000:
// measure 0
1000
0000
0100
0000
1000
0000
0001
0000
0010
0000
0001
0000
,  // measure 1
0100
0000
0001
0000
0100
0000
0010
0000
1000
0000
0010
0000
,  // measure 2
0100
0100
0001
0010
,  // measure 3
0200
0000
0000
0000
1300
0002
0000
0000
0000
0000
0000
0000
,  // measure 4
0103
0000
0010
1000
0000
0001
0010
0000
0100
1000
0000
0001
,  // measure 5
0100
0010
1000
0100
,  // measure 6
0010
0001
1000
0010
,  // measure 7
0100
0000
0001
1000
0000
0100
0010
0000
0001
0000
1000
0000
,  // measure 8
0010
0100
0001
0010
,  // measure 9
0200
0000
0000
0000
1300
0010
0000
0000
0100
0000
0001
0010
,  // measure 10
0001
0100
0010
1000
,  // measure 11
0001
0010
0001
0010
0001
0010
0001
0000
0100
0000
0010
0000
,  // measure 12
1000
1100
0010
0011
,  // measure 13
0100
1000
0100
1000
0100
1000
0100
0000
0000
1000
0000
0000
,  // measure 14
0010
0101
0010
1010
,  // measure 15
0002
0000
0000
0000
0013
0000
0200
0000
0000
0000
1300
0000
,  // measure 16
0020
0000
0000
0000
0130
0000
0001
0000
0010
0000
0100
0000
,  // measure 17
1000
0010
1000
0000
0001
0010
0001
0000
0101
0000
0110
0000
,  // measure 18
2000
0000
0000
0000
3100
0000
0020
0000
0000
0000
0031
0000
,  // measure 19
0200
0000
0000
0000
0310
0000
2000
0000
0000
0000
0000
0000
,  // measure 20
3010
0100
0010
0000
1000
0001
1000
0000
0011
0000
1100
0000
,  // measure 21
0001
0000
0000
0100
0000
0000
0020
0000
0000
0000
1030
0000
,  // measure 22
0002
0000
0000
0000
0000
0000
0000
0000
0000
0000
0000
0000
0000
0000
0000
0000
0013
0000
0000
0000
0000
0100
0000
0000
0000
0000
0000
0000
0000
0000
0000
0000
1000
0000
0000
0000
0000
0000
0000
0000
0010
0000
0000
0000
0000
0000
0000
0000
,  // measure 23
0100
0000
0000
0001
0000
0000
0020
0000
0000
0030
0100
0000
,  // measure 24
1000
0000
1000
0100
0000
0100
0010
0000
0001
0000
0100
0000
,  // measure 25
0010
0000
0010
0100
0000
0100
0001
0010
0001
1000
0100
1000
,  // measure 26
0010
0000
0010
0100
0000
0100
0001
0000
0001
1000
0000
1000
,  // measure 27
0100
0000
0100
0010
0000
0010
0001
0000
0000
0000
0100
0000
,  // measure 28
0010
0000
0010
1000
0000
1000
0001
0000
0001
0010
0000
0010
,  // measure 29
1000
0000
1000
0010
0000
0010
0100
0000
0000
0000
1000
0000
,  // measure 30
0001
0000
0001
0100
0000
0100
1000
0000
1000
0100
0000
0100
,  // measure 31
0010
0000
0010
1000
0000
1000
0001
0000
0000
0000
0010
0000
,  // measure 32
0100
1000
0010
0100
,  // measure 33
2002
3000
0203
0320
,  // measure 34
2030
0000
3001
0000
,  // measure 35
1000
0000
0010
0000
0100
0001
0000
0000
0010
0001
0000
0100
,  // measure 36
0000
0000
0010
1000
0000
0000
0001
0000
1000
0100
0000
0000
,  // measure 37
0010
0000
0000
0000
0001
0100
0000
0000
0000
0000
0010
0000
,  // measure 38
2000
3001
0020
0130
,  // measure 39
1000
0000
0100
0000
0001
0100
0000
0000
1000
0001
0000
0000
,  // measure 40
1000
0000
0010
0000
0001
0010
0000
0000
1000
0001
0000
0000
,  // measure 41
0020
0000
0000
0000
0130
1000
0000
0000
0001
0000
0100
0000
,  // measure 42
0110
1010
1001
0101
,  // measure 43
0001
0000
0010
0000
0100
1000
0100
0000
1000
0000
0001
0000
,  // measure 44
0100
0000
0010
0000
1000
0000
0010
0000
0100
0001
0100
0000
,  // measure 45
0220
0000
0000
0000
0000
0000
0330
0000
0010
1000
0000
0000
,  // measure 46
2002
0000
0000
0000
0000
0000
0000
0000
3003
0000
0001
0000
0000
0010
0000
0000
,  // measure 47
0110
0000
0000
0000
0100
1000
0000
0000
0000
0000
0001
0000
,  // measure 48
0200
0310
2000
3001
,  // measure 49
1000
0000
0010
0000
1000
0001
0000
0000
0010
0001
0000
0000
,  // measure 50
0100
0000
0001
0000
1000
0100
0000
0000
1000
0001
0000
0000
,  // measure 51
0100
0000
0010
0000
1000
0001
0000
0000
0010
0000
0100
0000
,  // measure 52
0110
1001
0011
1100
,  // measure 53
1000
0010
1000
0010
1000
0010
1000
0000
1010
0000
0110
0000
,  // measure 54
0100
0001
0100
0001
0100
0001
0100
0000
0101
0000
1001
0000
,  // measure 55
1000
0100
1000
0100
1000
0100
1000
0000
1100
0000
0011
0000
,  // measure 56
1001
1010
1001
0011
,  // measure 57
0001
0010
0001
0010
0001
0010
0001
0000
0011
0000
0110
0000
,  // measure 58
0100
1000
0100
1000
0100
1000
0100
0000
1100
0000
1001
0000
,  // measure 59
0102
0000
0000
0003
0100
0002
1000
0000
0000
0000
0103
0000
,  // measure 60
0110
1010
1001
0011
,  // measure 61
0220
0330
1001
0000
;
