#TITLE:Manmachine plays Jazz;
#SUBTITLE:~MIO2~;
#ARTIST:Mikio Endo;
#TITLETRANSLIT:;
#SUBTITLETRANSLIT:;
#ARTISTTRANSLIT:;
#CREDIT:;
#BANNER:Manmachine plays Jazz (MIO2).png;
#BACKGROUND:Manmachine plays Jazz (MIO2)-bg.PNG;
#LYRICSPATH:;
#CDTITLE:;
#MUSIC:Manmachine plays Jazz (MIO2).mp3;
#OFFSET:-0.045;
#SAMPLESTART:26.825;
#SAMPLELENGTH:8.420;
#SELECTABLE:YES;
#BPMS:0.000=114.000;
#STOPS:;
#BGCHANGES:0.000=Manmachine plays Jazz (MIO2).avi=1.000=1=1=0,
165.000=Manmachine plays Jazz (MIO2)-bg.PNG=1.000=1=0=1,
99999=-nosongbg-=1.000=0=0=0 // don't automatically add -songbackground-
;

//---------------dance-single - ----------------
#NOTES:
     dance-single:
     :
     Challenge:
     9:
     0.497,0.516,0.202,0.000,0.516: // measure 1
0000
0000
0000
0000
,  // measure 2
0000
0000
0000
0000
,  // measure 3
0000
0000
0000
0000
,  // measure 4
0000
0000
0000
0000
,  // measure 5
0110
0000
0000
0000
,  // measure 6
0010
0000
0000
1000
0000
0001
0000
0000
0000
0010
0000
0000
0100
0000
0000
1000
0000
0001
0000
0000
0000
0100
0000
0000
,  // measure 7
0010
0000
0000
1000
0000
0001
0000
0000
0000
1000
0000
0000
0001
0000
0000
0100
0000
0010
0000
0000
0010
1000
0000
0000
,  // measure 8
0001
0000
0000
0010
0000
0100
0000
0000
0000
1000
0000
0000
0001
0000
0000
0100
0000
0010
0000
0000
0000
1000
0000
0000
,  // measure 9
0001
0000
0000
0010
0000
0100
0000
0000
0000
0010
0000
0000
0001
0000
0000
1000
0000
0001
0000
0000
1000
0001
0000
0000
,  // measure 10
1000
0000
0010
0100
0000
0000
0001
0000
0000
1000
0000
0100
0010
0000
0000
0001
0000
0000
0100
0000
0000
0010
0000
0000
,  // measure 11
0100
0000
0001
0010
0000
0000
0100
0000
0000
0010
0000
0001
1000
0000
0000
0001
0000
0000
0100
0000
0000
0001
0000
0000
,  // measure 12
1000
0000
0100
1000
0000
0000
0001
0000
0000
0100
0000
0010
0100
0000
0000
0001
0000
0000
1000
0000
0000
0100
0000
0000
,  // measure 13
0010
0000
0001
0010
0000
0000
0001
0000
1000
0001
0000
0000
0100
0000
0010
0100
0000
0010
1000
0000
0001
1000
0000
0001
,  // measure 14
0000
0000
0000
1000
0000
0000
0100
0000
0000
1000
0000
0100
0000
0000
0000
1000
0000
0000
0001
0000
0000
1000
0000
0001
,  // measure 15
0000
0000
0001
0100
0000
0000
0010
0000
0000
1000
0000
0000
0001
0000
0000
1000
0000
0001
0000
0000
0100
0010
0000
0100
,  // measure 16
0000
0000
0000
0001
0000
0000
0010
0000
0000
0100
0000
1000
0000
0000
0000
1000
0000
0000
0010
0000
0000
0100
0000
0001
,  // measure 17
1000
0000
0000
0001
0000
0100
0000
0000
0100
0010
0000
1000
0001
0000
0000
1000
0000
0100
0000
0000
0010
0001
0000
0000
,  // measure 18
1001
0000
0000
0000
0000
0000
1000
0000
0000
0010
0000
0000
0001
0000
0000
0000
0000
0000
0010
0000
0000
0000
0000
1000
,  // measure 19
0001
0000
0001
0010
0100
0010
0001
1000
,  // measure 20
1010
0000
0000
0000
0000
0000
0100
0000
0000
0001
0000
0000
1000
0000
0000
0100
0000
0010
0000
0000
0100
0010
0000
0000
,  // measure 21
0001
0100
1000
0100
0001
1000
0001
1000
,  // measure 22
0001
0000
0000
0010
0000
0000
1100
0000
0000
0010
0000
0001
0100
0000
0000
1010
0000
0000
0100
0000
0001
1000
0000
0000
,  // measure 23
0001
0000
0000
0010
0000
0100
0000
0000
0010
0001
0000
1000
0001
0000
0000
0100
0000
0010
0000
0000
0100
0001
0000
0000
,  // measure 24
1000
0000
0000
0100
0000
0000
0011
0000
0000
1000
0000
0010
0100
0000
0000
1001
0000
0000
0001
0000
0010
0100
0000
0000
,  // measure 25
0010
0000
0000
0001
0000
1000
0000
0000
0010
0100
0000
0010
0100
0000
0000
0001
0000
0010
0000
0000
0100
1000
0000
0100
,  // measure 26
0010
0000
0000
0000
0000
0000
1001
0000
0000
0000
0000
0001
0100
0000
0000
1010
0000
0000
0000
0000
1001
0000
0000
0001
,  // measure 27
0010
0000
0000
0100
0000
0000
1100
0000
0000
1001
0000
0000
0001
0000
0100
0000
0000
0000
0010
0000
0000
1000
0000
0001
,  // measure 28
1000
0000
0000
0001
0000
0000
1100
0000
0000
0000
0000
1000
0001
0000
0000
0100
0000
0000
0001
0000
0100
0000
0000
0001
,  // measure 29
1000
0100
0101
0000
1100
0000
1001
0000
,  // measure 30
0001
0000
0000
1000
0000
0100
0000
0000
0100
1000
0000
0000
0001
0000
0100
0000
0000
0100
0001
0000
0000
0000
0000
0000
,  // measure 31
1000
0000
0000
0001
0000
1000
0000
0000
0001
1000
0000
0000
0100
0000
0010
0000
0000
0100
0010
0000
0000
0000
0000
0000
,  // measure 32
0001
0000
0000
1000
0000
0010
0000
0000
0010
1000
0000
0000
0001
0000
0100
0000
0000
0100
0001
0000
0000
0000
0000
0000
,  // measure 33
1000
0100
0001
0010
0001
0100
1000
0001
,  // measure 34
1000
0000
0000
0001
0000
0100
0000
0000
0010
0100
0000
0000
0010
0000
1000
0000
0000
0001
1000
0000
0000
0000
0000
0000
,  // measure 35
0001
0000
0000
1000
0000
0001
0000
0000
0100
0001
0000
0000
0100
0000
0010
0000
0000
1000
0010
0000
0000
1000
0000
0000
,  // measure 36
0100
0000
0000
0010
0000
0001
0000
0000
0010
0100
0000
0000
0100
0000
1000
0000
0000
1000
0001
0000
0000
0000
0000
0000
,  // measure 37
1000
0000
0100
1000
0000
0100
1000
0000
0100
0010
0000
0100
0010
0000
0001
0010
0000
0001
1000
0000
0001
1000
0000
0001
,  // measure 38
0100
0000
0000
0000
,  // measure 39
1001
0000
0000
0000
0000
0000
0000
0000
0000
0000
0000
0000
0000
0000
0010
0000
0000
0010
1000
0000
0000
0001
0000
0000
,  // measure 40
1001
0000
0000
0000
,  // measure 41
0000
0000
0010
0000
0010
0000
0010
0000
0000
0110
0000
0000
0000
0000
0000
0000
0000
0000
0000
0000
0000
0000
0000
0000
;

//---------------dance-single - ----------------
#NOTES:
     dance-single:
     :
     Medium:
     6:
     0.312,0.344,0.096,0.138,0.112:
0000
0000
0000
0000
,
0000
0000
0000
0000
,
0000
0000
0000
0000
,
0000
0000
0000
0000
,
2002
0000
0000
3003
,
0001
0000
0000
0000
0000
0001
0000
0000
0000
0000
0000
0000
1000
0000
0000
0000
0000
1000
0000
0000
0000
0000
0000
0000
,
0001
0000
0000
0000
0000
0001
0000
0000
0000
1000
0000
0000
0100
0000
0000
0000
0000
0000
0010
0000
0000
0000
0000
0000
,
0100
0000
0000
0000
0000
0100
0000
0000
0000
0000
0000
0000
0010
0000
0000
0000
0000
0010
0000
0000
0000
0000
0000
0000
,
0100
0000
0000
0000
0000
0100
0000
0000
0000
0010
0000
0000
0001
0000
0000
0000
0000
0000
1000
0000
0000
0000
0000
0000
,
0001
0100
0010
0000
0100
0000
0001
0000
,
1000
0100
0010
0000
0100
0000
1000
0001
,
0100
0010
0100
0000
0001
0000
1000
0000
,
0001
0010
0001
0000
1000
0100
1000
0100
,
2000
0000
3001
0100
0002
0000
0103
0010
,
1000
0100
0010
0000
0100
0010
0001
1000
,
0002
0000
1003
0001
0200
0000
0310
0100
,
0001
0100
0010
0000
1000
0100
0010
0000
,
1001
0000
0001
0100
1000
0000
0000
0000
,
1001
0000
1000
0100
0001
0000
0100
0000
,
1000
0000
0001
0010
0100
0000
0010
0000
,
0001
0000
1000
0010
0100
0000
0010
0000
,
1000
0000
0000
0100
0000
0000
1000
0000
0000
0000
0000
0001
0000
0000
0000
1000
0000
0000
0001
0000
0000
0000
0000
0000
,
0010
0001
0100
0000
0010
1000
0100
0000
,
0010
0000
0000
0100
0000
0000
0010
0000
0000
0000
0000
0100
0000
0000
0000
0010
0000
0000
0001
0000
0000
1000
0000
0000
,
0001
1000
0010
0000
0100
0001
1000
0000
,
0110
0000
1000
0001
0020
0000
0130
0000
,
0010
0000
0001
1000
0001
0100
0010
0000
,
1000
0000
0100
1000
0002
0000
1003
0000
,
1000
0100
0010
0000
0110
0000
1001
0000
,
0001
0000
0000
0000
0000
0100
0000
0000
0000
0001
0000
0000
0000
0000
1000
0000
0000
0000
0001
0000
0000
0000
0000
0000
,
0100
0000
0000
0000
0000
0001
0000
0000
0000
0100
0000
0000
0000
0000
0010
0000
0000
0000
0100
0000
0000
0001
0000
0000
,
1000
0000
0000
0000
0000
0100
0000
0000
0000
1000
0000
0000
0000
0000
0001
0000
0000
0000
1000
0000
0000
0000
0000
0000
,
0001
0100
0001
0000
0010
1000
0100
0010
,
0001
0000
0000
0000
0000
0010
0000
0000
0000
0100
0000
0000
0000
1000
0000
0000
0000
0000
0001
0000
0000
0000
0000
0000
,
1000
0000
0000
0000
0000
0010
0000
0000
0000
0100
0000
0000
0000
0000
0001
0000
0000
0000
1000
0000
0000
0100
0000
0000
,
0010
0000
0000
0000
0000
0100
0000
0000
0000
0010
0000
0000
0000
0000
0001
0000
0000
0000
1000
0000
0000
0001
0000
0000
,
0100
0010
1000
0100
0020
0000
0030
0000
,
2002
0000
0000
0000
,
3003
0000
0000
0000
0000
0000
0000
0000
0000
0000
0000
0000
0000
0000
0001
0000
0000
0000
1000
0000
0000
0001
0000
0000
,
2002
0000
0000
0000
,
3003
0000
0000
0110
0000
0000
0000
0000
;

//---------------dance-single - ----------------
#NOTES:
     dance-single:
     :
     Easy:
     3:
     0.201,0.258,0.128,0.064,0.000:
0000
0000
0000
0000
,
0000
0000
0000
0000
,
0000
0000
0000
0000
,
0000
0000
0000
0000
,
0220
0000
0000
0330
,
1000
0000
0001
0000
,
1000
0100
0010
0001
,
0100
0000
0010
0000
,
0100
0010
1000
0001
,
1000
0000
0100
0000
,
1000
0000
0001
0100
,
0001
0000
0100
0000
,
0010
0010
1000
1000
,
0001
0000
1000
0100
,
0010
0000
0100
0010
,
0001
0000
1000
0000
,
0001
0100
0010
0100
,
1001
0000
0001
0000
,
1000
0001
0100
0010
,
1000
0000
0001
0000
,
1000
0100
0010
0001
,
1000
1001
0001
1001
,
1000
0010
0100
0001
,
0010
0110
0100
0110
,
0010
0001
1000
0100
,
1000
0010
0100
0000
,
0001
0010
0100
0010
,
0001
1000
0001
0100
,
0010
0110
0110
0110
,
0010
1000
0001
1000
,
0100
0010
0001
0100
,
0001
1000
0100
1000
,
0001
0001
1000
1000
,
0001
0100
0010
1000
,
0100
0010
0100
1000
,
0001
0100
0010
1000
,
0010
0010
0100
0100
,
2002
0000
0000
0000
,
3003
0000
0000
0000
,
0220
0000
0000
0000
,
0330
0000
0000
0110
0000
0000
0000
0000
;

//---------------dance-single - ----------------
#NOTES:
     dance-single:
     :
     Beginner:
     1:
     0.117,0.258,0.128,0.000,0.000:
0000
0000
0000
0000
,
0000
0000
0000
0000
,
0000
0000
0000
0000
,
0000
0000
0000
0000
,
1001
0000
0000
0000
,
0001
0000
0001
0000
,
1000
0000
0100
0100
,
0100
0000
1000
0000
,
0001
0000
0100
0100
,
0100
0000
0010
0000
,
1000
0000
0100
0000
,
0010
0000
0001
0000
,
1000
0000
0000
0000
,
0001
0000
1000
0000
,
0001
0000
0000
0000
,
0100
0000
0010
0000
,
0100
0000
0000
1001
,
1001
0000
0000
0000
,
0001
0000
1000
0000
,
0100
0000
0000
0000
,
0010
0000
0001
0001
,
0001
0000
1000
0000
,
0010
0000
0000
0000
,
0100
0000
0010
0000
,
1000
0000
0000
0000
,
0001
0000
1000
0000
,
0100
0000
0010
0000
,
0100
0000
0000
0000
,
0110
0110
0110
0110
,
0110
0000
0010
0000
,
0001
0000
1000
0000
,
0001
0000
0100
0000
,
0010
0000
0000
0000
,
0100
0000
0010
0000
,
1000
0000
0100
0000
,
1000
0000
0001
0000
,
1001
0000
0000
0000
,
0110
0000
0000
0000
,
0100
0000
0000
0000
,
1001
0000
0000
0000
,
0000
0000
0000
1001
0000
0000
0000
0000
;

//---------------dance-single - ----------------
#NOTES:
     dance-single:
     :
     Hard:
     8:
     0.437,0.430,0.096,0.170,0.442:
0000
0000
0000
0000
,
0000
0000
0000
0000
,
0000
0000
0000
0000
,
0000
0000
0000
0000
,
2002
0000
0000
3003
,
0001
0000
0000
0000
0000
0010
0000
0000
0000
0001
0000
0000
1000
0000
0000
0000
0000
0010
0000
0000
0000
1000
0000
0000
,
0001
0000
0000
0000
0000
0010
0000
0000
0000
0001
0000
1000
0001
0000
0000
0100
0000
0010
0000
0000
0100
0010
0000
0000
,
1000
0000
0000
0000
0000
0001
0000
0000
0000
1000
0000
0000
0100
0000
0000
0000
0000
0010
0000
0000
0000
0100
0000
0000
,
0010
0000
0000
0000
0000
0001
0000
0000
0000
1000
0000
0001
1000
0000
0000
0010
0000
1000
0000
0000
0001
1000
0000
0000
,
0020
0000
0100
0000
0000
0000
0001
0000
0000
0000
0000
0100
0000
0000
0000
1030
0000
0000
0000
0000
0000
1000
0000
0000
,
0200
0000
0010
0000
0000
0000
0001
0000
0000
0000
0000
0010
0000
0000
0000
1300
0000
0000
0000
0000
0000
0001
0000
0000
,
2000
0000
0001
0000
0000
0000
0010
0000
0000
0000
0000
0001
0000
0000
0000
3100
0000
0000
0000
0000
0000
1000
0000
0000
,
0001
0000
0100
0001
0000
0000
1000
0000
0100
1000
0000
0000
0001
0000
1000
0001
0000
0000
1000
0000
0000
0100
0000
2000
,
0000
0000
0000
0000
0000
0000
3001
0000
0000
0100
0000
0002
0000
0000
0000
0000
0000
0000
0103
0000
0000
0010
0000
0000
,
1000
0000
0000
0001
0000
1000
0000
0000
0001
1000
0000
0000
0001
0000
0000
0010
0000
0000
0100
0000
0000
0010
0000
0200
,
0000
0000
0000
0000
0000
0000
1300
0000
0000
0001
0000
2000
0000
0000
0000
0000
0000
0000
3010
0000
0000
0100
0000
0000
,
0001
0000
0000
1000
0000
0100
0000
0000
0100
1000
0000
0000
0001
0000
0000
0100
0000
0001
0000
0000
0001
0100
0000
0000
,
1010
0000
0001
1000
0200
0000
0010
0000
,
1300
0000
1000
0100
0010
0001
0100
0010
,
1000
0000
0000
0000
0000
0000
0001
0000
0000
1000
0000
0000
0010
0000
0000
0000
0000
1000
0000
0000
0000
0001
0000
0000
,
1000
0100
0010
0001
0100
0010
1000
0001
,
0100
0000
0000
0000
0000
0000
0101
0000
0000
0000
0000
0001
1000
0000
0000
0100
0000
0000
1000
0000
0100
0000
0000
0100
,
1000
0000
0000
0001
0000
0100
0000
0000
0001
0100
0000
0000
0001
0000
0000
1000
0000
0000
0100
0000
0000
0010
0000
0000
,
0001
0000
0000
0000
0000
0000
1100
0000
0000
0000
0000
0010
0001
0000
0000
1000
0000
0000
0001
0000
0100
0000
0000
0001
,
1000
0000
0000
0001
0000
0010
0000
0000
0010
0001
0000
0000
1000
0000
0000
0010
0000
0100
0000
0000
0100
0010
0000
0000
,
2000
0000
0000
0000
0000
0000
0001
0000
0000
0000
0000
0001
0000
0000
0000
0010
0000
0000
0000
0000
3010
0000
0000
0000
,
1000
0000
0000
0001
0000
0000
0100
0000
0000
0100
0000
0000
0001
0000
1000
0100
0000
0000
0010
0000
0000
0000
0000
0100
,
0020
0000
0000
0000
0000
0000
0031
0000
0000
0100
0000
0000
0010
0000
0000
1000
0000
0001
0000
0000
0000
1000
0000
0000
,
0010
0100
0110
0000
1010
0000
1001
0000
,
0001
0000
0000
0001
0000
0100
0000
0000
0100
0010
0000
0000
0010
0000
1000
0000
0000
1000
0100
0000
0000
0000
0000
0000
,
1000
0000
0000
1000
0000
0100
0000
0000
0100
0010
0000
0000
0010
0000
0001
0000
0000
0001
1000
0000
0000
0000
0000
0000
,
0010
0000
0000
0010
0000
1000
0000
0000
1000
0001
0000
0000
0001
0000
0010
0000
0000
0010
0001
0000
0000
1000
0000
0000
,
0200
0001
0010
1300
,
1000
0000
0000
0001
0000
0100
0000
0000
0100
0001
0000
0000
0001
0000
1000
0000
0000
1000
0001
0000
0000
0000
0000
0000
,
0010
0000
0000
0100
0000
0010
0000
0000
0010
0100
0000
0000
0100
0000
1000
0000
0000
1000
0001
0000
0000
0000
0000
0000
,
1000
0000
0000
0010
0000
1000
0000
0000
0010
1000
0000
0000
0001
0000
0100
0000
0000
0001
0100
0000
0000
0000
0000
0000
,
0001
0000
0010
0001
0000
0000
1000
0000
0010
1000
0000
0000
0010
0000
0100
0010
0000
0100
0001
0000
1000
0001
0000
1000
,
0200
0000
0000
0000
,
0310
0000
0000
0000
0000
0000
0000
0000
0000
0000
0000
0000
0000
0000
0001
0000
0000
0001
1000
0000
0000
0001
0000
0000
,
2002
0000
0000
0000
0000
0000
0000
3003
,
0000
0000
0010
0000
0100
0000
0010
0000
0000
0110
0000
0000
0000
0000
0000
0000
0000
0000
0000
0000
0000
0000
0000
0000
;
