#TITLE:Home Alone;
#SUBTITLE:;
#ARTIST:Hixxy & Technikore;
#TITLETRANSLIT:;
#SUBTITLETRANSLIT:;
#ARTISTTRANSLIT:;
#CREDIT:;
#BANNER:[12ths Week] - Home Alone.png;
#BACKGROUND:[12ths Week] - Home Alone-bg.png;
#LYRICSPATH:[12ths Week] - Home Alone.lrc;
#CDTITLE:cd.png;
#MUSIC:[12ths Week] - Home Alone.ogg;
#OFFSET:-5.677;
#SAMPLESTART:52.470;
#SAMPLELENGTH:12.000;
#SELECTABLE:YES;
#BPMS:0.000=170.000,16.000=85.000,80.000=170.000;
#STOPS:;
#BGCHANGES:16.000=[12ths Week] - Home Alone-bg2.png=1.000=1=0=0,
80.000=[12ths Week] - Home Alone-bg.png=1.000=1=0=0,
99999=-nosongbg-=1.000=0=0=0 // don't automatically add -songbackground-
;

//---------------dance-single - ----------------
#NOTES:
     dance-single:
     :
     Hard:
     8:
     0.523,0.462,0.162,0.191,0.639:
0020
0000
1030
0000
1000
0010
0100
0000
,
0100
0010
0100
0000
1000
0010
0001
0000
,
0002
0000
0103
0000
1000
0001
0010
0000
,
1000
0100
0010
0001
0010
0100
0010
0000
,
1000
0010
1000
0010
0002
0000
0103
0000
,
1000
0010
1000
0100
0020
0000
1030
0100
,
1000
0010
0100
0010
0110
0000
0000
0001
,
0100
1000
0010
0100
0002
0000
0200
0303
,
1000
0100
0001
0010
2000
0000
0020
3030
,
0001
0100
1000
0100
0020
0000
0130
1000
,
0010
0100
1000
0100
0001
0000
1000
0000
,
0010
1000
0010
1000
0020
0000
0130
0000
,
1010
0000
1000
0100
0001
0010
0100
0010
,
1000
0000
0100
0000
0100
0010
0100
0010
,
0100
0000
0010
1000
0010
0001
0100
1000
,
0001
0000
0100
0000
0010
0100
0010
0000
,
0000
1000
0100
1100
0000
0001
0010
0011
,
0000
0000
0100
0000
0001
0000
0101
0000
0000
0000
1000
0000
0010
0000
0000
1010
,
0000
1000
0010
0001
,
0200
0000
0000
0000
0000
0000
0000
0002
0000
0000
0000
0000
0303
0000
0000
0000
,
0101
0000
0100
0001
0100
0001
0100
0000
0100
0010
0000
0100
,
0001
0000
1000
0001
0000
1000
0100
0000
0010
1000
0000
0010
,
0100
0000
0001
1000
0001
1000
0001
0000
0100
0010
0000
1000
,
0001
0000
1000
0010
1000
0010
1000
0000
0010
0100
0000
0010
,
0100
0000
0010
0000
1000
0000
0010
0000
0100
0000
0001
0000
,
1000
0000
0010
0100
0010
0100
0010
0000
1000
0000
0001
0000
,
1010
0000
0100
0000
0010
0000
0001
0000
1000
0001
1000
0001
,
1000
0000
0001
0000
0100
0000
0010
0000
1000
0000
0100
0000
,
1010
0000
1000
0010
1000
0010
1000
0000
1000
0100
0000
1000
,
0010
0000
0001
0010
0000
0001
1000
0000
0100
0001
0000
0100
,
1000
0000
0010
0001
0010
0001
0010
0000
1000
0100
0000
0001
,
0010
0000
0001
0100
0001
0100
0001
0000
0100
1000
0000
0100
,
1000
0000
0100
0000
0001
0000
0100
0000
1000
0000
0010
0000
,
0001
0000
0100
1000
0100
1000
0100
0000
0001
0000
0010
0000
,
0101
0000
1000
0000
0100
0000
0010
0000
0001
0100
0001
0100
,
0101
0000
0000
0010
0000
0000
0001
0000
0000
0100
0000
0000
1010
0000
0000
0000
,
0101
0000
0100
0001
0100
0001
0100
0000
1000
0010
0000
0010
,
1000
0000
0001
0100
0000
0100
0001
0000
0100
0001
0000
1000
,
0100
0000
1000
0100
1000
0100
0001
0000
0010
0100
0000
0001
,
1000
0000
1000
0010
0100
0001
1000
0000
1000
0010
0000
0010
,
2000
0000
0100
0000
3100
0000
0020
0000
1000
0000
1030
0000
,
1000
0000
0001
0010
0001
0010
0200
0000
0001
0000
0301
0000
,
0002
0000
0100
0000
0103
0000
0010
0000
0100
0001
0100
0010
,
1000
0000
0100
0000
1000
0000
1010
0000
0010
0000
0100
0000
,
1010
0000
0010
1000
0010
1000
0010
0000
0100
0001
0000
1000
,
0100
0000
0001
0100
0000
0010
0100
0000
0010
0100
0000
1000
,
0001
0000
0100
0001
0100
0001
0100
0000
0001
1000
0000
0010
,
0100
0000
0001
1000
0001
1000
0010
0000
1000
0010
0000
0100
,
0002
0000
0100
0000
0100
0000
0100
0000
0100
0003
0100
0000
,
0201
0000
0001
0300
,
2020
0000
0000
0000
,
3030
0000
0000
0000
;

//---------------dance-single - ----------------
#NOTES:
     dance-single:
     :
     Challenge:
     9:
     0.595,0.559,0.210,0.295,0.820:
2001
0000
3001
1000
0000
1000
0010
0001
,
0010
1000
0010
1000
0000
1000
0001
0010
,
0200
0000
0310
0001
0000
0100
1000
0100
,
0001
0010
1000
0100
1000
0010
1000
0000
,
1001
0000
0000
1000
0000
1000
0001
0000
0000
0010
0000
0000
0200
0000
0000
0000
0000
0000
0310
0000
0000
0000
0000
0000
,
0011
0000
0000
1000
0000
1000
0001
0000
0000
0010
0000
0000
2010
0000
0000
0001
0000
0000
3100
0000
0000
0010
0000
0000
,
0001
0000
0001
1000
0000
0000
0010
0000
0000
1000
0000
0010
0000
0000
0000
2000
0000
0000
3010
0000
0000
0100
0000
0000
,
0010
0000
0000
0001
0000
0000
1000
0000
0000
0010
0000
0100
0000
0000
1000
0000
0000
0010
0000
0000
0100
0000
0000
0000
,
1001
0000
0000
0010
0000
0000
0100
0000
0000
1000
0000
0001
0000
0000
0000
0200
0000
0000
1300
0000
0000
0002
0000
0000
,
0103
0000
0000
0010
0000
1000
0001
0000
0000
0010
0000
1000
0000
0000
0000
0200
0000
0000
0310
0000
0000
0100
0000
0001
,
1000
0000
1000
0001
0000
0001
1000
0000
0000
0010
0000
0000
0100
0000
0000
1000
0000
0000
0001
0000
0000
0100
0000
0000
,
1001
0001
1000
0001
2000
0000
3010
0000
,
2002
0000
0000
3003
0000
0000
0000
0000
0000
0000
1000
0000
0001
0000
0000
0000
0000
0000
0010
0000
0000
0000
0100
0000
0010
0000
0000
0000
0000
0000
1000
0000
0000
0000
0000
0000
0010
0000
0000
0000
0000
0000
1000
0000
0000
0000
0000
0000
,
0001
0000
0000
1000
0000
0010
0000
0000
0100
0000
0000
0010
0000
0000
1000
0000
0000
0010
0000
0000
0001
0000
0000
1000
,
0000
0000
0000
0000
0000
0000
0000
0000
0000
0001
0000
0000
1000
0000
0000
0000
0000
0000
0001
0000
0000
0000
0000
0000
1000
0000
0000
0000
0000
0000
0100
0000
0000
0000
0000
0000
0010
0000
0000
0000
0000
0000
0001
0000
0000
0000
0100
0000
,
0000
0010
0000
0001
0000
1000
0000
0100
0000
0010
0000
1000
0000
0000
0000
0000
,
0000
0000
0010
0001
0000
0000
0010
0000
0000
0012
0000
0000
0003
0000
0000
0100
0000
0000
1000
0000
0000
2100
0000
0000
,
3000
0000
0010
0000
0100
0000
0210
0000
0300
0000
0001
0000
1000
0000
0000
2002
,
0000
0000
0000
3003
0000
0000
0010
0000
0000
0001
0000
0000
1000
0000
0000
0010
0000
0000
0100
0000
1000
0000
0000
0020
,
0000
0000
0000
0100
0000
0100
0000
0200
0000
0000
0000
0000
0330
0000
0000
0000
,
0110
0000
0010
0100
0010
0100
0010
0000
0010
1000
0000
0010
,
0100
0000
0001
0100
0000
0001
0010
0000
1000
0001
0000
1000
,
0010
0000
0100
0001
0100
0001
0100
0000
0010
1000
0000
0001
,
0100
0000
0001
1000
0001
1000
0001
0000
1000
0010
0000
1000
,
0002
0000
1000
0003
0001
0000
2000
0000
0010
3000
0100
0000
,
0001
0000
1000
0010
1000
0010
1000
0000
0001
0000
0100
0000
,
1001
0000
0010
0000
1000
0000
0100
0000
0001
0100
0001
0100
,
0001
0000
0100
0000
0010
0000
1000
0000
0001
0000
0010
0000
,
1001
0000
0001
1000
0001
1000
0001
0000
0001
0010
0000
0001
,
1000
0000
0100
1000
0000
0100
0001
0000
0010
0100
0000
0010
,
0001
0000
1000
0100
1000
0100
1000
0000
0001
0010
0000
0100
,
1000
0000
0100
0010
0100
0010
0100
0000
0010
0001
0000
0010
,
0002
0000
0010
0003
0100
0000
0020
0000
0001
0030
1000
0000
,
0100
0000
0010
0001
0010
0001
0010
0000
0100
0000
1000
0000
,
0110
0000
0001
0000
0010
0000
1000
0000
0100
0010
0100
0010
,
0110
0000
0000
1000
0000
0000
0100
0000
0000
0010
0000
0000
1001
0000
0000
0000
,
0110
0000
0010
0100
0010
0100
0010
0000
0001
1000
0000
1000
,
0001
0000
0100
0010
0000
0010
0100
0000
0010
0100
0000
0001
,
0010
0000
0001
0010
0001
0010
0100
0000
1000
0010
0000
0100
,
0001
0000
0001
1000
0010
0100
0001
0000
0001
1000
0000
1000
,
0002
0000
0010
0000
0013
0000
2000
0000
0001
0000
3001
0000
,
0001
0000
0100
1000
0100
1000
0020
0000
0100
0000
0130
0000
,
0200
0000
0010
0000
0310
0000
1000
0000
0010
0100
0010
1000
,
0001
0000
0010
0000
0001
0000
1001
0000
1000
0000
0010
0000
,
1001
0000
1000
0001
1000
0001
1000
0000
0010
0100
0000
0001
,
0010
0000
0100
0010
0000
1000
0010
0000
1000
0010
0000
0001
,
0100
0000
0010
0100
0010
0100
0010
0000
0100
0001
0000
1000
,
0010
0000
0100
0001
0100
0001
1000
0000
0001
1000
0000
0010
,
0200
0000
0010
0000
0010
0000
0010
0000
0010
0300
0010
0000
,
0120
0000
0100
0000
0100
0000
0100
0000
0000
0030
0000
0000
,
2002
0003
0002
0003
,
3001
0000
0000
0000
;

//---------------dance-single - ----------------
#NOTES:
     dance-single:
     :
     Medium:
     5:
     0.369,0.365,0.153,0.172,0.000: // measure 1
0010
0000
0100
0010
0000
0000
0001
0000
,  // measure 2
1000
0000
0100
1000
0000
0000
0001
0000
,  // measure 3
0010
0000
0001
0010
0000
0000
0010
0100
,  // measure 4
0002
2003
3020
0130
,  // measure 5
0001
1000
0001
1000
0001
0000
0000
0000
,  // measure 6
0000
0010
0100
0010
0100
0000
0000
0001
,  // measure 7
0010
0100
1000
0010
1000
0000
0000
0001
,  // measure 8
1000
0100
0001
0100
0010
0010
0010
0000
,  // measure 9
0100
1000
0100
1000
0100
0000
0001
0000
,  // measure 10
0100
0010
0100
0010
0100
0000
0000
0001
,  // measure 11
0100
1000
0001
0010
0011
0000
0000
0000
,  // measure 12
0000
0100
0100
0100
0200
0000
0310
0000
,  // measure 13
1001
0000
0010
0001
1000
0001
0100
1000
,  // measure 14
0001
0000
1000
0000
0010
0100
0010
0100
,  // measure 15
0010
0000
0001
0000
1000
0000
0100
1000
,  // measure 16
0100
0000
0001
0000
0010
1000
0001
0000
,  // measure 17
0000
0100
1000
0002
0000
1003
0010
0200
,  // measure 18
0000
0301
0010
2000
0000
3001
0100
0000
,  // measure 19
0020
0000
0000
0000
,  // measure 20
0001
0000
0031
0000
,  // measure 21
1001
0100
1000
0010
,  // measure 22
0100
0000
0001
1000
0001
0000
0010
0000
,  // measure 23
0100
0000
0001
0010
0100
0000
0100
0000
,  // measure 24
1001
0000
0100
1000
0010
0000
0001
0000
,  // measure 25
1000
0010
0100
0000
0001
0010
0001
0000
,  // measure 26
0010
0100
0010
0000
0100
1000
0100
0000
,  // measure 27
0010
1000
0010
0000
1001
0000
0100
0010
,  // measure 28
1000
0100
0010
0000
0010
0100
0010
0000
,  // measure 29
0020
0130
0001
1000
,  // measure 30
0010
1000
0010
0000
0001
0100
0001
0000
,  // measure 31
1010
0100
1001
1000
,  // measure 32
0100
1000
0100
0000
0001
0010
0001
0000
,  // measure 33
0002
0100
0100
0103
,  // measure 34
2000
0100
0100
3100
,  // measure 35
0020
1000
1000
1030
,  // measure 36
2002
0000
0000
3003
,  // measure 37
1001
0010
0010
0010
,  // measure 38
0110
1100
0101
0100
,  // measure 39
1001
1010
1000
0001
,  // measure 40
0001
1000
0001
0000
0001
0010
1000
0000
,  // measure 41
0001
0100
1000
0010
,  // measure 42
0100
0000
0001
0100
1001
0000
0010
0000
,  // measure 43
0100
0010
1000
0010
,  // measure 44
1000
0010
0100
0000
0001
0000
0100
0000
,  // measure 45
1001
0010
0100
0010
,  // measure 46
1000
0000
0100
1000
0100
0000
0001
0000
,  // measure 47
0010
0000
1000
0100
0001
0000
0010
0000
,  // measure 48
1000
0010
1000
0000
0010
0100
0010
0000
,  // measure 49
0002
0000
0100
0000
,  // measure 50
2003
0000
3010
0000
,  // measure 51
0020
0000
0200
0000
,  // measure 52
0330
0000
0000
0000
;

//---------------dance-single - ----------------
#NOTES:
     dance-single:
     :
     Easy:
     3:
     0.244,0.316,0.153,0.257,0.000: // measure 1
0001
0000
1000
0001
,  // measure 2
1000
0000
0100
0010
,  // measure 3
0100
0000
0010
0001
,  // measure 4
0010
0002
0020
0033
,  // measure 5
1001
0001
1000
0000
,  // measure 6
0010
0100
0020
0030
,  // measure 7
0001
0001
0002
0003
,  // measure 8
1000
1000
2000
0020
,  // measure 9
3030
0100
0100
0000
,  // measure 10
0000
0010
0010
0000
,  // measure 11
0100
0100
0010
0010
,  // measure 12
0110
0100
1001
1001
,  // measure 13
1001
0000
0010
0000
,  // measure 14
0100
0000
0020
0230
,  // measure 15
0320
0030
0001
0000
,  // measure 16
2000
3002
0023
0130
,  // measure 17
0110
0000
0000
0000
0000
1001
0000
0000
,  // measure 18
0000
0011
0000
0000
,  // measure 19
1100
0100
0100
0010
,  // measure 20
0200
0000
0020
0330
,  // measure 21
1000
1000
1000
0000
,  // measure 22
0001
0001
0001
0000
,  // measure 23
0010
0100
0010
0000
,  // measure 24
1000
0001
1000
0000
,  // measure 25
0002
0000
0103
0000
,  // measure 26
2000
0000
3010
0000
,  // measure 27
0020
0000
0130
0000
,  // measure 28
0200
0000
0301
0000
,  // measure 29
0001
0010
0001
0000
,  // measure 30
1000
0001
0100
0000
,  // measure 31
1000
0010
0100
0000
,  // measure 32
0001
1000
0010
0000
,  // measure 33
0001
0000
1000
0000
,  // measure 34
1010
0000
0101
0000
,  // measure 35
0110
0000
1001
0000
,  // measure 36
2002
0000
0000
3003
,  // measure 37
0001
0100
0001
0000
,  // measure 38
1000
0010
1000
0000
,  // measure 39
0001
0100
0010
0000
,  // measure 40
1000
0100
0010
0001
,  // measure 41
0100
0000
0010
0000
,  // measure 42
0020
0000
0130
0000
,  // measure 43
1001
0000
0110
0000
,  // measure 44
0001
0100
1000
0000
,  // measure 45
0010
1000
0010
0000
,  // measure 46
0001
0100
0001
0000
,  // measure 47
0010
0010
0010
0000
,  // measure 48
0100
0100
0100
0000
,  // measure 49
2000
0000
0020
3030
,  // measure 50
0200
0000
0002
0303
,  // measure 51
0002
0000
2000
0000
,  // measure 52
3003
0000
0000
0000
;
