#TITLE:ひみつの言葉;
#SUBTITLE:;
#ARTIST:まじかるうに;
#TITLETRANSLIT:Himitsu no Kotoba;
#SUBTITLETRANSLIT:;
#ARTISTTRANSLIT:Majikaru ni;
#CREDIT:Lisek;
#BANNER:[12ths Week] - Himitsu no Kotoba.png;
#BACKGROUND:[12ths Week] - Himitsu no Kotoba-bg.png;
#LYRICSPATH:;
#CDTITLE:cdtitle.png;
#MUSIC:[12ths Week] - Himitsu no Kotoba.mp3;
#OFFSET:-0.476;
#SAMPLESTART:85.596;
#SAMPLELENGTH:12.800;
#SELECTABLE:YES;
#BPMS:0.000=150.000,95.000=126.000,96.000=69.000,110.000=66.500,111.000=77.200,112.000=154.000,143.000=127.500,144.000=72.500,159.000=68.000,167.000=75.000,168.000=149.000,208.000=142.000,209.000=140.000,210.000=135.000,211.000=133.000,212.000=130.000;
#STOPS:;
#BGCHANGES:;

//---------------dance-single - ----------------
#NOTES:
     dance-single:
     Lisek:
     Hard:
     8:
     0.468,0.518,0.239,0.110,0.473: // measure 1
0000
0000
0000
0000
,  // measure 2
0000
0000
0000
0000
,  // measure 3
0000
0000
0000
0001
0100
0010
1000
0001
0100
0010
1000
0001
,  // measure 4
0100
0000
0000
0110
0000
0000
1001
0000
0000
0001
0000
1000
,  // measure 5
0100
0001
0100
1000
,  // measure 6
0001
0000
1000
0100
0000
0100
0010
0000
0010
0001
0000
0001
,  // measure 7
1000
0001
0100
1000
,  // measure 8
0100
0000
0001
0010
0000
0010
0100
0000
0100
1000
0010
1000
,  // measure 9
0001
0100
1000
0100
,  // measure 10
0001
0000
0010
0100
0000
0100
1000
0000
0000
0001
0000
0000
,  // measure 11
1000
0010
0001
0010
,  // measure 12
1000
0000
0000
0001
0010
0100
1000
0000
0000
0000
0000
0000
,  // measure 13
2200
0000
0001
0000
0000
0010
0001
0000
0000
3310
0000
0000
,  // measure 14
0202
0000
0010
0000
0000
1000
0010
0000
0000
1303
0000
0000
,  // measure 15
1001
0110
1001
0110
,  // measure 16
2002
0010
0100
3013
,  // measure 17
1000
0000
0001
0000
0000
0010
0100
1000
0100
0010
0000
0001
,  // measure 18
0010
0000
0010
0100
0000
0100
1000
0000
1000
0001
0000
0000
,  // measure 19
1001
0000
0000
0000
0000
0010
0100
0000
0000
0001
0000
0000
,  // measure 20
1000
0100
0020
0030
,  // measure 21
0101
0000
0000
0001
0010
0100
1000
0000
0000
0100
0000
0000
,  // measure 22
1100
0000
0000
0100
0010
0001
0010
0000
0000
0000
0000
0000
,  // measure 23
1001
0000
0000
1000
0001
0100
0010
1000
0001
0100
0010
1000
,  // measure 24
0001
1000
0001
0000
,  // measure 25
1000
0001
0100
0001
1000
0010
0100
0010
,  // measure 26
0000
0000
0000
0010
0000
0000
1000
0000
0000
0001
0000
0000
2000
0000
0000
0000
0000
0000
3000
0000
0000
0001
0000
1000
,  // measure 27
0100
0000
0000
0010
0000
0000
0001
0000
0000
0010
0000
0000
0100
0000
0000
0000
0000
0100
0010
0000
0000
0001
0000
0000
,  // measure 28
1000
0000
0000
0010
0000
0010
0100
0000
0000
0001
0000
0000
2000
0000
0000
0000
0000
0000
3001
0000
0000
0000
0000
0000
,  // measure 29
1000
0100
0001
0100
,  // measure 30
1000
0000
0100
0010
0000
0010
0001
0000
0001
1000
0000
1000
,  // measure 31
0001
0100
1000
0100
,  // measure 32
0001
0000
1000
0100
0000
0100
0010
0000
0010
0001
0100
0001
,  // measure 33
1000
0010
0001
0010
,  // measure 34
1000
0000
0001
0010
0000
0010
0100
0000
0000
1000
0000
0000
,  // measure 35
0001
0010
1000
0010
,  // measure 36
0001
0000
0000
1000
0100
0010
0001
0000
0000
1000
0000
0000
,  // measure 37
0001
0100
0010
1000
0100
0010
0001
1000
,  // measure 38
0000
0000
0001
1000
0000
0000
0010
0000
0000
0100
0000
0000
0001
0000
0000
0101
0000
0000
0110
0000
0000
1010
0000
0000
,  // measure 39
1000
0000
0000
0001
0010
0100
1000
0000
0000
0001
0000
0000
1000
0000
0000
0001
0100
0010
1000
0000
0000
0001
0000
0000
,  // measure 40
1000
0100
0010
0001
1000
0001
1000
0010
,  // measure 41
0200
0000
0000
0000
0000
0000
0002
0000
0000
0300
0000
0000
0003
0000
1000
0000
0100
0000
0010
0000
0001
0000
1000
0000
,  // measure 42
1001
0000
0000
0000
0000
0000
M00M
0000
0000
0000
0000
0000
1001
0000
0000
0000
0000
0000
1000
0001
0100
0010
1000
0001
,  // measure 43
1000
0000
0001
0010
0000
0100
1000
0000
0001
0100
0000
0010
,  // measure 44
1000
0000
0001
0010
0000
0100
1000
0001
0100
0010
0000
1000
,  // measure 45
0100
0000
0010
0001
0000
1000
0010
0000
0100
0001
0000
0010
,  // measure 46
0100
0000
1001
0110
,  // measure 47
1000
0000
0001
0000
0000
0010
0100
1000
0100
0010
0000
0001
,  // measure 48
0100
0110
1001
0110
,  // measure 49
1001
0000
0000
0000
0000
0010
0100
0000
0000
0001
0000
0000
,  // measure 50
0010
0100
1000
0000
,  // measure 51
0001
0000
1000
0100
0000
1000
0100
0000
0000
0101
0000
0000
,  // measure 52
1000
0000
0001
0100
0000
0001
0100
0000
0000
1100
0000
0000
,  // measure 53
1000
0010
0100
0001
1000
0010
0100
0001
1000
0100
0010
0001
,  // measure 54
2000
0000
0000
3000
;

//---------------dance-single - ----------------
#NOTES:
     dance-single:
     Lisek:
     Beginner:
     1:
     0.054,0.122,0.018,0.055,0.000:
0000
0000
0000
0000
,
0000
0000
0000
0000
,
0000
0000
0000
0000
,
0000
0000
0000
0000
,
1000
0000
0000
0000
,
0000
0000
0000
0000
,
0001
0000
0000
0000
,
0000
0000
0000
0000
,
0100
0000
0000
0000
,
0000
0000
0000
0000
,
0010
0000
0000
0000
,
0000
0000
0000
0000
,
1000
0000
0000
0000
,
0001
0000
0000
0000
,
1000
0000
0000
0000
,
0001
0000
0000
0000
,
0100
0000
0000
0000
,
0010
0000
0000
0000
,
0100
0000
0000
0000
,
0000
0000
0000
0000
,
0001
0000
0000
0000
,
0000
0000
0000
0000
,
1000
0000
0000
0000
,
0000
0000
0000
0000
,
0001
0000
0000
0000
,
1000
0000
0000
0000
,
0010
0000
0000
0000
,
0100
0000
0000
0000
,
0001
0000
0000
0000
,
0000
0000
0000
0000
,
1000
0000
0000
0000
,
0000
0000
0000
0000
,
0010
0000
0000
0000
,
0000
0000
0000
0000
,
0100
0000
0000
0000
,
0000
0000
0000
0000
,
0002
0000
0000
0000
,
0000
0000
0003
0000
,
2000
0000
0000
0000
,
0000
0000
3000
0000
,
2002
0000
0000
0000
,
3003
0000
0000
0000
,
0001
0000
0000
0000
,
0100
0000
0000
0000
,
0001
0000
0000
0000
,
0000
0000
0000
0000
,
1000
0000
0000
0000
,
0010
0000
0000
0000
,
1000
0000
0000
0000
,
0000
0000
0000
0000
,
0001
0000
0000
0000
,
1000
0000
0000
0000
,
2002
0000
0000
0000
,
3003
0000
0000
0000
;

//---------------dance-single - ----------------
#NOTES:
     dance-single:
     Lisek:
     Easy:
     2:
     0.156,0.219,0.028,0.073,0.000:
0000
0000
0000
0000
,
0000
0000
0000
0000
,
0000
0000
0000
0000
,
0000
0000
0000
0000
,
1000
0000
0001
0000
,
1000
0000
0000
0000
,
0001
0000
0100
0000
,
0001
0000
0000
0000
,
1000
0000
0010
0000
,
1000
0000
0000
0000
,
0001
0000
1000
0000
,
0001
0000
0000
0000
,
1000
0000
1000
0000
,
0001
0000
0001
0000
,
1000
0001
1000
0001
,
1000
0000
0001
0000
,
0000
0000
0100
0000
,
0010
0000
1000
0000
,
0001
0000
1000
0000
,
0001
1000
0001
0000
,
1000
0000
0100
0000
,
0010
0000
0001
0000
,
1000
0000
0001
0000
,
1001
0000
0000
0000
,
0001
0001
0100
0100
,
0010
0010
0200
0300
,
0001
0001
1000
1000
,
0100
0100
0020
0030
,
0001
1000
0001
1000
,
0001
0000
0000
0000
,
0100
0010
0100
0010
,
0100
0000
0000
0000
,
0001
0100
0001
0100
,
0001
0000
0000
0000
,
1000
0010
1000
0010
,
1000
0000
0000
0000
,
0002
1003
2000
3001
,
0000
1000
0010
0000
,
0200
0310
0020
0130
,
0000
0010
1000
0000
,
0001
0000
0000
0000
,
1001
0000
0000
0000
,
1000
0000
1000
0000
,
0001
0000
0001
0000
,
1000
0001
1000
0001
,
1000
0000
0000
0000
,
0001
0000
0001
0000
,
0100
0000
0100
0000
,
0010
0000
0100
0000
,
0010
0100
0010
0000
,
1000
0000
0100
0000
,
1000
0000
0001
0000
,
2002
0000
0000
0000
,
3003
0000
0000
0000
;

//---------------dance-single - ----------------
#NOTES:
     dance-single:
     Lisek:
     Medium:
     6:
     0.332,0.414,0.119,0.119,0.152:
0000
0000
0000
0000
,
0000
0000
0000
0000
,
0000
0000
0000
0000
,
0000
0000
0000
0000
,
1000
0001
0100
0010
,
0200
0010
0310
0010
,
1000
0001
0100
0001
,
2000
0100
3100
0100
,
0010
0001
1000
0001
,
0200
0001
0301
0001
,
1000
0010
0100
0001
,
1000
0001
1001
0000
,
1000
0000
1000
0100
0000
0100
1000
0000
0000
0010
0000
0000
,
0100
0000
0100
0010
0000
0010
0100
0000
0000
0001
0000
0000
,
1001
0110
1001
0110
,
2002
0000
0000
3003
,
0001
0100
0010
1000
,
0001
0010
0100
1000
,
1001
0000
0000
0000
0000
1000
0001
0000
0000
0100
0000
0000
,
0010
1000
0001
0000
,
1000
0000
0000
0100
1000
0100
1000
0000
0000
1001
0000
0000
,
0000
0000
0000
0100
0010
0100
0010
0000
0000
0000
0000
0000
,
0000
0000
0000
1000
0001
1000
0001
1000
0001
1000
0001
1000
,
0001
1000
1001
0000
,
1000
0100
0010
0000
0001
0100
0010
0000
,
1000
0010
0100
0001
2000
0000
3000
0000
,
0001
0010
0100
0000
1000
0010
0100
0000
,
0001
1000
0010
0100
0002
0000
1003
0000
,
0001
0100
0010
1000
,
0001
0000
0010
0001
0000
0001
0010
0000
0000
0001
0000
0000
,
1000
0010
0100
0010
,
1000
0000
0100
1000
0000
1000
0100
0000
0000
1000
0000
0000
,
0001
0100
0010
0100
,
0001
0000
1000
0001
0000
0001
1000
0000
0000
0001
0000
0000
,
1000
0010
0100
0001
,
1000
0000
0000
0001
1000
0001
1000
0000
0000
0000
0000
0000
,
0001
0010
0001
0010
0100
1000
0010
0100
,
0000
0001
0010
0100
0020
0001
0001
0031
,
1000
0010
0100
0100
0001
0100
0010
0010
,
1000
0001
0100
0010
2000
0000
3000
0000
,
0002
2003
3000
0001
,
1001
0000
0000
0000
,
1000
0000
1000
0100
0000
0000
1000
0000
1000
0100
0000
0000
,
0010
0001
0100
0010
,
0100
0000
0001
0100
0000
0000
0100
0000
0001
0100
0000
0000
,
0001
1000
0010
0100
,
0001
0000
0000
0010
0000
0000
0100
1000
0100
1000
0000
0000
,
0001
1000
0001
1000
,
1001
0000
0010
0000
,
0100
0010
0110
0000
,
1000
0000
0100
0010
0000
0100
0010
0000
0000
0001
0000
0000
,
0001
0000
0100
0010
0000
0100
0010
0000
0000
1000
0000
0000
,
2002
0000
0000
0000
,
3003
0000
0000
0000
;
