#TITLE:Gigadelic;
#SUBTITLE:;
#ARTIST:Teranoid feat. MC Natsack;
#TITLETRANSLIT:;
#SUBTITLETRANSLIT:;
#ARTISTTRANSLIT:;
#CREDIT:3MB;
#BANNER:[12ths week] - Gigadelic-bn.png;
#BACKGROUND:[12ths week] - Gigadelic-bg.png;
#LYRICSPATH:;
#CDTITLE:;
#MUSIC:[12ths week] - Gigadelic.mp3;
#OFFSET:0.000;
#SAMPLESTART:34.791;
#SAMPLELENGTH:12.000;
#SELECTABLE:YES;
#BPMS:0.000=172.740;
#STOPS:;
#BGCHANGES:0.000=gigadelic.avi=1.000=0=0=1,
99999=-nosongbg-=1.000=0=0=0 // don't automatically add -songbackground-
;

//---------------dance-single - ----------------
#NOTES:
     dance-single:
     :
     Beginner:
     2:
     0.177,0.239,0.093,0.008,0.000:
0000
0000
0000
0000
,
0000
0000
0000
0000
,
0000
0000
0000
0000
,
0000
0000
0000
0000
,
0000
0001
0000
0001
,
0000
1000
0000
1000
,
0000
0100
0100
0100
,
0100
0100
0100
0100
,
0000
1001
0000
1000
,
0000
0100
0000
0001
,
0000
0010
0000
1000
,
0000
1000
0000
0100
,
0000
1001
0000
0010
,
0000
0001
0000
0100
,
0000
1000
0000
0100
,
0000
0010
0000
0001
,
0000
1001
0000
0010
,
0000
0100
0000
0010
,
0000
1000
0000
0010
,
0000
0001
0000
0010
,
0000
0110
0000
0100
,
0000
1000
0000
0100
,
0000
0001
0000
0100
,
0000
0020
0000
0000
,
0030
1000
0000
0000
,
0000
0001
0000
0000
,
0000
0100
0000
0000
,
0000
0010
0000
0000
,
0000
1001
0000
0000
,
0000
0010
0000
0000
,
0000
1000
0000
0000
,
0000
0110
0000
0000
,
0000
0001
0000
0000
,
0000
0010
0000
0000
,
0000
1000
0000
0000
,
0000
1001
0000
0000
,
0000
0010
0000
0000
,
0000
1000
0000
0000
,
0000
0001
0000
0000
,
0000
1001
0000
0000
,
0000
0100
0000
0000
,
0000
1000
0000
0000
,
0000
0001
0000
0000
,
0000
0010
0000
0000
,
0000
0100
0000
0000
,
0000
0000
0000
0000
,
0000
1000
0000
0000
,
0000
0010
0000
0000
,
0000
1001
0000
0000
,
0000
0000
0000
0000
,
0000
0000
0000
0000
,
0000
0000
0000
0000
,
0000
0000
0000
0000
,
0000
0000
0000
0000
,
0000
0000
0000
0000
,
0000
0000
0000
0000
,
0000
0001
0001
0001
,
0001
0001
0001
0001
,
0000
1000
1000
1000
,
1000
1000
1000
1000
,
0000
0010
0010
0010
,
0010
0010
0010
0010
,
0000
0100
0100
0100
,
0100
0100
0100
0100
,
0000
1001
0000
0010
,
0000
1000
0000
0100
,
0000
0001
0000
0100
,
0000
1000
0000
0010
,
0000
0110
0000
0001
,
0000
0100
0000
1000
,
0000
0010
0000
0001
,
0000
0010
0000
0000
,
0000
1000
1000
1000
,
0000
0100
0100
0100
,
0000
0001
0001
0001
,
0000
0010
0010
0010
,
0000
1000
1000
1000
,
0000
0100
0100
0100
,
0000
0010
0010
0010
,
0010
0010
0000
0000
,
0000
0001
0001
0001
,
0000
0000
0000
0000
,
0000
0100
0100
0100
,
0000
0000
0000
0000
,
0000
0010
0010
0010
,
0000
0000
0000
0000
,
0000
1000
1000
1000
,
0000
0100
0000
0100
,
0000
1001
0000
0000
;

//---------------dance-single - Copied from----------------
#NOTES:
     dance-single:
     Copied from:
     Easy:
     5:
     0.308,0.448,0.240,0.178,0.000: // measure 1
0000
0000
0000
0000
,  // measure 2
0000
0000
0000
0000
,  // measure 3
0000
0000
0000
0000
,  // measure 4
0000
0000
0000
0000
,  // measure 5
0000
0001
1000
0001
,  // measure 6
0000
1000
0001
1000
,  // measure 7
0000
0100
0100
0100
,  // measure 8
0100
0100
0100
0110
,  // measure 9
0000
1001
0000
1000
,  // measure 10
0000
0100
0000
0001
,  // measure 11
0001
0010
0000
1000
,  // measure 12
0000
1000
1000
0100
,  // measure 13
0000
1001
0000
0010
,  // measure 14
0000
0001
0001
0100
,  // measure 15
0100
1000
0000
0100
,  // measure 16
0000
0010
0010
0001
,  // measure 17
0000
1001
0000
0100
,  // measure 18
0100
0010
0010
0100
,  // measure 19
0100
1000
1000
0010
,  // measure 20
0010
0001
0001
0010
,  // measure 21
0100
0110
0000
0100
,  // measure 22
0100
0001
0001
0100
,  // measure 23
0100
1000
1000
0100
,  // measure 24
0010
0220
0000
0000
,  // measure 25
0330
2000
0000
3100
,  // measure 26
0000
0002
0000
0013
,  // measure 27
0000
0200
0000
0310
,  // measure 28
0000
2000
0000
3001
,  // measure 29
0000
1002
0000
0103
,  // measure 30
0000
0020
0000
0031
,  // measure 31
0000
2000
0000
3010
,  // measure 32
0000
0110
0000
0000
,  // measure 33
0000
0002
0000
1003
,  // measure 34
0000
0020
0000
0031
,  // measure 35
0000
2000
0000
3100
,  // measure 36
0000
1001
0000
0000
,  // measure 37
0000
0020
0000
0130
,  // measure 38
0000
2000
0000
3100
,  // measure 39
0000
0002
0000
1003
,  // measure 40
0000
1001
0000
0000
,  // measure 41
0000
0200
0000
0310
,  // measure 42
0000
2000
0000
3100
,  // measure 43
0000
0002
0000
0103
,  // measure 44
0000
0020
0000
1030
,  // measure 45
0000
0100
0000
0000
,  // measure 46
0000
0000
0000
0001
,  // measure 47
0000
1000
0000
0000
,  // measure 48
0000
0010
0000
0000
,  // measure 49
0000
1001
0000
0000
,  // measure 50
0000
0100
0000
0000
,  // measure 51
0000
0001
0000
0000
,  // measure 52
0000
0010
0000
0000
,  // measure 53
0000
1000
0000
0000
,  // measure 54
0000
0001
0000
0000
,  // measure 55
0000
0010
0000
0000
,  // measure 56
0000
0100
0000
0000
,  // measure 57
0000
1001
0001
0001
,  // measure 58
0001
0001
0001
0001
,  // measure 59
0100
1000
1000
1000
,  // measure 60
1000
1000
1000
1000
,  // measure 61
0001
0010
0010
0010
,  // measure 62
0010
0010
0010
0010
,  // measure 63
1000
0100
0100
0100
,  // measure 64
0100
0100
0100
0100
,  // measure 65
0000
1001
0001
0010
,  // measure 66
0010
1000
1000
0100
,  // measure 67
0100
0001
0001
0010
,  // measure 68
0010
1000
1000
0100
,  // measure 69
0010
0110
0100
0001
,  // measure 70
0001
0100
0100
1000
,  // measure 71
1000
0010
0010
0001
,  // measure 72
0001
0202
0000
0303
,  // measure 73
0000
1001
1000
1001
,  // measure 74
0001
0101
0100
0101
,  // measure 75
0001
0011
0001
0011
,  // measure 76
0010
0110
0010
0110
,  // measure 77
0100
1100
1000
1100
,  // measure 78
1000
1010
0010
1010
,  // measure 79
0010
0110
0010
0110
,  // measure 80
0010
1001
0000
0000
,  // measure 81
0000
0001
0001
0001
,  // measure 82
0001
0010
0000
0010
,  // measure 83
0000
0100
0100
0100
,  // measure 84
0100
1000
0000
1000
,  // measure 85
0000
0010
0010
0010
,  // measure 86
0010
0001
0000
0001
,  // measure 87
0000
1000
1000
1000
,  // measure 88
0010
0100
0000
0100
,  // measure 89
0000
2002
0000
0000
,  // measure 90
3003
0000
0000
0000
;

//---------------dance-single - Copied from Copied f----------------
#NOTES:
     dance-single:
     Copied from Copied f:
     Medium:
     7:
     0.414,0.448,0.395,0.380,0.023:
0000
0000
0000
0000
,
0000
0000
0000
0000
,
0000
0000
0000
0000
,
0000
0000
0000
0000
,
0000
0001
1000
0001
,
0000
1000
0001
1000
,
0000
0100
0100
0100
,
0100
0100
0100
0110
,
0000
1001
0100
1010
,
1000
0100
0010
0001
,
0001
0010
1000
1100
,
0100
0010
0010
0202
,
0303
1001
1000
0010
,
0100
0000
0000
0001
0000
0000
0001
0000
1000
0100
0000
0001
,
0100
1000
0010
0100
,
0001
1000
1000
2200
,
3300
1001
0001
0100
,
0100
0010
0010
0100
,
0100
1000
1000
0010
,
0010
0001
0001
0020
,
0130
0110
0010
0100
,
0100
0001
0001
0100
,
0100
1000
1000
0100
,
0010
0220
0000
0000
,
0330
2000
0100
3100
,
0010
0002
0010
0013
,
1000
0200
0010
0310
,
0001
2000
0001
3001
,
0100
1002
0100
0103
,
1000
0020
0001
0031
,
0100
2000
0010
3010
,
0100
0220
0000
0330
,
0000
0012
1000
1003
,
0100
0020
0001
0031
,
0100
2000
0010
3010
,
0001
2002
0000
3003
,
0000
0120
0001
0031
,
0100
2000
0010
3010
,
0100
0002
1000
1003
,
0100
2002
0000
3003
,
0000
1200
0010
0310
,
0001
2000
0100
3100
,
0010
0002
1000
1003
,
0100
0020
0001
0031
,
1000
0200
0000
0000
,
0000
0000
0000
0002
,
0300
2000
0000
0000
,
0003
0020
0000
0000
,
3030
2002
0000
0000
,
0003
0200
0000
0000
,
3000
0002
0000
0000
,
0300
0020
0000
0000
,
0033
0220
0000
0000
,
0030
0002
0000
0000
,
0300
0020
0000
0000
,
0003
0200
0000
0000
,
0330
1001
0001
0001
,
0001
0001
0001
0001
,
0100
0000
0010
1000
0000
0000
1000
0000
0000
1000
0000
0000
,
1000
0000
0000
1000
0000
0000
1000
0000
0000
1000
0000
0010
,
0001
0000
0100
0010
0000
0000
0010
0000
0000
0010
0000
0000
,
0010
0010
0010
0010
,
1000
0000
0001
0100
0000
0000
0100
0000
0000
0100
0000
0000
,
0100
0110
0000
0000
,
0000
1001
0100
0010
,
0001
1000
0001
0100
,
1000
0001
0010
0100
,
0010
1000
0001
0200
,
0310
0110
0100
1000
,
0001
0010
0100
1000
,
0100
0010
0001
1000
,
0001
0202
0000
0303
,
0000
1001
0001
1001
,
1000
1010
0010
1010
,
1000
1100
1000
1100
,
0100
0110
0100
0110
,
0010
0011
0001
0011
,
0001
0101
0100
0101
,
0100
0110
0101
0110
,
1010
1001
0000
1001
,
0000
0010
0001
0010
,
0001
0011
0000
0011
,
0000
0100
1000
0100
,
1000
1100
0000
1100
,
0000
0010
0100
0010
,
0100
0110
0000
0110
,
0000
1000
0001
1000
,
0010
0101
0000
1100
,
0000
2002
0000
0000
,
3003
0000
0000
0000
;

//---------------dance-single - Copied from Copied f----------------
#NOTES:
     dance-single:
     Copied from Copied f:
     Hard:
     9:
     0.585,0.718,0.481,0.543,0.488:
0000
0000
0000
0000
,
0000
0000
0000
0000
,
0000
0000
0000
0000
,
0000
0000
0000
0000
,
0000
1001
1000
1001
,
0100
1001
0001
1001
,
0010
0000
0000
0100
1000
0010
0100
0001
0010
0100
1000
0010
,
0100
0001
0010
0100
1000
0010
0100
0001
0100
0110
0000
0000
,
0000
0000
0000
1001
0000
0000
0100
0000
0000
0010
0001
0100
,
1000
0000
0000
0100
1000
0100
0010
0001
0010
0011
0000
0000
,
0101
0000
0000
0010
0000
0000
1000
0000
0000
1100
1000
0010
,
0100
0000
0000
0010
0100
0001
0010
0001
0100
0202
0000
0000
,
0303
0000
0000
1001
0000
0000
1100
0000
0000
0010
1000
0010
,
0100
0000
0000
0001
0010
0100
0001
0000
1000
0100
0000
0001
,
0101
0000
0000
1000
0000
0000
0010
0000
0000
0100
1000
0010
,
0001
0000
0000
1000
0100
0001
0010
0000
1000
2200
0000
0000
,
3300
0000
0000
1001
0000
0000
0001
0000
0001
0100
0000
0100
,
1000
0000
1000
0010
0000
0010
0001
0000
0001
0100
0000
0100
,
1000
0000
1000
0001
0000
0001
1000
0000
1000
0010
0000
0010
,
0100
0000
0100
0001
0000
0001
1000
0000
1000
0020
0000
0000
,
0130
0000
0000
0110
0000
0000
0010
0000
0010
0100
0000
0100
,
1000
0000
1000
0001
0000
0001
1000
0000
1000
0100
0000
0100
,
0010
0000
0010
0001
0000
0001
1000
0000
1000
0010
0000
0010
,
0100
0220
0000
0330
,
0000
2001
0100
3010
,
0010
0000
0010
0002
0000
0000
0100
0000
0000
1003
0000
0000
,
1000
0000
1000
0200
0000
0000
0010
0000
0000
0301
0000
0000
,
0001
0000
0001
2000
0000
0000
0001
0000
0000
3010
0000
0000
,
0100
1002
0100
1003
,
1000
0000
1000
0020
0000
0000
0001
0000
0000
0130
0000
0000
,
0100
0000
0100
2000
0000
0000
0010
0000
0000
3001
0000
0000
,
0100
0220
0000
0330
,
0000
0012
0100
1003
,
1000
0000
1000
0020
0000
0000
0001
0000
0000
0130
0000
0000
,
0100
0000
0100
2000
0000
0000
0010
0000
0000
3001
0000
0000
,
0100
2002
0000
3003
,
0000
0120
0001
0130
,
0100
0000
0100
2000
0000
0000
0010
0000
0000
3100
0000
0000
,
0100
0000
0100
0002
0000
0000
1000
0000
0000
0103
0000
0000
,
0010
2002
0000
3003
,
0000
1200
0010
0301
,
0001
0000
0001
2000
0000
0000
0100
0000
0000
3010
0000
0000
,
0010
0000
0010
0002
0000
0000
1000
0000
0000
0103
0000
0000
,
0100
0000
0100
0020
0000
0000
0001
0000
0000
1030
0000
0000
,
1001
0220
0000
0000
,
0000
0000
0030
0002
,
0300
2000
0000
0000
,
0003
0020
0000
0000
,
3030
2002
0000
0000
,
0003
0200
0000
0000
,
3000
0002
0000
0000
,
0300
0020
0000
0000
,
0033
0220
0000
0000
,
0030
0002
0000
0000
,
0300
0020
0000
0000
,
0003
0200
0000
0000
,
0330
1001
1000
0001
,
1000
0001
1000
0001
,
0100
0000
0010
1000
0000
0000
0100
0000
0000
1000
0000
0000
,
0100
0000
0000
1000
0000
0000
0100
0000
0000
1000
0000
0010
,
0001
0000
0100
0010
0000
0000
0001
0000
0000
0010
0000
0000
,
0001
0010
0001
0010
,
1000
0000
0001
0100
0000
0000
0010
0000
0000
0100
0000
0000
,
0010
0220
0000
0330
,
0000
0000
0000
1001
0000
0000
0100
0000
0100
1000
0000
1000
,
0001
0000
0001
0010
0000
0010
0001
0000
0001
0100
0000
0100
,
1000
0000
1000
0001
0000
0001
0010
0000
0010
0100
0000
0100
,
0010
0000
0010
1000
0000
1000
0001
0000
0001
0201
0000
0000
,
0310
0000
0000
0110
0000
0000
0100
0000
0100
1000
0000
1000
,
0001
0000
0001
0010
0000
0010
0100
0000
0100
1000
0000
1000
,
0100
0000
0100
0010
0000
0010
0001
0000
0001
1000
0000
0000
,
0010
0000
0100
0202
0000
0000
0000
0000
0000
0303
0000
0000
,
0000
0000
0001
1001
0000
0000
0001
0000
1000
1001
0000
0000
,
1000
0000
0010
1010
0000
0000
0010
0000
1000
1010
0000
0000
,
1000
0000
0100
1100
0000
0000
0100
0000
1000
1100
0000
0000
,
0010
0000
0100
0110
0000
0000
0100
0000
0010
0110
0000
0000
,
0010
0000
0001
0011
0000
0000
0001
0000
0010
0011
0000
0000
,
0001
0000
0100
0101
0000
0000
0100
0000
0001
0101
0000
0000
,
0100
0000
0010
0110
0000
0000
0101
0000
0000
1001
0000
0000
,
1010
0220
0330
2002
,
3003
0000
0000
0010
0000
0010
0001
0000
0001
0010
0000
0010
,
0001
0000
0010
0022
0000
0000
0033
0000
0000
2002
0000
0000
,
3003
0000
0000
0100
0000
0100
1000
0000
1000
0100
0000
0100
,
1000
0000
0100
2200
0000
0000
3300
0000
0000
2002
0000
0000
,
3003
0000
0000
0010
0000
0010
0100
0000
0100
0010
0000
0010
,
0100
0000
0010
0220
0000
0000
0330
0000
0000
2020
0000
0000
,
3030
0000
0000
1000
0000
1000
0001
0000
0001
1000
0000
1000
,
0010
0000
0001
0202
0000
0000
0303
0000
0000
2200
0000
0000
,
3300
1001
0000
0000
;
