#TITLE:Chronoxia;
#SUBTITLE:;
#ARTIST:DJ Totoriott;
#TITLETRANSLIT:;
#SUBTITLETRANSLIT:;
#ARTISTTRANSLIT:;
#GENRE:;
#CREDIT:Silverhawke;
#MENUCOLOR:;
#METERTYPE:DDR;
#BANNER:[12ths Week] - Chronoxia.png;
#BACKGROUND:[12ths Week] - Chronoxia-bg.png;
#LYRICSPATH:;
#CDTITLE:cdtitle.png;
#MUSIC:[12ths Week] - Chronoxia.mp3;
#OFFSET:-0.028;
#SAMPLESTART:81.361;
#SAMPLELENGTH:15.000;
#SELECTABLE:YES;
#LISTSORT:;
#BPMS:0.000=180.000;
#STOPS:;
#BGCHANGES:;
#ATTACKS:;

//---------------dance-single - ----------------
#NOTES:
     dance-single:
     :
     Hard:
     10:
     0.724,0.853,0.149,0.219,0.520: // measure 1
0000
0000
0000
0000
,  // measure 2
0000
0000
0000
0000
,  // measure 3
0000
0000
0000
0000
,  // measure 4
0000
0000
0000
0000
,  // measure 5
0000
0000
0000
0000
,  // measure 6
0001
0000
0001
0000
,  // measure 7
0100
0000
0100
0000
,  // measure 8
1000
0000
1000
0000
,  // measure 9
0010
0000
0010
0000
,  // measure 10
1001
0000
0100
0000
,  // measure 11
0001
0000
0010
0000
,  // measure 12
1001
0000
0010
0000
,  // measure 13
0001
0000
0100
0000
,  // measure 14
1010
0100
0001
1000
,  // measure 15
0011
0100
1000
0001
,  // measure 16
1100
0000
0000
0101
0000
0000
1000
0001
1000
0001
1000
0001
,  // measure 17
0010
0000
0100
0000
1000
0001
0100
0000
,  // measure 18
0010
0000
1000
0000
,  // measure 19
0001
0000
0010
0110
,  // measure 20
1001
1001
0000
0000
1000
1000
0000
0000
,  // measure 21
0010
0010
0000
0000
0100
0000
0110
0000
,  // measure 22
1001
0000
0001
0000
0010
0000
0100
1000
0100
0000
0010
0000
0001
0000
1000
0000
,  // measure 23
0100
0000
1000
0000
0010
0000
0100
0001
0100
0000
0010
0000
1000
0000
0001
0000
,  // measure 24
0100
0100
0010
0010
1000
1000
0001
0001
,  // measure 25
0010
0100
1000
0001
0100
0010
1000
0001
,  // measure 26
0010
0100
0010
0100
0010
0000
0001
0000
0100
0000
0010
0000
0001
0000
0010
0000
,  // measure 27
2000
0100
0001
3010
,  // measure 28
0100
0010
0100
0010
0100
0000
0001
0000
0010
0000
1000
0000
0010
0000
0001
0000
,  // measure 29
0200
0000
1000
0000
0301
0010
0100
1000
,  // measure 30
0001
0100
0001
0100
0001
0000
1000
0000
0100
0000
0001
0000
0100
0000
1000
0000
,  // measure 31
0020
0001
0100
1030
,  // measure 32
0001
0000
0000
0001
0010
0000
0000
0010
0100
0000
0000
0100
1000
0000
0000
1000
,  // measure 33
0001
0000
0100
0000
1000
0000
0200
0000
0010
0000
0000
0000
0301
1000
0001
0000
,  // measure 34
0010
0100
0010
0100
0010
0000
0100
1000
0100
0000
0010
0000
1000
0000
0010
0000
,  // measure 35
0002
0100
1000
0013
,  // measure 36
0100
0010
0100
0010
0100
0000
0010
0001
0010
0000
0100
0000
0001
0000
0100
0000
,  // measure 37
2000
0000
0010
0000
3001
0100
0010
1000
,  // measure 38
0001
0000
0000
0000
0100
0000
0010
1000
0010
0000
0000
0000
0100
0000
0001
0000
,  // measure 39
1000
0000
0100
0010
0001
0010
0100
1000
,  // measure 40
0002
0000
0000
0000
0100
0000
0000
0000
2003
0000
0000
0000
3100
0010
0100
0000
,  // measure 41
1000
1100
0000
0000
0001
0101
0000
0000
,  // measure 42
1000
0100
1000
0100
0000
0100
0010
0000
0010
0001
0000
0001
,  // measure 43
0100
0010
0100
0010
0000
0010
1000
0000
1000
0001
0000
0000
,  // measure 44
0001
0100
0001
0100
0000
0100
0010
0000
0010
1000
0000
1000
,  // measure 45
0100
0010
0100
0010
0000
0010
0001
0000
0001
1000
0000
1000
,  // measure 46
0010
0100
0010
0100
0000
0100
0001
0000
0001
1000
0000
1000
,  // measure 47
0100
0010
0100
0010
0000
0010
0001
0000
0001
1000
0000
0000
,  // measure 48
0001
0010
0100
1000
0000
0001
1000
0100
0010
0001
0000
1000
,  // measure 49
0001
0100
0001
1000
0100
1000
0001
0010
0100
1000
0000
1000
,  // measure 50
0002
0000
0100
0000
,  // measure 51
2003
0000
0100
0000
,  // measure 52
3002
0000
0023
0230
,  // measure 53
2300
3020
0230
0302
,  // measure 54
2003
0000
0010
0000
,  // measure 55
3002
0000
0023
0230
,  // measure 56
2300
0000
0100
0000
,  // measure 57
3002
0000
0100
0003
,  // measure 58
1001
0000
0000
1000
0100
0000
0000
1000
0100
0000
0000
0010
0001
0000
0000
0010
,  // measure 59
0001
0000
0000
1000
0010
0000
0000
1000
0010
0000
0000
0100
0001
0000
0100
0000
,  // measure 60
0001
0010
0100
1000
0010
0100
0001
0010
,  // measure 61
0100
1000
0100
1000
0001
0100
0001
0100
0010
0000
0000
0000
0000
0000
0000
0000
,  // measure 62
1001
0000
0000
0000
0001
0100
0001
0100
0001
0000
0000
0000
1000
0100
1000
0100
,  // measure 63
1000
0010
0001
0010
1000
0000
0001
0010
,  // measure 64
0100
0000
0000
0000
1000
0000
0001
0100
0001
0000
1000
0000
0100
0000
0010
0000
,  // measure 65
0001
0000
0100
0000
0010
0000
1000
0000
0000
0000
0001
1000
0001
0000
0100
0000
,  // measure 66
0010
0000
0000
0000
1000
0100
1000
0100
1000
0000
0000
0000
0001
0100
0001
0100
,  // measure 67
0001
0010
1000
0010
0001
0000
1000
0100
,  // measure 68
0020
0000
0001
0000
0130
1000
0001
0100
,  // measure 69
0010
0000
0000
0000
1000
0100
1000
0000
0001
0000
0100
0000
0010
0000
1000
0000
,  // measure 70
0100
0000
0000
0000
0010
0001
0010
0001
1000
0000
0000
0000
0010
1000
0010
1000
,  // measure 71
0001
0100
1000
0100
0001
0000
1000
0100
,  // measure 72
0010
0000
0000
0000
0001
0000
0100
0010
0100
0000
0001
0000
1000
0000
0100
0000
,  // measure 73
0010
0000
0001
0000
0100
0000
0010
0000
0000
0000
1000
0001
1000
0000
0010
0000
,  // measure 74
0100
0000
0000
0000
0010
1000
0010
1000
0001
0000
0000
0000
0010
0001
0010
0001
,  // measure 75
1000
0100
0001
0100
1000
0000
0001
0100
,  // measure 76
0020
0000
1000
0000
0130
0001
0010
0100
,  // measure 77
1000
0000
0000
0000
0001
0100
0001
0000
1000
0000
0100
0000
0001
0000
1000
0000
,  // measure 78
0010
0000
0001
0100
0001
0000
1000
0100
1000
0000
0001
0000
0010
0000
0100
0000
,  // measure 79
1000
0000
0001
0010
0001
0000
1000
0010
1000
0000
0001
0000
0100
0000
0010
0000
,  // measure 80
1000
0000
0001
0010
0001
0000
1000
0010
1000
0000
0001
0000
0010
0000
1000
0000
,  // measure 81
0010
0000
0001
0100
0001
0000
1000
0010
1000
0000
0100
0000
0001
0000
0100
0000
,  // measure 82
1000
0010
1000
0010
1000
0000
0001
0100
0001
0000
1000
0000
0100
0000
0010
0000
,  // measure 83
0001
0010
0001
0010
0001
0000
1000
0100
1000
0000
0001
0000
0100
0000
0010
0000
,  // measure 84
1000
0100
0010
0100
1000
0000
0001
0100
0001
0000
1000
0000
0010
0000
0100
0000
,  // measure 85
0001
0010
0100
0010
0001
0000
1000
0010
1000
0000
0100
0000
0110
0000
1001
0000
;

//---------------dance-single - ----------------
#NOTES:
     dance-single:
     :
     Medium:
     7:
     0.487,0.556,0.157,0.227,0.035: // measure 1
0000
0000
0000
0000
,  // measure 2
0000
0000
0000
0000
,  // measure 3
0000
0000
0000
0000
,  // measure 4
0000
0000
0000
0000
,  // measure 5
0000
0000
0000
0000
,  // measure 6
0102
0000
1000
0000
,  // measure 7
2003
0000
0100
0000
,  // measure 8
3200
0000
0010
0000
,  // measure 9
0320
0000
0001
0030
,  // measure 10
0102
0000
0010
0000
,  // measure 11
1000
0000
0010
0000
,  // measure 12
2003
0000
0010
0000
,  // measure 13
0001
0000
0010
3000
,  // measure 14
0001
0100
0001
0100
,  // measure 15
0010
1000
0010
1000
,  // measure 16
0001
0000
0001
1000
0000
0000
1000
0000
1000
0001
0000
0000
,  // measure 17
0100
0000
0010
0000
1000
0100
1000
0000
,  // measure 18
0001
0000
0010
0000
,  // measure 19
1000
0000
0100
0001
,  // measure 20
1000
1000
0000
0000
0100
0000
0000
0000
,  // measure 21
0001
0000
0010
1000
,  // measure 22
0001
0000
1000
0000
0100
0010
0100
0000
,  // measure 23
1000
0000
0001
0000
0100
0010
0100
0000
,  // measure 24
0001
0010
0100
1000
,  // measure 25
0010
0000
0100
0001
0010
0000
0100
0000
,  // measure 26
1000
0000
0010
0000
0100
0001
0010
0001
,  // measure 27
0200
0000
0000
0310
,  // measure 28
1000
0000
0001
0000
1000
0100
0010
0100
,  // measure 29
2000
0000
0000
0000
3000
0001
1000
0000
,  // measure 30
0010
0000
0100
0000
0001
0010
0100
0010
,  // measure 31
0002
0000
0000
1003
,  // measure 32
0010
0100
0001
1000
,  // measure 33
0100
0010
0100
2000
0000
0000
3001
0000
,  // measure 34
0100
0010
1000
0000
0001
0010
0100
0010
,  // measure 35
0002
0100
0100
0103
,  // measure 36
0010
1000
0001
0000
1000
0100
0010
0100
,  // measure 37
2000
0000
0010
0000
3010
0100
0001
0000
,  // measure 38
1000
0000
0100
0010
0100
0000
1000
0000
,  // measure 39
0010
0000
0100
0001
1000
0000
0001
0000
,  // measure 40
0010
0000
0100
0000
1000
0000
0010
0100
,  // measure 41
0010
2000
3000
0000
0100
0020
0030
0000
,  // measure 42
0001
1000
0100
0011
,  // measure 43
1000
0001
0100
1010
,  // measure 44
0001
1000
0010
0101
,  // measure 45
1000
0001
0010
1100
,  // measure 46
0001
0000
0001
1000
0000
0000
0010
0000
0000
0101
0000
0000
,  // measure 47
1000
0000
1000
0001
0000
0000
0010
0000
0000
1100
0000
0000
,  // measure 48
0001
0000
0001
0100
0000
0000
0100
0000
0100
0010
0000
0000
,  // measure 49
0010
0000
0010
1000
0000
1000
0001
0000
0000
1001
0000
0000
,  // measure 50
0120
0000
0000
0000
,  // measure 51
2030
0000
0000
0000
,  // measure 52
3200
0000
0310
0001
,  // measure 53
1000
0010
0100
0001
,  // measure 54
2000
0000
0000
0000
,  // measure 55
3200
0000
0320
0000
,  // measure 56
0032
0000
0000
0000
,  // measure 57
2003
0000
0000
0000
,  // measure 58
3020
0100
0100
0100
,  // measure 59
0130
0000
0100
0000
0100
0000
0100
0001
,  // measure 60
0100
0000
0010
1000
0100
0000
0010
0001
,  // measure 61
0100
0001
0010
0100
0110
0000
0000
0000
,  // measure 62
1100
0000
0001
0000
1100
0000
0001
0010
,  // measure 63
0100
0000
1000
0010
0100
0000
0001
1000
,  // measure 64
0001
0000
0100
0000
0010
0100
0001
0010
,  // measure 65
0100
0000
1000
0000
0001
1000
0001
0000
,  // measure 66
0101
0000
1000
0000
0101
0000
1000
0010
,  // measure 67
0100
0000
0001
0000
1000
0000
0100
0010
,  // measure 68
0001
0000
1000
0000
0001
0100
0010
0000
,  // measure 69
1000
0000
0100
0001
0100
0000
1000
0000
,  // measure 70
0011
0000
1000
0100
0010
0000
1000
0100
,  // measure 71
0010
0100
1000
0010
0100
0000
0001
0000
,  // measure 72
1000
0000
0001
0100
0010
0000
0100
0000
,  // measure 73
0001
1000
0001
1000
0000
1000
0010
0000
,  // measure 74
1010
0000
0001
0100
0010
0000
0001
0100
,  // measure 75
0010
0100
0001
0010
0100
0000
1000
0100
,  // measure 76
0010
0000
0001
0000
0100
0000
0010
1000
,  // measure 77
0001
0000
0100
1000
0100
0000
0001
0000
,  // measure 78
1000
0100
0010
0000
0001
0000
0100
0000
,  // measure 79
0001
0010
0100
0000
1000
0000
0010
0000
,  // measure 80
1000
0010
0100
0000
0001
0000
0010
0000
,  // measure 81
0001
0100
0010
0000
1000
0000
0100
0000
,  // measure 82
0010
0001
0100
0001
0020
0000
0100
0000
,  // measure 83
0031
0100
0010
0100
0002
0000
1000
0000
,  // measure 84
0103
0010
1000
0010
0200
0000
1000
0000
,  // measure 85
0301
0010
1000
0010
0001
0000
0100
0110
;

//---------------dance-single - ----------------
#NOTES:
     dance-single:
     :
     Easy:
     5:
     0.276,0.297,0.000,0.122,0.000: // measure 1
0000
0000
0000
0000
,  // measure 2
0000
0000
0000
0000
,  // measure 3
0000
0000
0000
0000
,  // measure 4
0000
0000
0000
0000
,  // measure 5
0000
0000
0000
0000
,  // measure 6
0010
0000
0000
0000
,  // measure 7
1000
0000
0000
0000
,  // measure 8
0100
0000
0000
0000
,  // measure 9
0010
0000
0000
0000
,  // measure 10
0001
0000
0001
0000
,  // measure 11
0100
0000
0100
0000
,  // measure 12
1000
0000
1000
0000
,  // measure 13
0010
0000
0010
0000
,  // measure 14
0001
0010
0001
0000
,  // measure 15
1000
0010
1000
0000
,  // measure 16
0001
0100
0001
1000
,  // measure 17
0200
0000
0000
0300
,  // measure 18
0010
0000
0010
0000
,  // measure 19
0010
0000
0010
0000
,  // measure 20
0100
0000
0100
0000
,  // measure 21
0100
0000
0100
0000
,  // measure 22
1000
0001
0100
0100
,  // measure 23
0001
1000
0100
0100
,  // measure 24
1000
0100
0010
0000
,  // measure 25
0100
0010
0001
0000
,  // measure 26
1000
0010
0100
0010
,  // measure 27
2000
0000
3000
1000
,  // measure 28
0001
0010
0100
0010
,  // measure 29
0002
0000
0003
0001
,  // measure 30
1000
0100
0010
0100
,  // measure 31
2000
0000
3000
1000
,  // measure 32
0001
0010
0100
0000
,  // measure 33
0010
0100
1000
0000
,  // measure 34
0001
0100
0010
0100
,  // measure 35
0002
0000
0003
0001
,  // measure 36
1000
0100
0010
0100
,  // measure 37
2000
0000
3000
1000
,  // measure 38
0001
0010
0100
0000
,  // measure 39
0010
0001
1000
0000
,  // measure 40
0010
0000
0100
0000
,  // measure 41
0002
0003
0000
0000
2000
3000
0000
0000
,  // measure 42
0001
0001
0001
0000
,  // measure 43
1000
1000
1000
0000
,  // measure 44
0001
0001
0100
0000
,  // measure 45
1000
1000
0100
0000
,  // measure 46
0001
0010
0100
0000
,  // measure 47
1000
0010
0100
0000
,  // measure 48
0001
0100
0001
0100
,  // measure 49
0010
1000
0010
1000
,  // measure 50
0002
0000
0003
0000
,  // measure 51
2000
0000
3000
0000
,  // measure 52
0100
0000
0010
0001
,  // measure 53
0010
0000
0100
0000
,  // measure 54
2000
0000
3000
0000
,  // measure 55
0001
0000
0100
0000
,  // measure 56
0020
0000
0030
0000
,  // measure 57
2000
0000
3000
0000
,  // measure 58
0002
0000
0100
0000
,  // measure 59
0100
0000
1000
0000
,  // measure 60
1003
0000
0010
0000
,  // measure 61
0010
0100
0001
0000
,  // measure 62
1000
0000
0100
0000
,  // measure 63
0010
0100
1000
0000
,  // measure 64
0001
0000
0100
0000
,  // measure 65
0010
0100
0001
1000
,  // measure 66
0001
0000
0010
0000
,  // measure 67
0100
0010
0001
0000
,  // measure 68
1000
0000
0010
0000
,  // measure 69
0100
0001
1000
0001
,  // measure 70
1000
0000
0010
0000
,  // measure 71
0100
0010
1000
0000
,  // measure 72
0001
0000
0010
0000
,  // measure 73
0100
1000
0010
0100
,  // measure 74
0001
0000
0100
0000
,  // measure 75
0010
0100
0001
0000
,  // measure 76
1000
0000
0100
0010
,  // measure 77
0001
0000
1000
0001
,  // measure 78
0100
0000
0100
0000
,  // measure 79
0010
0100
0001
1000
,  // measure 80
0100
0000
0100
0000
,  // measure 81
0010
0100
1000
0001
,  // measure 82
0100
0000
0100
0000
,  // measure 83
0010
0100
0001
1000
,  // measure 84
0100
0000
0100
0000
,  // measure 85
0010
0000
0100
0000
1000
0000
0001
1000
;
