#VERSION:0.81;
#TITLE:Chronos;
#SUBTITLE:;
#ARTIST:TAG;
#TITLETRANSLIT:;
#SUBTITLETRANSLIT:;
#ARTISTTRANSLIT:;
#GENRE:;
#ORIGIN:;
#CREDIT:;
#BANNER:[12ths Week] Chronos.png;
#BACKGROUND:[12ths Week] Chronos-bg.png;
#PREVIEWVID:;
#JACKET:[12ths Week] Chronos-jacket.png;
#CDIMAGE:;
#DISCIMAGE:;
#LYRICSPATH:;
#CDTITLE:./CDTITLES/GuitarFreaksV6&DrumManiaV6.png;
#MUSIC:[12ths Week] Chronos.ogg;
#OFFSET:0.000000;
#SAMPLESTART:53.860001;
#SAMPLELENGTH:15.000000;
#SELECTABLE:YES;
#DISPLAYBPM:128.000000;
#BPMS:0.000=128.114,
4.000=128.001,
63.000=64.001,
71.500=128.001,
159.500=64.001,
165.500=128.001;
#STOPS:80.750=0.117,
81.000=0.117,
155.000=0.352,
155.750=0.352;
#DELAYS:;
#WARPS:;
#TIMESIGNATURES:0.000=4=4;
#TICKCOUNTS:0.000=4;
#COMBOS:0.000=1;
#SPEEDS:0.000=1.000=0.000=0;
#SCROLLS:0.000=1.000;
#FAKES:;
#LABELS:0.000=Song Start;
#BGCHANGES:0.000=[12ths Week] Chronos.avi=1.000=0=0=0=StretchNoLoop====,
99999=-nosongbg-=1.000=0=0=0 // don't automatically add -songbackground-
;
#KEYSOUNDS:;
#ATTACKS:
;

//---------------dance-single - ----------------
#NOTEDATA:;
#CHARTNAME:;
#STEPSTYPE:dance-single;
#DESCRIPTION:;
#CHARTSTYLE:;
#DIFFICULTY:Hard;
#METER:10;
#RADARVALUES:0.661171,0.693853,0.481745,0.111834,0.632291,469.000000,56.000000,13.000000,0.000000,0.000000,0.000000,0.000000,0.000000,0.661171,0.693853,0.481745,0.111834,0.632291,469.000000,56.000000,13.000000,0.000000,0.000000,0.000000,0.000000,0.000000;
#CREDIT:;
#DISPLAYBPM:128.000000;
#NOTES:
0000
0000
0000
0000
,
0000
0000
0000
0000
,
0000
0000
0000
0000
,
0000
0000
0000
0000
0000
0000
0000
0000
0000
0000
0000
0000
1000
0000
0010
0100
,
0000
0100
0001
0000
0001
0010
0000
0100
1000
0000
0010
0100
0000
0010
0100
0000
,
0001
0010
0000
0100
1000
0010
1000
0010
0100
0001
0100
0001
0010
0000
0100
0000
,
1000
0000
0001
0000
0100
0000
0010
0000
0100
0000
0001
0000
0020
0000
0000
1000
,
0000
0000
0100
0000
0100
0000
0001
0000
0100
0000
0000
0130
0000
0000
1000
0000
,
0001
0000
0010
0000
0200
0000
0000
0001
0000
0000
0010
0000
0010
0000
1000
0000
,
0010
0000
0000
0310
0000
0000
0001
0000
1000
0000
0010
0000
0101
0000
0101
0000
,
0011
0011
0110
0110
1100
1100
1001
1010
,
1100
0101
1000
0100
0001
0100
1000
0100
,
0001
0010
1000
0010
0001
0010
1010
1010
,
1100
0000
1100
0000
0101
0000
0101
0000
0011
0000
0001
0010
0000
0100
1000
0000
,
0001
0010
0000
0000
0100
0000
1000
0000
0001
0000
0010
0000
0100
0000
1000
0000
,
0001
0100
0010
0000
1000
0010
0200
0000
0000
0000
0000
0000
0300
0001
0010
0000
,
0010
0000
0100
0000
0000
0000
0100
0000
1000
0000
0001
0010
0100
0010
0000
0000
1000
0000
0001
0000
0000
0000
0100
0000
0010
0000
0000
0000
1000
0000
0100
0000
,
0010
0100
0010
0100
0000
0000
0001
0000
0010
0000
0000
0000
0100
0000
1000
0000
0000
0000
0100
0000
0010
0000
0001
0000
0010
0000
0100
0000
2000
0000
0000
0000
,
0000
0000
0000
0000
0000
0000
0001
0000
3001
0010
0002
0000
0000
0000
0000
0000
,
0000
0000
0000
0000
1003
0100
2000
0000
0000
0000
0000
0000
0000
0000
3001
0010
,
0100
1000
0000
1000
0001
1000
0100
0010
0001
0100
0010
1000
1100
0000
1000
0100
,
0010
0100
1000
0000
1000
0000
1000
0000
0101
0000
0001
0100
0010
0100
0001
0000
,
0001
0000
0001
0000
0110
0000
0010
1000
0100
0000
0110
0000
0010
0001
0100
0000
,
0110
0000
0100
0010
1000
0000
0110
0000
0100
0001
0010
0000
1010
0000
1000
0010
,
0100
0010
1000
0000
1000
0000
1000
0000
0011
0000
0001
0010
0100
0010
0001
0000
,
0001
0000
0001
0000
1001
0000
1000
0100
0001
0000
1001
0000
1000
0010
0001
0000
,
1001
0000
0001
0010
1000
0000
1001
0000
0001
0100
1000
0000
1001
0000
0000
1100
,
0000
0000
1010
0000
1010
0000
0001
0000
0100
0000
0001
0000
0101
0000
0000
0011
,
0000
0000
0101
0000
0101
0000
0010
0000
0100
0000
1100
0000
0000
1010
0000
0000
,
1100
0000
1100
0000
0001
0000
0010
0000
0100
1000
0000
1000
0100
0000
0010
0001
,
0000
0001
0010
0000
0100
0000
1000
0100
0000
1000
0100
0000
0010
0000
0001
0000
,
0100
0000
0010
0100
0000
0010
0100
0000
0001
0000
0010
0000
0001
0000
1000
0000
,
0100
0010
0000
0100
0010
0000
0100
0000
1000
0000
0100
0000
0110
0000
0000
1001
,
0000
0000
0110
0000
0000
0110
0000
0000
0001
0100
0010
1000
0100
0010
0001
0010
,
0100
1000
0010
0100
0001
0000
1000
0000
0100
0000
0001
0000
0100
0000
1000
0000
,
0010
0001
0010
1000
0100
0010
0001
0100
,
0010
1000
0001
0000
0010
0000
0100
0000
1000
0100
0010
0001
0100
0010
2000
0000
,
0000
0000
3001
0000
1000
0001
0000
0001
,
1000
0000
0000
0000
0000
0000
0000
0000
0000
0000
0000
0000
0010
0000
0000
0000
0100
0000
0000
0000
0000
0000
0000
0000
0010
0000
0000
0000
0000
0000
0000
0000
0100
0000
0000
0000
0000
0000
0000
0000
0001
0000
0000
0000
0000
0000
0000
0000
0020
0000
0000
0000
0000
0000
0000
0000
0000
0000
0000
0000
0200
0330
0000
0000
,
0000
0000
0010
0100
1000
0001
0010
0100
2000
0000
0000
0000
0000
0000
3001
0000
,
0000
0000
0000
0000
,
0000
0000
0000
0000
0000
0000
1000
0000
0001
0010
0100
1000
0001
0000
0001
0000
,
0001
0000
1000
0000
0001
0010
0100
1000
0001
0000
0001
0000
0001
0000
0010
0100
,
1000
0001
1000
0001
0100
0010
0100
0001
1000
0010
0100
0001
0010
0100
1000
0100
,
0010
0001
0100
0010
0010
0010
0100
0000
0010
0000
0100
0010
0000
0100
0010
0000
,
1000
0000
0001
0000
0100
0000
0010
1000
0000
0010
1000
0000
0100
0000
0010
0000
,
0001
0000
0010
0000
0100
1000
0000
0100
1000
0000
0010
0000
0100
0000
0001
0000
,
0101
0000
0000
0011
0000
0000
1010
0000
0000
1100
0000
0000
0001
0000
1000
0000
,
0010
0100
0001
0010
0001
0000
1000
0000
0100
0000
1000
0000
0001
0100
0010
0100
,
0001
0000
0010
0000
0100
0000
1000
0000
0001
0000
1000
0100
0010
0001
0100
0001
,
0010
0000
1000
0000
0100
0000
1001
0000
0001
1000
0000
0000
1001
0000
1000
0001
,
0000
0000
0001
0100
0010
1000
0100
0010
0001
0010
0100
1000
0010
0100
0001
0010
,
0100
0010
0001
1000
0100
0010
0100
1000
0001
0100
1000
0100
0001
0010
1000
0010
,
0001
0100
0010
1000
0100
0010
0002
0000
0000
0000
0000
0000
0000
0000
0000
0000
,
0003
0000
0000
0110
0000
1001
0000
0000
0000
0000
0000
0220
0000
0000
0000
0000
,
0000
0000
0000
0000
0000
0330
0000
0000
;

//---------------dance-single - ----------------
#NOTEDATA:;
#CHARTNAME:;
#STEPSTYPE:dance-single;
#DESCRIPTION:;
#CHARTSTYLE:;
#DIFFICULTY:Medium;
#METER:9;
#RADARVALUES:0.462082,0.646001,0.215065,0.094629,0.270982,340.000000,25.000000,11.000000,0.000000,0.000000,0.000000,0.000000,0.000000,0.462082,0.646001,0.215065,0.094629,0.270982,340.000000,25.000000,11.000000,0.000000,0.000000,0.000000,0.000000,0.000000;
#CREDIT:;
#DISPLAYBPM:128.000000;
#NOTES:
// measure 0
0000
0000
0000
0000
,  // measure 1
0000
0000
0000
0000
,  // measure 2
0000
0000
0000
0000
,  // measure 3
0000
0000
0000
0000
0000
0000
0000
0000
0000
0000
0000
0000
1000
0000
0000
1000
,  // measure 4
0000
0000
0100
0000
0000
0100
0000
0000
0010
0000
0000
0010
0000
0000
0001
0000
,  // measure 5
0000
0001
0000
0000
1000
0000
0100
0000
0010
0000
0001
0000
0100
0000
0010
0000
,  // measure 6
1000
0000
0000
0100
0000
0000
1000
0000
0100
0000
1000
0000
0001
0000
0000
0100
,  // measure 7
0000
0000
0001
0000
0010
0000
0001
0000
1000
0000
0000
0010
0000
0000
1000
0000
,  // measure 8
0100
0000
1000
0000
0001
0000
0000
1000
0000
0000
0001
0000
1000
0000
0001
0000
,  // measure 9
1000
0000
0000
0001
0000
0000
1000
0000
0001
0000
1000
0000
0100
0000
0010
0000
,  // measure 10
0001
0000
0010
0000
0100
0000
1000
0000
0001
0000
0000
0010
0000
0000
0100
0000
,  // measure 11
0000
1000
0000
0000
0001
0000
0100
0000
0010
0000
1000
0000
0010
0000
0100
0000
,  // measure 12
0001
0000
0000
1000
0000
0000
0010
0000
0000
0100
0000
0000
0001
0000
0000
0000
,  // measure 13
0010
0000
0100
0000
1000
0000
0100
0000
0011
0000
0000
0110
0000
0000
1100
0000
,  // measure 14
0000
1100
0000
0000
1000
0000
0100
0000
0010
0000
0001
0000
0100
0000
0010
0000
,  // measure 15
1000
0000
0001
0000
0100
0010
0100
0000
0000
0000
0000
0000
0000
0001
1000
0000
,  // measure 16
1000
0001
0000
0100
0010
0100
0110
0000
1000
0100
0000
1000
0100
0000
0010
0001
,  // measure 17
0010
0011
0000
1000
0100
0000
0010
0001
0000
1000
0001
0100
0010
1000
0002
0000
,  // measure 18
0000
0000
0000
0000
1003
2000
0000
0000
,  // measure 19
0000
0000
3001
0002
0000
0000
0000
0000
,  // measure 20
0003
0000
0000
2002
3003
0000
0000
0000
0000
0000
0000
0000
1000
0000
0001
0000
,  // measure 21
0100
0010
0010
0010
1000
0001
1000
0100
,  // measure 22
0100
0100
1000
1100
0000
0001
0101
0000
,  // measure 23
0010
0110
0000
0100
0110
0000
0001
1000
,  // measure 24
0001
1000
1000
1000
0001
1000
0001
1000
,  // measure 25
1000
1000
0001
0011
0000
1000
1100
0000
,  // measure 26
0010
0000
1010
0000
0000
0000
0100
0000
0101
0000
0000
0000
0100
0000
0000
0100
,  // measure 27
0000
0000
0100
0000
1000
0000
0010
0000
0100
0000
0001
0000
0010
0000
0000
0010
,  // measure 28
0000
0000
0010
0000
0100
0000
1000
0000
0100
0000
0010
0000
0000
0010
0000
0000
,  // measure 29
0010
0000
0100
0000
0001
0000
0010
0000
0000
1100
0000
0000
1000
0000
0000
1010
,  // measure 30
0000
0000
0001
0000
1000
0000
0000
1000
0000
0000
1000
0000
0100
0000
0010
0000
,  // measure 31
0001
0000
0100
0000
0000
0100
0000
0000
0100
0000
0010
0000
1000
0000
0100
0000
,  // measure 32
1000
0000
0000
0100
0000
0000
0010
0000
0000
0000
0100
0000
1001
0000
0000
1001
,  // measure 33
0000
0000
1001
0000
0000
1001
0000
0000
1000
0000
0000
0010
0000
0000
0100
0000
,  // measure 34
0000
0001
0000
0000
0001
0000
0010
0000
1000
0000
0100
0000
1000
0000
0010
0000
,  // measure 35
0100
0010
1000
0010
0100
0001
0010
0100
,  // measure 36
1000
0100
0010
0100
1000
0010
0100
0002
,  // measure 37
0000
0000
1003
0000
0010
0100
0001
1000
,  // measure 38
0100
0010
0001
0100
0010
0100
0020
0000
,  // measure 39
0000
0000
1030
0000
0001
0000
0100
0010
0200
0000
0000
0000
0000
0000
0310
0000
,  // measure 40
0000
0000
0000
0000
,  // measure 41
0000
0000
0000
1000
0001
1000
0100
0100
,  // measure 42
0100
0001
1000
0001
0010
0010
0010
0001
,  // measure 43
0001
0010
0010
0100
0100
1000
1000
0100
,  // measure 44
0010
0001
0100
0000
0010
0000
1000
0000
0010
0000
0100
0000
0010
0000
0100
0000
,  // measure 45
0010
0010
0100
0001
0010
0100
1000
0010
,  // measure 46
0010
0100
0001
0010
0100
1000
0100
0010
,  // measure 47
0010
0000
0000
0100
0000
0000
0001
0000
0000
1000
0000
0000
0100
0000
0010
0000
,  // measure 48
0001
0010
0100
0010
0010
0100
1000
0100
,  // measure 49
0010
0001
0100
0100
0010
1000
0100
0010
,  // measure 50
0001
0000
0100
0000
0010
0000
1000
0000
0000
1100
0000
0000
1010
0000
0000
0101
,  // measure 51
0000
0000
0001
0000
1000
0100
0000
0100
0010
0000
0010
0001
0000
0001
0010
0000
,  // measure 52
0100
1000
0000
1000
0010
0000
0100
0001
0000
0010
0100
0000
0100
1000
0000
0010
,  // measure 53
0100
0000
0001
0010
0000
1000
0020
0000
0000
0000
0000
0000
0000
0000
0000
0000
,  // measure 54
0000
0000
0000
0001
0000
1030
0000
0000
0000
0000
0000
2002
0000
0000
0000
0000
,  // measure 55
0000
0000
0000
0000
0000
3003
0000
0000
;

//---------------dance-single - ----------------
#NOTEDATA:;
#CHARTNAME:;
#STEPSTYPE:dance-single;
#DESCRIPTION:;
#CHARTSTYLE:;
#DIFFICULTY:Easy;
#METER:7;
#RADARVALUES:0.312151,0.408569,0.120436,0.172052,0.086026,220.000000,14.000000,20.000000,0.000000,0.000000,0.000000,0.000000,0.000000,0.312151,0.408569,0.120436,0.172052,0.086026,220.000000,14.000000,20.000000,0.000000,0.000000,0.000000,0.000000,0.000000;
#CREDIT:;
#DISPLAYBPM:128.000000;
#NOTES:
0000
0000
0000
0000
,
0000
0000
0000
0000
,
0000
0000
0000
0000
,
0000
0000
0000
1000
,
0000
1000
0000
0000
0001
0000
0000
0001
,
0000
0000
0010
0000
0000
0100
0000
0000
,
1000
0000
0000
0010
0000
0000
0100
0001
,
0000
0001
0001
0000
0001
1000
0000
1000
,
1000
0020
0000
0000
,
0000
0000
0000
1030
,
0000
0100
0000
0000
0010
0000
0000
0001
,
0000
0000
0100
0000
0000
0100
0000
0000
,
0010
0000
0000
0010
0000
0000
1000
0000
,
0000
1100
0000
0000
0010
0000
0000
0011
,
0000
0000
0101
0000
0000
0110
0000
0000
,
1100
0000
0000
0000
0000
0000
0110
0000
0000
0000
0000
0000
0000
0001
0000
0000
,
0001
0000
0000
0001
0000
0000
1000
0000
0000
1000
0000
0000
1000
0000
0000
0010
,
0000
0000
0010
0000
0000
0100
0000
0000
0100
0000
0000
0010
0000
0000
0020
0000
,
0000
0000
0000
0000
0000
2030
0000
0000
,
0000
0000
0000
3002
0000
0000
0000
0000
,
0000
0000
0000
2000
0000
0000
0000
0000
0000
0000
3003
0000
1000
0000
0001
0000
,
1000
0001
1000
0000
0001
1000
0001
1000
,
0001
0000
0010
0100
0010
0100
0010
0000
,
0100
0010
0100
0010
0100
0000
1000
0100
,
0010
0001
0010
0000
0001
0100
0010
1000
,
0100
0000
1000
1000
1000
0001
0001
0001
,
0010
0010
0010
0100
0100
0100
2000
0000
,
0000
0000
0000
0001
3002
0000
0000
0000
,
0000
0000
0100
0203
0000
0000
0000
0000
,
0000
0000
0010
0000
0020
0000
0000
0000
0000
0000
0000
0000
0330
0000
0000
1001
,
0000
2000
0000
0000
0000
0000
0001
3002
,
0000
0000
0000
0000
0000
1000
2003
0000
,
0000
0000
0000
0000
0001
0002
0000
0000
,
0000
0000
3003
0000
1001
0000
0000
1001
,
0000
0000
1000
0100
0010
0001
0000
0000
,
0001
0010
0100
1000
0000
0000
1000
0010
,
0100
0001
0000
0000
0001
0100
0010
1000
,
0000
0000
1000
0100
1000
0100
1000
1000
,
0001
0000
0010
0000
0001
0000
0010
0000
0001
0000
0001
0000
2000
0000
0000
3002
,
0000
0013
0100
1000
0000
0000
0200
0000
,
0000
0310
0000
0000
0000
0000
0000
0000
,
0000
0000
0000
0000
0000
1000
0000
0000
,
1000
0000
0000
0001
0000
0000
0001
0000
,
0000
0100
0010
0100
0010
0100
0010
0100
,
0010
0000
0100
0000
0010
0000
0100
0000
0010
0000
0100
0000
0000
0100
0000
0000
,
0100
0000
0010
0000
0100
0000
0010
0000
0100
0000
0010
0000
0000
0010
0000
0000
,
0010
0000
1000
0000
0001
0000
1000
0000
0001
0000
0000
0001
0000
0000
0001
0000
,
0000
1000
0002
0000
0000
0000
0000
0000
,
1003
0000
0100
0000
0000
0100
0000
0000
0100
0000
1000
0000
0001
0000
0100
0000
,
0000
0100
0000
0000
0100
0000
0010
0000
0100
0000
0010
0000
0010
0000
0000
0010
,
0000
0000
0010
0000
0100
0000
0010
0000
0100
0000
0110
0000
0000
1001
0000
0000
,
0110
0000
0000
1001
0000
0000
0010
0000
0100
0000
0010
0000
0100
0000
0010
0000
,
1000
0001
1000
0001
1000
0100
1000
0100
,
1000
0001
0100
0001
0100
0002
0000
0000
,
0000
0000
0000
0000
0000
0000
0000
1000
0000
1003
0000
0000
0000
0000
0000
2002
,
0000
0000
0000
0000
0000
0000
0000
3003
;
