#TITLE:Chaoz Japan;
#SUBTITLE:;
#ARTIST:ParagonX9;
#TITLETRANSLIT:;
#SUBTITLETRANSLIT:;
#ARTISTTRANSLIT:;
#CREDIT:;
#BANNER:[12ths Week] - Chaoz Japan.png;
#BACKGROUND:[12ths Week] - Chaoz Japan-bg.png;
#LYRICSPATH:;
#CDTITLE:;
#MUSIC:[12ths Week] - Chaoz Japan.mp3;
#OFFSET:-0.040;
#SAMPLESTART:52.380;
#SAMPLELENGTH:15.000;
#SELECTABLE:YES;
#BPMS:0.000=165.000,96.000=55.000,100.000=165.000;
#STOPS:132.000=0.727
;
#BGCHANGES:;

//---------------dance-single - ----------------
#NOTES:
     dance-single:
     :
     Challenge:
     10:
     0.769,0.835,0.964,0.111,0.432: // measure 1
0000
0000
0000
0000
,  // measure 2
0000
0000
0000
0000
,  // measure 3
0000
0000
0000
0000
,  // measure 4
0000
0000
0000
0000
,  // measure 5
1001
0000
0000
0110
0000
0000
1100
0000
0011
0000
0000
0000
,  // measure 6
1001
0000
0000
0110
0000
0000
0011
0000
1100
0000
0000
0100
,  // measure 7
0110
0000
0000
1001
0000
0000
1010
0000
0101
0000
0000
0110
,  // measure 8
0000
0000
1001
0000
0000
0110
0100
0000
0000
0000
0000
0000
,  // measure 9
1001
0100
0010
1000
0001
0100
0010
1001
,  // measure 10
1001
0100
0010
1000
0001
0100
0010
0110
,  // measure 11
0110
1000
0100
0001
0010
1000
0100
0010
,  // measure 12
0110
0010
0001
0010
0100
1100
0000
0110
,  // measure 13
0000
0000
0000
0000
0011
0000
0010
0000
0000
0001
0000
0000
0100
0000
0000
1000
0000
0000
0100
0000
0000
0110
0000
0000
,  // measure 14
1000
0001
1000
0100
1000
0010
1000
1001
,  // measure 15
0110
0000
0110
0000
1000
0001
0100
0010
,  // measure 16
1000
0000
0000
0000
0000
0000
0100
0000
0000
0000
0000
0000
0010
0000
0000
0000
0000
0000
0001
0000
0000
0000
0000
0000
0001
0000
0000
0000
0000
0000
0000
0000
0001
0000
0000
0000
0000
0000
0001
0000
0000
0000
0000
0000
0000
1000
0000
0000
,  // measure 17
0100
0010
0001
0100
0010
1000
0010
0100
,  // measure 18
1001
0000
0100
0000
0010
0000
0100
0000
1000
0000
0000
0100
0000
0000
0001
0000
,  // measure 19
0110
1000
0001
0100
0010
1000
0100
0001
,  // measure 20
0110
0000
0000
0000
0000
0000
1000
0000
0100
0000
0000
0010
0000
0000
0001
0000
,  // measure 21
0220
0000
0000
0330
1001
0000
0000
0000
0000
0100
0000
0000
0010
0000
0000
1000
0000
0000
0001
0000
0000
0100
0000
0000
,  // measure 22
0010
0000
1000
0000
0100
0000
1000
0000
0001
0000
0000
0100
0000
0000
1000
0000
,  // measure 23
0101
1010
0100
0010
1000
0100
0001
0010
,  // measure 24
0110
0000
0010
0000
0000
0000
1000
0000
0001
0000
0000
0100
0000
0000
0010
0000
,  // measure 25
2002
0000
0000
0000
0000
0000
0000
0000
0000
0000
0000
0000
0000
0000
0000
3003
,  // measure 26
0110
0000
0000
1010
0000
0000
0101
0000
0000
1001
0000
1000
,  // measure 27
1001
0000
0000
0011
0000
0010
1000
0100
1000
0100
0010
0001
,  // measure 28
0110
0000
0000
1001
0000
0000
1010
0000
0000
0101
0000
0010
,  // measure 29
0011
0000
0000
0110
0000
0010
0100
0010
0100
0001
0010
0100
,  // measure 30
1000
0000
1001
1001
0000
0110
0100
0000
1100
1000
0000
0011
,  // measure 31
0001
0000
1010
0010
0000
0001
0010
0100
1000
0100
0010
0001
,  // measure 32
1100
0000
0011
0000
1100
0000
0110
0000
1001
0000
0101
0000
,  // measure 33
0010
1000
0010
0001
0100
0010
1001
0000
0110
0000
1001
0000
,  // measure 34
0000
0100
0100
0000
1001
0100
0010
1000
,  // measure 35
0001
0010
1000
0100
0101
0010
1000
0100
,  // measure 36
0001
0010
0100
0010
0001
0010
1000
0010
,  // measure 37
0100
0000
0000
0010
0000
0000
0001
0000
0000
1000
0000
0000
0101
0000
0000
0000
0100
0000
0010
0000
0000
0000
0001
0000
,  // measure 38
1000
0000
0000
0000
0010
0000
0100
0000
0000
0000
1000
0000
0000
0000
0000
0000
1001
0000
0000
0000
0000
0100
0000
0000
,  // measure 39
0010
1000
0001
0100
0010
1000
0100
0010
,  // measure 40
0001
0000
0000
1000
0000
0000
0100
0000
0000
0010
0000
0000
0100
0000
0000
0000
0110
0000
0000
0000
0000
0010
0000
0000
,  // measure 41
0000
0000
0000
0100
0000
0000
0000
0000
0000
1000
0000
0000
1001
0000
0000
0000
0001
0000
0010
0000
0000
0000
1000
0000
,  // measure 42
0100
0000
0000
0000
0001
0000
0100
0000
0000
0000
1000
0000
0010
0000
0000
0010
0000
0000
0010
0000
0000
0010
0000
0000
,  // measure 43
1000
1000
1000
1000
0001
0001
0001
0001
,  // measure 44
0100
0010
1000
0001
1000
1000
1000
1000
,  // measure 45
0100
0100
0100
0100
0001
0001
0001
0001
,  // measure 46
0100
0000
0000
0001
0000
0000
0010
0000
0000
1000
0000
0000
0220
0000
0330
0000
1001
0000
0010
0000
0000
0010
0000
0000
,  // measure 47
1000
0100
0100
0100
0001
0010
0010
0010
,  // measure 48
1000
0100
0010
0001
0100
0010
0010
0010
,  // measure 49
0001
0010
0010
0010
1000
0100
0100
0100
,  // measure 50
0001
0010
0100
1000
0110
0000
1001
0000
,  // measure 51
1000
0100
0010
0001
1100
0000
0000
0000
0011
0000
0000
0000
0110
0000
0000
0000
,  // measure 52
1000
0001
0100
0010
1001
0000
0000
0000
1000
0000
0001
0000
0100
0000
0010
0000
,  // measure 53
1000
0000
0000
0000
0000
0000
0001
0000
0000
0000
0000
0000
0100
0000
0000
0000
0000
0000
0010
0000
0000
0000
0000
0000
1000
0000
0000
0100
0000
0000
0010
0000
0000
0001
0000
0000
0010
0000
0000
0000
0000
0000
0220
0000
0000
0000
0330
0000
,  // measure 54
1000
0000
0000
0100
0000
0000
0010
0000
0000
0001
0000
0000
0010
0000
0000
0100
0000
0000
1000
0000
0000
0100
0000
0000
0000
0000
0000
0000
0001
0000
0000
0000
1001
0000
0000
0000
0000
0000
0000
0000
0000
0000
0100
0000
0000
0000
0000
0000
,  // measure 55
0010
1000
0001
0101
1010
0000
1100
0000
,  // measure 56
0011
0000
0110
0000
1000
0100
0010
0001
,  // measure 57
0100
0000
0010
0000
1000
0000
0001
0100
0000
0000
0100
1000
0001
0100
0010
0001
,  // measure 58
0100
0000
0000
1000
0000
0000
0010
0000
0000
0001
0000
0000
1000
0000
0000
0000
0000
0000
0000
0000
1001
0000
0000
0000
2002
0000
0000
0000
0000
0000
0000
0000
0000
0000
0000
0000
0000
0000
0000
0000
0000
0000
0000
0000
0000
0000
0000
0000
,  // measure 59
3003
0000
0000
0000
;

//---------------dance-single - ----------------
#NOTES:
     dance-single:
     :
     Hard:
     9:
     0.611,0.605,0.476,0.022,0.355:
0000
0000
0000
0000
,
0000
0000
0000
0000
,
0000
0000
0000
0000
,
0000
0000
0000
0000
,
1000
0000
0000
0001
0000
0000
0100
0000
0010
0000
0000
0000
,
1000
0000
0000
0010
0000
0000
0001
0000
0100
0000
0000
0010
,
0010
0000
0000
1000
0000
0000
0001
0000
0100
0000
0000
1000
,
0000
0000
0001
0000
0000
0100
0010
0000
0000
0000
0000
0000
,
1001
0000
1001
0000
0100
0010
1000
0001
,
0110
0000
0110
0000
1000
0001
0100
0010
,
1100
0011
0100
0010
,
1010
0000
0101
0000
1000
0010
0000
0001
,
0000
0000
0000
0000
1001
0000
0100
0000
0000
0000
0000
0000
0001
0000
0000
0000
0000
0000
0010
0000
0000
1000
0000
0000
,
0100
0000
0001
0000
0010
0000
0100
0001
,
1000
0100
0010
0100
,
1000
0000
0000
0000
0000
0000
0001
0000
0000
0000
0000
0000
0100
0000
0000
0010
0000
0000
1000
0000
0000
0000
0010
0000
,
1001
0100
0010
0100
,
1100
0000
0000
0000
0001
0000
0010
0000
1000
0000
0000
1000
0000
0000
1000
0000
,
0110
0001
0010
1000
,
0011
0000
0000
0000
0100
0000
0010
0000
0001
0000
0000
0001
0000
0000
0001
0000
,
0110
0000
0110
0000
0000
0000
1000
0000
0000
0001
0000
0000
,
0110
0000
0000
0000
1001
0000
0100
0000
0010
0000
0000
0010
0000
0000
0010
0000
,
1000
0000
0000
0000
0001
0000
0000
0000
0000
0100
0000
0000
1000
0000
0000
0010
0000
0000
0001
0000
0000
0000
0000
0000
,
0110
0000
0000
0000
1001
0000
0000
0000
0100
0000
0000
0100
0000
0000
0100
0000
,
0220
0000
0000
0000
0000
0000
0000
0000
0000
0000
0000
0000
0000
0000
0000
0330
,
0100
0000
0000
0110
0000
0000
0101
0000
0000
0100
0000
0010
,
0001
0000
0000
0001
0000
1000
0001
1000
0001
1000
0100
1000
,
0010
0000
0000
0110
0000
0000
1010
0000
0000
0010
0000
0100
,
0010
0000
0000
0001
0000
0001
0010
0001
0010
0100
0010
0100
,
0010
0000
1001
1000
0000
0000
0100
0000
0001
0010
0000
0000
,
0100
0000
0100
1000
0000
0100
0010
0100
0010
1000
0010
1000
,
0010
0000
0100
0000
0001
0000
1000
0000
0010
0000
0100
0000
,
0001
1000
0001
1000
0100
1000
0100
0000
0001
0000
0100
0000
,
0000
0000
0000
0000
0110
1000
0001
0100
,
0010
1000
0100
0010
0001
0100
0010
1000
,
0001
0100
0010
1000
0100
1000
0001
0010
,
0001
0000
0000
0100
0000
0000
0010
0000
0000
1000
0000
0000
1001
0000
0000
0000
0100
0000
0010
0000
0000
0000
1000
0000
,
0001
0000
0000
0000
0010
0000
0100
0000
0000
0000
0001
0000
0000
0000
0000
0000
1001
0000
1000
0000
0000
0100
0000
0000
,
0010
0100
0001
0100
0010
1000
0010
0100
,
0001
0010
0001
0100
0001
0010
0100
1000
,
1000
0000
0000
0100
0000
0000
0010
0000
0000
0001
0000
0000
0110
0000
0000
0000
1000
0000
0010
0000
0000
0000
0001
0000
,
0100
0000
0000
0000
1000
0000
0100
0000
0000
0000
0001
0000
1000
0000
0000
0100
0000
0000
0010
0000
0000
0001
0000
0000
,
1000
0100
0010
0001
0001
0010
0100
1000
,
0100
0010
1000
0001
0001
0010
0100
1000
,
0001
0010
0100
1000
1000
0100
0010
0001
,
0010
0000
0000
0100
0000
0000
0001
0000
0000
1000
0000
0000
0110
0000
0000
0000
1001
0000
0010
0000
0000
0001
0000
0000
,
1000
0100
0010
0001
0001
0010
0100
1000
,
0100
0010
1000
0001
0100
0010
0100
0010
,
1000
0001
1000
0001
0010
0001
0010
0001
,
1000
0100
1000
0100
1100
0000
0011
0000
,
1000
0100
0010
0001
0101
0000
1010
0000
,
0001
0010
0100
1000
0110
0000
0110
0000
,
1000
0001
1000
0001
1001
0000
1001
0000
,
0010
0000
0000
0100
0000
0000
0010
0000
0000
0100
0000
0000
0000
0000
0000
0000
1001
0000
0100
0000
0000
0010
0000
0000
,
1000
0000
0000
0100
0000
0110
0100
0000
0000
0001
0000
0000
,
1000
0000
0010
0000
1000
0001
1000
0010
,
1000
0000
0100
0000
0010
0000
0001
0000
1001
0000
0000
0100
0000
0010
0001
0010
,
0100
1000
0100
0010
0001
0010
0000
1000
1001
0000
0000
0000
0000
0000
0000
0000
;

//---------------dance-single - ----------------
#NOTES:
     dance-single:
     :
     Medium:
     7:
     0.457,0.510,0.465,0.211,0.199:
0000
0000
0000
0000
,
0000
0000
0000
0000
,
0000
0000
0000
0000
,
0000
0000
0000
0000
,
1000
0000
0000
0000
0000
0000
0100
0000
0001
0000
0000
0000
,
0001
0000
0000
0000
0000
0000
0010
0000
1000
0000
0000
0000
,
0100
0000
0000
0000
0000
0000
0010
0000
1000
0000
0000
0001
,
0000
0000
0100
0000
0000
0010
0000
0000
0000
0000
0000
0000
,
1001
0000
0000
0000
1001
0000
0100
0001
,
0011
0000
0000
0000
0100
0000
0010
1000
,
1100
0000
0110
0000
,
1001
0000
0000
0110
0000
0000
1001
0000
0200
0000
0000
0000
,
0300
0000
0000
0000
0100
0000
0000
0000
0000
0000
0000
0000
0110
0000
0000
0000
0000
0000
0100
0000
0000
0010
0000
0000
,
1001
0000
0000
0000
0110
0000
0001
1000
,
1100
0000
0011
0100
,
1100
0000
0100
0000
0220
0000
0000
0330
,
1000
0001
1000
0000
0001
1000
0001
0000
,
0110
0000
0000
0000
0000
0000
0000
0000
1000
0000
0000
0001
0000
0000
1000
0000
,
0010
0100
0010
0000
0100
0010
0100
0000
,
1001
0000
0000
0000
0000
0000
0000
0000
0100
0000
0000
0010
0000
0000
0100
0000
,
2002
0000
0000
0000
3003
0000
0000
0000
0000
0000
0000
0000
1000
0000
0000
0001
0000
0000
0010
0000
0000
0000
0000
0000
,
1001
0000
0000
0000
0000
0000
0000
0000
0100
0000
0000
0010
0000
0000
0010
0000
,
1000
0001
0000
0001
1000
0001
1000
0000
,
0110
0000
0000
0000
0000
0000
0000
0000
0100
0000
0000
0010
0000
0000
1000
0000
,
2000
0000
0000
0000
0000
0000
0000
3000
,
1000
0000
0000
0001
0000
0000
1000
0000
0000
0001
0000
0001
,
0001
0000
0000
1000
0000
0001
1000
0000
1000
0001
0000
1000
,
0100
0000
0000
0010
0000
0000
0100
0000
0000
0010
0000
0010
,
0010
0000
0000
0100
0000
0010
0200
0000
0000
0000
0000
0300
,
1000
0000
0001
0000
0000
0000
0100
0000
0000
0010
0000
0010
,
0010
0000
0000
0001
0000
0010
0100
0000
1000
0001
0000
0010
,
0100
0000
0100
0000
0000
0000
0001
0000
0001
0000
0000
0000
,
2000
0000
0000
0000
0000
0000
3001
0000
0001
0000
0001
0000
,
0000
0000
0100
0010
,
1000
0001
0100
0010
,
1000
0100
0010
0000
0100
0000
0010
0000
,
1000
0000
0000
0001
0000
0000
1001
0000
0200
0000
0000
0320
,
0000
0000
0032
0000
0000
1003
0000
0000
1001
0000
0000
0000
,
0100
0010
1000
0001
,
0100
0010
0100
0000
0010
0100
0010
0000
,
1000
0000
0000
0001
0000
0000
0000
0200
0000
0000
0320
0000
,
0000
0032
0000
0000
1003
0000
1001
0000
0000
1000
0000
0000
,
1000
0100
0010
0000
0001
0010
0100
0000
,
1000
0001
1000
0001
0100
0010
0100
0000
,
0010
0100
0010
0000
1001
0000
1001
0000
,
0100
0010
0100
0010
2000
0000
3100
0000
,
0001
0010
0100
0000
1000
0100
0010
0000
,
1000
0001
0100
0010
1000
0010
1000
0000
,
0001
0100
0001
0000
1001
0000
1001
0000
,
0110
0110
1001
0100
,
1000
0001
0110
1001
,
0001
0010
0100
1000
,
0100
0010
0002
0000
,
0203
0000
0000
0310
,
0001
0100
0110
0110
,
0110
0110
1001
1001
,
1001
1001
0220
0000
,
0000
0330
1001
0000
;

//---------------dance-single - ----------------
#NOTES:
     dance-single:
     :
     Easy:
     5:
     0.277,0.350,0.133,0.055,0.133:
0000
0000
0000
0000
,
0000
0000
0000
0000
,
0000
0000
0000
0000
,
0000
0000
0000
0000
,
1000
0000
0000
0000
0000
0000
0000
0000
0010
0000
0000
0000
,
0100
0000
0000
0000
0000
0000
0000
0000
0001
0000
0000
0000
,
0010
0000
0000
0000
0000
0000
0000
0000
0100
0000
0000
0000
,
0000
0000
0100
0000
0000
0100
0000
0000
0000
0000
0000
0000
,
1000
0000
0001
0100
,
0010
0000
0100
0001
,
1000
0000
0001
0100
,
0010
0000
0000
1000
0000
0000
0000
0200
0000
0000
0000
0000
,
0000
0300
0000
0100
0000
0000
0000
0000
0000
0001
0000
0000
,
1000
0000
0010
0100
,
0001
0000
0010
0000
,
1000
0000
0100
0000
0020
0000
0000
0030
,
1001
0000
0000
0000
,
1001
0000
0100
0000
,
0110
0000
0000
0000
,
0110
0000
0010
0000
,
0011
0000
0000
0000
,
0011
0000
1000
0000
,
1100
0000
0000
0000
,
1100
0000
0010
0000
,
0020
0000
0000
0030
,
0100
0000
0000
0000
0000
0000
0100
0000
0000
0000
0000
0010
,
1000
0000
0000
0000
0000
0001
0000
0000
1000
0000
0000
0010
,
0100
0000
0000
0000
0000
0000
0001
0000
0000
0000
0000
1000
,
0001
0000
0000
0000
0000
0010
0000
0000
0100
0000
0000
0100
,
0000
0000
0010
0000
0000
0000
0001
0000
0000
0000
0000
1000
,
0100
0000
0000
0000
0000
0010
0000
0000
0001
0000
0000
0010
,
0100
0000
0000
0000
0100
0000
0000
0000
0100
0000
0000
0000
,
0100
0000
0000
0010
0000
0000
1000
0000
0001
0000
1000
0000
,
0000
0000
0100
0000
,
1000
0001
0010
0000
,
0100
0010
1000
0100
,
0010
0001
0110
0000
,
0000
0000
0000
0000
0000
0000
0000
0000
1001
0000
0000
0000
,
0100
0010
0000
1000
,
0100
0010
0001
0000
,
0001
0000
0001
0010
,
0100
0000
1000
0000
1000
0001
0000
0000
,
0001
1000
0000
0000
0100
0010
0000
0000
,
0001
1000
0001
0000
0100
0010
0000
0000
,
0001
1000
0000
0000
1000
0100
0000
0000
,
0001
0010
0001
0000
0100
0000
0110
0000
,
1000
0100
0000
0000
0001
0010
0000
0000
,
1000
0100
1000
0000
0100
0010
0000
0000
,
0010
0100
0000
0000
1000
0001
0000
0000
,
0100
0010
0100
0000
1000
0000
0010
0000
,
0001
0100
1000
0001
,
1000
0001
0100
0010
,
0100
0010
1000
0100
,
1000
0100
0001
0010
,
0001
0010
1000
0001
,
1000
0001
0200
0000
,
0000
0000
0000
0020
0000
0000
0000
0000
,
0000
0330
1001
0000
;
