#VERSION:0.81;
#TITLE:CHOCOLATE PHILOSOPHY;
#SUBTITLE:;
#ARTIST:常盤ゆう;
#TITLETRANSLIT:;
#SUBTITLETRANSLIT:;
#ARTISTTRANSLIT:Yuu Tokiwa;
#GENRE:;
#ORIGIN:;
#CREDIT:;
#BANNER:[12ths Week] - CHOCOLATE PHILOSOPHY.png;
#BACKGROUND:[12ths Week] - CHOCOLATE PHILOSOPHY-bg.png;
#PREVIEWVID:;
#JACKET:[12ths Week] - CHOCOLATE PHILOSOPHY-jacket.png;
#CDIMAGE:cdtitle.png;
#DISCIMAGE:;
#LYRICSPATH:[12ths Week] - CHOCOLATE PHILOSOPHY.lrc;
#CDTITLE:cdtitle.png;
#MUSIC:[12ths Week] - CHOCOLATE PHILOSOPHY.ogg;
#OFFSET:-0.390000;
#SAMPLESTART:41.277309;
#SAMPLELENGTH:13.089958;
#SELECTABLE:YES;
#BPMS:0.000=220.016;
#STOPS:;
#DELAYS:;
#WARPS:;
#TIMESIGNATURES:0.000=6=4,
270.000=5=4,
280.000=6=4;
#TICKCOUNTS:0.000=4;
#COMBOS:0.000=1;
#SPEEDS:0.000=1.000=0.000=0;
#SCROLLS:0.000=1.000;
#FAKES:;
#LABELS:0.000=Song Start;
#BGCHANGES:0.000=[12ths Week] - CHOCOLATE PHILOSOPHY-bg.png=1.000=0=0=1=====,
99999=-nosongbg-=1.000=0=0=0 // don't automatically add -songbackground-
;
#KEYSOUNDS:;
#ATTACKS:
;

//---------------dance-single - ----------------
#NOTEDATA:;
#CHARTNAME:;
#STEPSTYPE:dance-single;
#DESCRIPTION:;
#CHARTSTYLE:;
#DIFFICULTY:Beginner;
#METER:2;
#RADARVALUES:0.129896,0.217846,0.035658,0.062401,0.000000,91.000000,4.000000,7.000000,0.000000,0.000000,0.000000,0.000000,0.000000,0.129896,0.217846,0.035658,0.062401,0.000000,91.000000,4.000000,7.000000,0.000000,0.000000,0.000000,0.000000,0.000000;
#CREDIT:;
#DISPLAYBPM:220.000000;
#NOTES:
0000
0000
0000
0000
,
0000
0000
0000
0000
,
0000
0000
0000
0000
,
0000
0000
0000
0000
,
0000
0000
0000
0000
,
0000
0000
0000
0000
,
0000
0000
0000
0000
,
0000
0000
0100
0000
,
0000
0000
0000
0000
,
0010
0000
0000
0000
,
0000
0000
0100
0000
,
0000
0000
0000
0000
,
0010
0000
0000
0000
,
0000
0000
1000
0000
,
0000
1000
0000
0000
,
1000
0000
0000
0000
,
0000
0000
0001
0000
,
0000
0001
0000
0000
,
0001
0000
0000
0000
,
0000
0000
0100
0000
,
0000
0100
0000
0000
,
0100
0000
0000
0000
,
0000
0000
0010
0000
,
0000
0010
0000
0000
,
0010
0000
0000
0000
,
0000
0000
1000
0000
,
0000
0100
0000
0000
,
1000
0000
0000
0000
,
0000
0000
0001
0000
,
0000
0010
0000
0000
,
0001
0000
0000
0000
,
0000
0000
0100
0000
,
0000
0010
0000
0000
,
0100
0000
0000
0000
,
0000
0000
0001
0000
,
0000
1000
0000
0000
,
0001
0000
0000
0000
,
0000
0000
2000
0000
,
0000
3000
0000
0000
,
0002
0000
0000
0003
,
0000
0000
0200
0000
,
0000
0300
0000
0000
,
0010
0000
0000
0100
,
0000
0000
0002
0000
,
0000
0003
0000
0000
,
2000
0000
0000
3000
,
0000
0000
0200
0000
,
0000
0300
0000
0000
,
0110
0000
0000
1001
,
0000
0000
1000
0000
,
0000
0100
0000
0000
,
0010
0000
0000
0000
,
0000
0000
0001
0000
,
0000
1000
0000
0000
,
0010
0000
0000
0000
,
0000
0000
0100
0000
,
0000
0001
0000
0000
,
1000
0000
0000
0000
,
0000
0000
0100
0000
,
0000
0010
0000
0000
,
0001
0000
0000
1001
,
0000
0000
1000
0000
,
0000
0000
0000
0000
,
0001
0000
0000
0000
,
0000
0000
1000
0000
,
0000
0000
0000
0000
,
0010
0000
0000
0000
,
0000
0000
1000
0000
,
0000
0000
0000
0010
,
0000
0000
0000
0000
,
0100
0000
0000
0000
,
0000
0000
0001
0000
,
0000
0000
0000
0000
,
1000
0000
0000
0100
,
0000
0000
1000
0000
,
0000
0001
0000
0000
,
0100
0000
0000
0010
,
0000
0000
1000
0000
,
0000
0010
0000
0000
,
0100
0000
0000
0001
,
0000
0000
1000
0000
,
0000
0001
0000
0000
,
0010
0000
0000
0001
,
0000
0000
0200
0000
,
0000
0000
0300
0000
,
0001
0000
0000
1000
,
0000
0000
0010
0000
,
0000
0100
0000
0000
,
0001
0000
0000
0010
,
0000
0000
0100
0000
,
0000
1000
0000
0000
,
0001
0000
0000
0000
,
0000
0000
1000
0000
,
0000
0001
0000
0000
,
1000
0000
0000
0001
,
0000
0000
0100
0000
,
0000
0010
0000
0000
,
0100
0000
0000
0110
;

//---------------dance-single - ----------------
#NOTEDATA:;
#CHARTNAME:;
#STEPSTYPE:dance-single;
#DESCRIPTION:;
#CHARTSTYLE:;
#DIFFICULTY:Easy;
#METER:3;
#RADARVALUES:0.196117,0.261415,0.053486,0.080230,0.000000,139.000000,6.000000,9.000000,0.000000,0.000000,0.000000,0.000000,0.000000,0.196117,0.261415,0.053486,0.080230,0.000000,139.000000,6.000000,9.000000,0.000000,0.000000,0.000000,0.000000,0.000000;
#CREDIT:;
#DISPLAYBPM:220.000000;
#NOTES:
0000
0000
0000
0000
,
0000
0000
0000
0000
,
0000
0000
0000
0000
,
0000
0000
0000
0000
,
0000
0000
0000
0000
,
0000
0000
0000
0000
,
0000
0000
0000
0000
,
0000
0000
1000
0000
,
0000
0100
0000
0000
,
1000
0000
0000
0001
,
0000
0000
0100
0000
,
0000
0001
0000
0000
,
0020
0000
0000
0030
,
0000
0000
0100
0000
,
0000
1000
0000
0000
,
0001
0000
0000
0010
,
0000
0000
0100
0000
,
0000
1000
0000
0000
,
0010
0000
0010
0000
,
0000
0000
0010
0000
,
0000
0100
0000
0000
,
0001
0000
0000
1000
,
0000
0000
0010
0000
,
0000
1000
0000
0000
,
0001
0000
0001
0000
,
0000
0000
1000
0000
,
0000
0001
0000
1000
,
0001
0000
0000
0000
,
0000
0000
0100
0000
,
0000
0010
0000
0000
,
0100
0000
0010
0000
,
0000
0000
1000
0000
,
0000
0010
0000
1000
,
0010
0000
0000
0000
,
0000
0000
0100
0000
,
0100
0001
0000
0001
,
0010
0000
0000
0200
,
0000
0300
1001
0000
,
0000
0000
1000
0001
,
1000
0000
0000
0000
,
0001
0100
0001
0000
,
0000
0000
0100
0010
,
0100
0000
0000
0010
,
0000
0000
1000
0000
,
0000
0000
0010
1000
,
0010
0000
0000
0000
,
1000
0100
1000
0000
,
0000
0100
0000
0000
,
0020
0000
0000
0002
,
0000
0033
0011
0000
,
0000
0010
0000
0001
,
0010
0000
0000
0000
,
0001
1000
0002
0000
,
0000
0103
0000
0010
,
0200
0000
0000
0320
,
0000
0000
1030
0000
,
0010
0000
0000
1000
,
0010
0000
0000
0000
,
0000
0000
0100
0000
,
0000
0001
0000
0000
,
1000
0000
0000
1001
,
0000
0000
1000
0000
,
0000
0001
0000
0000
,
1000
0000
0000
0001
,
0000
0000
0010
0000
,
0000
0100
0000
0000
,
0010
0000
0000
0001
,
0000
0000
1000
0000
,
0000
0001
1000
0001
,
0000
0000
0010
0100
,
0010
0000
0000
0001
,
0000
0000
2000
0000
,
0000
0000
3000
0000
,
0010
0000
0000
0100
,
0000
0000
0110
0000
,
0000
0000
0010
0010
,
1000
0000
0000
0000
,
0100
0100
0010
0000
,
0000
0000
0001
0001
,
0010
0000
0000
0001
,
0000
0000
0011
0000
,
0000
0000
0001
0001
,
0010
0000
0000
0000
,
0100
0100
1000
0000
,
0000
0001
0000
0000
,
2000
0000
0000
3100
,
0000
0000
1100
0000
,
0000
0100
0000
0000
,
1000
0000
0000
0001
,
0000
0000
1000
0000
,
0000
0010
0000
0000
,
0100
0000
0000
0000
,
0000
0000
0010
0000
,
0000
0100
0000
0001
,
0001
0000
0000
0000
,
0000
1000
1000
0000
,
0000
0001
0000
0000
,
1000
0001
1000
0001
;

//---------------dance-single - ----------------
#NOTEDATA:;
#CHARTNAME:;
#STEPSTYPE:dance-single;
#DESCRIPTION:;
#CHARTSTYLE:;
#DIFFICULTY:Medium;
#METER:6;
#RADARVALUES:0.394781,0.392122,0.062401,0.124802,0.017829,289.000000,7.000000,14.000000,0.000000,0.000000,0.000000,0.000000,0.000000,0.394781,0.392122,0.062401,0.124802,0.017829,289.000000,7.000000,14.000000,0.000000,0.000000,0.000000,0.000000,0.000000;
#CREDIT:;
#DISPLAYBPM:220.000000;
#NOTES:
0000
0000
0000
0000
,
0000
0000
0000
0000
,
0000
0000
0000
0000
,
0000
0000
0000
0000
,
0000
0000
0000
0000
,
0000
0000
0000
0000
,
0000
0000
0000
0000
,
0000
0000
1000
0010
,
0010
0100
0001
0001
,
2000
0000
0000
3010
,
0100
0001
0010
0000
,
0001
1000
0000
0010
,
0200
0000
0000
0000
,
0001
0301
1000
0000
,
0010
0010
0000
1000
,
0001
0000
0010
0001
,
0001
1000
0001
0000
,
0100
0000
0010
1000
,
0100
0000
0010
0000
,
0001
0010
0001
0000
,
1000
1000
0000
1000
,
0010
0000
1000
0001
,
1000
0001
1000
0000
,
0001
0010
0100
1000
,
0001
0000
0001
0000
,
1000
0010
0100
0000
,
0002
0000
0103
0001
,
2000
0000
3010
0000
,
0010
1000
0001
0100
,
0000
0000
0001
0100
,
0100
0000
0010
0000
,
0100
0010
1000
0010
,
0100
0000
0001
1000
,
0002
0000
0013
0000
,
0001
0010
0100
0000
,
1000
1000
0001
0010
,
0010
0000
0000
0100
,
1000
0001
0010
0001
,
0100
0010
1000
0100
,
0010
0001
1000
0100
,
1000
0001
0200
0000
,
0001
0310
0100
0001
,
1000
0000
0001
0010
,
0000
0100
1000
0010
,
0001
1000
0100
0001
,
0010
0100
1000
0010
,
0100
0001
2000
0000
,
0000
0000
0000
3010
,
1010
0000
0000
0101
,
0000
0000
1000
0001
,
1000
0100
0010
0100
,
2000
0000
0000
3000
,
0001
0010
0100
0000
,
0010
0100
1000
0100
,
2000
0000
0010
3020
,
0000
0130
0100
0010
,
0100
0000
0001
1000
,
0002
0000
0000
0000
,
0013
0011
0000
1000
,
1010
0000
1100
0000
,
0000
0001
1000
1001
,
0000
0000
1000
0100
,
0010
0001
0010
0100
,
1000
0010
0100
0001
,
0100
0010
1000
0001
,
0010
0100
0010
0001
,
0100
0010
0100
0001
,
0000
0000
0001
0010
,
0100
1000
1000
0001
,
0100
0010
1000
1000
,
0001
0010
0001
0010
,
0100
1000
0200
0000
,
0000
0300
0000
0000
,
1000
0001
0001
0100
,
0010
0000
0000
0010
0000
0000
1000
0000
0000
0010
0000
1000
,
0001
0010
0100
0100
,
0010
0000
0000
0001
0000
0010
0001
0000
0000
0100
0000
0000
,
0010
0010
0100
1000
,
0100
0010
0100
0001
,
0010
0001
0010
0100
,
0010
0000
0000
1000
0000
0000
0010
0000
0000
0100
0000
1000
,
0100
0001
0100
0100
,
1000
0000
0000
0001
0000
0100
0001
0000
0000
0010
0000
0000
,
1000
1000
0020
0000
,
0000
0032
0000
0000
,
0103
0000
0010
1000
,
0000
0100
0001
0100
,
0100
1000
0010
0010
,
0100
0000
0000
0010
,
1000
1000
0100
0000
,
1000
0100
0010
0001
,
0010
0100
1000
0010
,
0100
0001
0010
0100
,
0100
1000
0001
0001
,
0100
0010
0010
1000
,
0100
0100
1000
0001
,
0100
0010
1000
0100
,
0010
0010
0010
0011
;

//---------------dance-single - ----------------
#NOTEDATA:;
#CHARTNAME:;
#STEPSTYPE:dance-single;
#DESCRIPTION:;
#CHARTSTYLE:;
#DIFFICULTY:Hard;
#METER:9;
#RADARVALUES:0.660939,0.697106,0.276347,0.249603,0.494749,460.000000,31.000000,28.000000,0.000000,0.000000,0.000000,0.000000,0.000000,0.660939,0.697106,0.276347,0.249603,0.494749,460.000000,31.000000,28.000000,0.000000,0.000000,0.000000,0.000000,0.000000;
#CREDIT:;
#DISPLAYBPM:220.000000;
#NOTES:
// measure 0
0000
0000
0000
0000
,  // measure 1
0000
0000
0000
0000
,  // measure 2
0000
0000
0000
0000
,  // measure 3
0000
0000
0000
0000
,  // measure 4
0000
0000
0000
0000
,  // measure 5
0000
0000
0000
0000
,  // measure 6
0000
0000
0000
0000
,  // measure 7
0000
0000
0000
0000
0000
0000
1000
0000
0000
0001
0000
0010
,  // measure 8
0001
1000
0010
0010
,  // measure 9
1000
0000
0000
0100
0000
1000
0100
0000
0000
0010
0000
0000
,  // measure 10
0001
0000
0000
0001
0000
0000
0100
0000
0000
0010
0000
0100
,  // measure 11
0010
1000
0010
1000
,  // measure 12
0002
0010
1000
0200
,  // measure 13
0000
0000
0000
0303
0000
0000
0101
0000
0000
0001
0000
1000
,  // measure 14
0001
0010
0002
0003
,  // measure 15
1000
0000
0000
0010
0000
0100
0010
0000
0000
1000
0000
0000
,  // measure 16
0200
0000
0000
0300
0000
0000
0100
0000
0000
1000
0000
0001
,  // measure 17
1000
0010
2000
3000
,  // measure 18
0100
0000
0000
0010
0000
0100
0010
0000
0000
0001
0000
0000
,  // measure 19
2000
0000
0000
3100
0000
0000
1000
0000
0000
0100
0000
0010
,  // measure 20
0100
0010
0002
0003
,  // measure 21
0010
0000
0000
0001
0000
1000
0001
0000
0000
0010
0000
0000
,  // measure 22
2000
0000
0000
3000
0000
0000
0010
0000
0000
0100
0000
1000
,  // measure 23
0010
0001
0020
0030
,  // measure 24
1000
0000
0000
0001
0000
1000
0001
0000
0000
0010
0000
0010
,  // measure 25
0001
0000
0001
0100
0000
0000
0110
0000
0000
0010
0000
1000
,  // measure 26
0100
1000
0010
0010
,  // measure 27
1000
0000
0000
0001
0000
1000
0010
0000
0000
0100
0000
0000
,  // measure 28
0001
0000
0000
0001
0000
0000
0100
0000
0000
0001
0000
1000
,  // measure 29
0100
0010
0100
0100
,  // measure 30
2000
0000
0000
3010
0000
0100
0002
0000
0000
0100
0000
0000
,  // measure 31
1000
0000
0000
1003
0000
0000
1010
0000
0000
0100
0000
0001
,  // measure 32
0010
0100
0010
0010
,  // measure 33
0001
0000
0000
0100
0000
0001
0010
0000
0000
0100
0000
0000
,  // measure 34
1000
0000
0000
1000
0000
0000
0010
0000
0000
1000
0000
0100
,  // measure 35
1000
0001
0100
1000
,  // measure 36
0100
0000
0000
0001
0000
1000
0100
0000
0000
2000
0000
0000
,  // measure 37
3020
0000
0000
0032
0000
0000
0103
0000
0000
1000
0000
0001
,  // measure 38
0010
0100
1100
1100
,  // measure 39
0001
0000
0010
0001
0000
0010
0001
0000
0000
1000
0000
0000
,  // measure 40
0020
0130
0001
0010
,  // measure 41
0100
0010
0001
1000
,  // measure 42
0010
0000
0010
1000
0000
1000
0100
0000
0100
0010
0000
0010
,  // measure 43
0001
0000
0001
0100
0000
0100
1000
0000
0000
0100
0000
0010
,  // measure 44
0100
0001
0011
0011
,  // measure 45
0010
0000
0000
0001
0000
0100
0001
0000
0000
1000
0000
0000
,  // measure 46
1100
1100
0020
2030
,  // measure 47
3002
0000
0000
0203
0000
0000
0000
0000
0301
0100
0000
0010
,  // measure 48
1000
0000
0001
0010
0000
0000
0010
0000
0000
0100
0000
1000
,  // measure 49
0001
0000
0001
0000
1000
0000
0010
0100
,  // measure 50
0010
1000
0001
0010
,  // measure 51
0100
0000
0000
1000
0000
0100
1000
0000
0000
0001
0000
0000
,  // measure 52
0010
0000
0001
0010
0000
0000
1001
0000
0000
0010
0000
0100
,  // measure 53
0010
0000
0000
1000
0000
0000
0001
0000
1000
0001
0000
0000
,  // measure 54
1000
0000
0100
0010
0000
0001
0010
0000
0100
2000
0000
0000
,  // measure 55
0001
0000
3010
0000
1010
0000
0100
0001
,  // measure 56
0100
0001
0010
0010
,  // measure 57
0100
0000
0000
1000
0000
0010
0100
0000
0000
0001
0000
0000
,  // measure 58
0010
0011
1000
0010
,  // measure 59
1010
0001
0101
0100
,  // measure 60
0010
1010
0110
0202
,  // measure 61
0000
0000
0000
0303
0000
0000
1000
0000
0001
0010
0000
0010
,  // measure 62
0001
0000
0100
0010
0000
0010
1000
0000
1000
0001
0000
0001
,  // measure 63
0010
0000
0010
0100
0000
0100
1000
0000
1000
0010
0000
0010
,  // measure 64
0100
0000
0100
0001
0000
0001
1000
0000
0000
0001
0100
0001
,  // measure 65
0100
0000
0010
1000
0000
0000
0100
1000
0100
1000
0000
0001
,  // measure 66
0010
0001
0010
0001
0000
0001
1000
0000
1000
0100
0000
0000
,  // measure 67
0000
0000
0000
1000
0000
0100
1000
0000
0001
0100
0000
0001
,  // measure 68
0010
0000
0100
0010
0000
0000
0110
0000
0000
0001
0000
0010
,  // measure 69
0100
0000
1000
0001
0000
0100
0010
0000
0000
0110
0000
0000
,  // measure 70
0100
0000
0010
1000
0000
1000
0100
0000
0100
0001
0000
0001
,  // measure 71
0010
0000
0000
0000
0010
0000
1000
0000
0000
0002
0000
0000
2000
0000
0000
0000
0000
0000
0000
0000
0000
0000
0000
0000
,  // measure 72
3000
1003
0001
1000
,  // measure 73
0010
1000
0100
0001
,  // measure 74
0100
0000
0000
1000
0000
0000
1010
0000
0000
0010
0000
0100
,  // measure 75
0010
0100
0101
0101
,  // measure 76
1000
0000
0010
0001
0000
0010
1000
0000
0000
0001
0000
0100
,  // measure 77
1000
0000
0100
0001
0000
0000
1000
0000
0000
0100
0000
1000
,  // measure 78
0010
0000
0000
0100
0000
0000
1000
0000
0100
0001
0000
0000
,  // measure 79
0100
0000
0000
0001
0000
0100
0001
0000
0000
0010
0000
0100
,  // measure 80
1000
0000
0000
0000
0001
0000
0010
0000
0000
0000
0010
0000
0100
0000
0000
0000
0000
0000
1000
0000
0000
0010
0000
0000
,  // measure 81
1000
0001
0100
0001
0010
0100
0000
0000
,  // measure 82
1000
0000
0010
0001
0000
0000
1000
0000
0100
0001
0000
0000
,  // measure 83
0010
0000
0100
1000
0000
0000
0020
0000
0000
0000
0000
0000
,  // measure 84
0000
2030
0001
3001
,  // measure 85
0010
0000
0100
1000
0000
0100
0010
0000
0000
0001
0000
0000
,  // measure 86
0100
0001
0100
0010
1000
0010
1000
0000
0000
0010
0000
1000
,  // measure 87
0010
0001
0010
0100
,  // measure 88
0002
0000
0000
0000
0000
0000
0003
0000
0010
0001
0000
0000
,  // measure 89
1000
0010
0200
0000
,  // measure 90
0301
0010
1000
0010
,  // measure 91
0001
0000
0010
0100
0000
1000
0100
0000
0010
0001
0000
0100
,  // measure 92
0010
0000
1000
0100
0000
0000
0110
0000
0000
0001
0000
0100
,  // measure 93
0001
0100
0011
1100
,  // measure 94
0010
0000
0000
1000
0000
0100
0010
0000
0001
0100
0000
0000
,  // measure 95
1001
0000
0000
0110
0000
0000
0100
0000
0001
0010
0000
0000
,  // measure 96
1100
0010
1010
0101
,  // measure 97
0100
0000
0010
1000
0000
0100
0010
0000
0000
1001
0000
0000
;
