#TITLE:Burning Heat!;
#SUBTITLE:(Full Option Mix);
#ARTIST:Mr.T with Motoaki.F;
#TITLETRANSLIT:;
#SUBTITLETRANSLIT:;
#ARTISTTRANSLIT:;
#CREDIT:;
#BANNER:Burning Heat (Full Option Mix).png;
#BACKGROUND:Burning Heat (Full Option Mix)-bg.png;
#LYRICSPATH:;
#CDTITLE:;
#MUSIC:Burning Heat! (Full Option Mix).mp3;
#OFFSET:-0.426;
#SAMPLESTART:35.910;
#SAMPLELENGTH:11.480;
#SELECTABLE:YES;
#BPMS:0.000=166.000,210.000=83.000,219.000=166.000,285.000=332.000,285.667=166.000,286.667=160.000,287.333=150.000,287.667=140.000,288.000=130.000,288.333=110.000,288.667=90.000,288.750=70.000,288.833=50.000,288.917=25.000,289.000=15.000;
#STOPS:285.000=0.120
;
#BGCHANGES:;

//---------------dance-single - ----------------
#NOTES:
     dance-single:
     :
     Easy:
     4:
     0.289,0.438,0.147,0.112,0.177:
0000
0000
0000
0000
,
0000
0000
0000
0000
,
0000
0000
0000
0000
,
0000
0000
0000
0000
,
1001
0000
0000
0000
,
0000
0000
0000
0000
,
0010
0000
0000
0000
,
0200
0000
0000
0000
,
0301
1000
0001
1000
,
0010
1000
0010
1000
,
0100
0010
0100
0010
,
0001
0100
0001
0100
,
0010
0100
0010
0100
,
0010
1000
0010
1000
,
0100
0010
0100
0010
,
0100
0000
0000
1000
0000
0000
0100
0000
0000
1000
0000
0100
,
0000
0110
0000
0000
0000
0000
2000
0000
0000
0001
0000
0000
,
3010
0200
1000
0010
,
0001
1000
0320
0100
,
0031
2000
0001
0100
,
0010
0000
0000
3100
0000
0000
1001
0000
0000
0000
1000
0000
,
0001
0000
0010
0000
0100
0000
1000
0000
0010
0000
0100
0000
,
0001
0000
0000
0000
0000
0000
1000
0000
0001
0100
0000
0000
,
0000
0001
0000
0100
0000
0000
0010
0000
1000
0100
0000
0000
,
0000
0000
0000
0000
1001
0000
1000
0010
,
0100
0000
0001
0000
0110
0000
1000
0001
,
0010
0000
0000
0000
0010
0000
0000
0000
0010
0000
0000
0000
0010
0000
0000
0000
0000
0000
0100
0000
0000
0010
0000
0000
,
0001
0000
0000
0000
0000
0000
1000
0000
0000
0010
0000
0000
0110
0000
0000
0000
0001
0000
0000
0000
1000
0000
0000
0000
,
0010
0000
0100
0000
0001
0000
1000
0000
0000
0001
0000
0010
,
0001
0000
0000
0100
0000
0000
1010
0000
0000
0100
0000
0001
,
0010
0000
0010
0000
0100
0000
0100
0000
0000
0000
1000
0001
,
1000
0000
0000
0000
0000
0000
1000
0000
1010
0000
0100
0000
,
0110
0000
0010
0000
1010
0000
2000
0000
0000
0000
0000
0000
,
0000
0000
0000
0000
,
0000
0000
3002
0000
,
0000
0000
0000
0000
,
0000
0000
0203
0000
,
0000
0000
0000
0000
,
0000
0000
0320
0000
,
0000
0000
0000
0000
,
0000
0000
1030
0000
,
0001
0000
0100
0000
,
0010
0000
1000
0000
,
0001
0000
0100
0000
,
0010
0000
1000
0000
,
0001
0000
1000
0000
,
0100
0000
1000
0000
,
0001
0000
0010
0000
,
0001
0000
0000
0000
0000
0000
1000
0000
0100
1000
0000
0100
,
0010
0000
0000
0010
0000
0001
0010
0000
0100
0010
0000
1000
,
0010
0000
0100
0010
0000
0001
0010
0000
0000
1001
0000
0000
,
0000
0000
0000
1000
0000
0010
0001
0000
0010
0100
0000
0001
,
0100
0000
0010
0100
0000
1000
0200
0000
0000
0000
0000
0000
,
0000
0000
0320
0000
,
0000
0000
0000
0000
0000
0000
2000
0000
0030
3000
0000
0000
,
1000
0010
1000
0010
,
0001
0010
0001
0010
,
1000
0100
1000
0100
,
0001
0100
0001
0100
,
1000
0100
1000
0100
,
0010
0100
0010
0001
,
0010
0001
1000
0001
,
1000
0001
0000
1001
,
0000
0000
0000
0000
,
0000
0000
0000
0110
,
0000
0000
0000
0101
,
0000
0000
0000
1010
,
0000
0000
0000
0000
,
0000
0000
0000
1100
,
0000
0000
0000
0011
,
0000
0000
0000
0000
0000
0000
0000
0000
1000
0000
0010
0000
,
0000
0000
0000
1000
0000
0002
0000
0000
0000
0000
0000
0000
,
0000
0003
0000
0000
;

//---------------dance-single - ----------------
#NOTES:
     dance-single:
     :
     Hard:
     9:
     0.597,0.875,0.424,0.035,0.848: // measure 1
0000
0000
0000
0000
,  // measure 2
0000
0000
0000
0000
,  // measure 3
0000
0000
0000
0000
,  // measure 4
0000
0000
0000
0000
,  // measure 5
1001
0000
0000
0000
,  // measure 6
0000
0000
0000
0000
,  // measure 7
0110
0000
0000
0000
,  // measure 8
2010
0001
0100
0001
,  // measure 9
3010
0100
0001
0000
0010
0001
1000
0000
,  // measure 10
0100
0010
0001
0000
0100
0010
1000
0000
,  // measure 11
0100
0010
1000
0000
0010
0100
1000
0000
,  // measure 12
0010
0001
1000
0000
0100
0001
0010
0000
,  // measure 13
1000
0010
0001
0000
0010
0100
0001
0000
,  // measure 14
1000
0010
0001
0000
0010
0100
0001
0000
,  // measure 15
1000
0010
0001
0000
1000
0010
0100
0000
,  // measure 16
1000
0000
0000
0100
0000
0000
0001
0000
0000
0000
0000
0000
0010
0000
0000
0100
0000
0000
0001
0000
0000
0000
0100
0000
,  // measure 17
0000
1100
0000
0000
0000
0000
1000
0010
1000
0001
0100
0001
,  // measure 18
0010
0000
0000
0010
0100
0010
1000
0001
1000
0100
0010
0001
,  // measure 19
1000
0001
1000
0010
0100
0010
1000
0100
1000
0001
0010
0000
,  // measure 20
0000
0000
0000
0100
0010
0001
0100
0010
1000
0100
0010
1000
,  // measure 21
0010
0001
0100
0010
1000
0100
0001
0000
0000
0000
0001
0100
,  // measure 22
1000
0000
1100
0000
0100
0000
0101
0000
0001
0000
0101
0000
,  // measure 23
0110
0000
0000
0000
0000
0000
0001
0010
0100
1000
0000
0000
,  // measure 24
0000
0100
1000
0100
0010
0001
1000
0010
0100
0001
0000
0000
,  // measure 25
1000
0000
0000
0010
0000
0000
1001
0000
0000
0000
1000
0010
,  // measure 26
0001
0000
0000
0010
0000
0000
0110
0000
0000
0000
1000
0100
,  // measure 27
0001
0000
0100
0000
1100
0000
0010
0000
0000
0000
0001
0010
,  // measure 28
1000
0000
0000
0000
0100
0010
0011
0000
0101
0000
0011
0000
,  // measure 29
1001
0000
0100
0000
0010
0100
1000
0000
0000
0000
1000
0100
,  // measure 30
0001
0000
0000
0100
0000
0000
1001
0000
0000
0000
1000
0100
,  // measure 31
0010
0000
0100
0000
0110
0000
0001
0000
1000
0000
0001
0010
,  // measure 32
0100
0000
0000
0001
0000
0000
1000
0010
0100
0110
0000
0000
,  // measure 33
0001
0100
0001
0010
0000
0000
1001
0000
0001
0000
0000
0000
,  // measure 34
0110
0000
0000
1000
0000
0110
0000
0001
0000
0110
0000
0000
,  // measure 35
1001
0000
0000
1000
0000
0010
0000
0000
0110
0000
0001
0000
,  // measure 36
1000
0000
0001
0000
0011
0000
0000
0000
0000
0000
0001
0100
,  // measure 37
0110
0000
0000
1000
0000
0000
0001
0100
0010
0001
0010
1000
,  // measure 38
0100
0000
0000
0100
1000
0010
0001
0010
1000
0100
0010
0001
,  // measure 39
1000
0001
0100
0001
0000
1001
0000
0000
0000
0000
1000
0010
,  // measure 40
0001
0000
0000
0010
0000
1100
0000
0000
0000
0000
0100
1000
,  // measure 41
0010
0000
0100
0001
0010
0100
1000
0000
0100
1000
0000
0000
,  // measure 42
0010
0000
0100
0010
0000
0000
0100
0000
0001
0100
0000
0000
,  // measure 43
0001
0000
0010
0001
0000
0000
0100
0000
0001
0100
0000
0000
,  // measure 44
0010
0000
1000
0010
0000
0000
1000
0000
0001
1000
0000
0000
,  // measure 45
0100
0000
1000
0100
0000
0000
0010
0000
0001
0010
0000
0000
,  // measure 46
0100
0000
0010
0100
0000
0000
0100
0000
1000
0100
0000
0000
,  // measure 47
0010
0000
0001
0010
0000
0000
0010
0000
1000
0010
0000
0000
,  // measure 48
0100
0000
1000
0001
0000
0000
0010
0000
0100
1000
0000
0000
,  // measure 49
0001
0000
1000
0010
1000
0000
1000
0001
1000
0100
0010
0100
,  // measure 50
0000
0000
0000
0010
0001
0100
1000
0100
0001
0010
0100
0001
,  // measure 51
0100
1000
0010
0001
0010
0100
0001
1000
0001
1000
0000
0000
,  // measure 52
0000
0000
0000
0010
0100
0010
1000
0001
1000
0100
0001
0100
,  // measure 53
1000
0000
0010
0000
0001
0000
0010
0000
0000
0000
0000
0000
1001
0000
0000
0000
1000
0100
0001
0000
0100
0000
0010
0000
,  // measure 54
0001
0000
0101
0000
1000
0000
0110
0000
0000
0000
0000
0000
1000
0001
1000
0001
0000
0000
0100
0001
0100
1000
0100
0010
,  // measure 55
0100
0001
0100
0001
0000
0000
0000
0000
0000
1000
0001
0100
0020
0000
0000
0000
0000
0000
1030
0000
0000
0000
0000
0000
,  // measure 56
0001
0010
0100
1000
0000
0000
0001
0000
0000
1100
0000
0000
,  // measure 57
0000
1000
0100
0001
0000
1000
0000
1010
0000
0010
0000
0000
,  // measure 58
0000
0010
0001
1000
0000
0000
0000
0010
0100
0110
0000
1001
,  // measure 59
0000
0110
0000
1001
0000
0110
0000
1000
0010
0001
0000
0000
,  // measure 60
0010
0100
0001
1000
0000
0000
0010
0000
0000
0101
0000
0000
,  // measure 61
0000
0010
0100
1000
0000
0100
0000
1010
0000
1001
0000
0000
,  // measure 62
0000
0100
0001
1000
0000
0000
0010
0000
0000
0000
1000
0001
,  // measure 63
1001
0000
0000
0100
0000
1001
0000
0010
0000
1001
0000
0000
,  // measure 64
0001
0100
0001
0100
,  // measure 65
1000
0100
1000
0110
,  // measure 66
0010
0100
0010
0011
,  // measure 67
0010
0001
0010
1010
,  // measure 68
1000
0010
1000
0010
,  // measure 69
0001
0010
0001
0010
,  // measure 70
1000
0000
0000
0010
0000
0000
1000
0000
0000
0010
0100
0001
,  // measure 71
0100
0010
0100
0001
0100
1000
0100
0001
0010
0000
0010
0000
,  // measure 72
0000
0000
0000
1001
0000
0220
0000
0000
0000
0000
0000
0000
,  // measure 73
0000
0330
0000
0000
;

//---------------dance-single - ----------------
#NOTES:
     dance-single:
     :
     Medium:
     7:
     0.459,0.531,0.234,0.493,0.489:
0000
0000
0000
0000
,
0000
0000
0000
0000
,
0000
0000
0000
0000
,
0000
0000
0000
0000
,
1001
0000
0000
0000
,
0000
0000
0000
0000
,
0110
0000
0000
0000
,
2001
0010
0001
0100
,
3010
0100
0010
0100
,
0001
1000
0001
1000
,
0100
0001
0100
0001
,
1000
0010
1000
0010
,
0001
0010
0001
0010
,
0100
1000
0100
1000
,
0010
0001
0010
0001
,
0010
0000
0100
0000
0010
0000
1000
0000
0001
0000
0000
0010
,
0000
0011
0000
0000
0000
0000
1000
0000
0010
1000
0000
0001
,
1000
0000
0000
0100
0000
0010
0100
0000
1000
0100
0000
0001
,
0100
0000
1000
0100
0000
0000
0010
0000
0001
0010
0000
0000
,
0000
0000
0000
0001
0000
0100
0001
0000
1000
0001
0000
0010
,
0001
0000
0100
0001
0000
0010
0001
0000
0000
0000
0001
0000
,
0100
0000
0110
0000
0010
0000
1010
0000
1000
0000
1001
0000
,
0110
0000
0000
0000
0000
0000
1000
0000
0001
2000
0000
0000
,
3000
0001
0000
0010
0000
0000
0100
0000
0010
0002
0000
0000
,
0003
0000
0000
2000
0000
0000
3002
0000
0000
0000
0200
0000
,
0303
0000
0000
0110
0000
0000
2010
0000
0000
0000
0020
0000
,
3030
0100
0000
0001
0000
0102
0000
0000
0000
0000
0020
0000
,
0033
0000
0000
0000
2000
0000
3010
0000
0001
0000
0010
0000
,
1000
0000
0100
0000
1000
0000
0020
0000
0000
0000
2000
0000
,
3030
0000
0000
0100
0000
0000
1200
0000
0000
0000
0020
0000
,
0330
0000
0001
0000
1000
0000
0020
0000
0000
0000
0002
0000
,
0000
0000
0000
0033
0000
0000
0000
0020
0000
0130
0000
0000
,
0002
0000
0000
0003
0000
0000
1000
0000
0100
0000
0000
0000
,
0011
0000
0000
1000
0000
0010
0000
0100
0000
0010
0000
1000
,
0000
0001
0000
0010
0000
0002
0000
0000
0000
0000
2000
0000
,
3003
0000
0000
1000
0000
0110
0000
0000
0000
0000
1000
0000
,
1001
0000
0000
0000
0000
0000
1000
0000
0010
0000
0100
0000
,
1000
0000
0100
0000
0001
0000
0010
0000
0100
0000
0001
0000
,
0100
0000
1000
0000
0010
0000
0110
0000
0000
0000
2000
0000
,
3001
0000
0002
0000
,
0020
0000
0033
0002
,
0003
0200
0300
0020
,
0030
0200
0300
0002
,
0003
2000
3000
0200
,
0300
2000
3000
0002
,
0103
0020
0031
0020
,
0130
0020
1030
0200
,
0310
0200
0301
0200
,
1300
0000
0000
2000
0000
0000
3010
0000
0010
0001
0000
0010
,
0100
0000
0000
0100
0000
0100
0001
0000
0100
0010
0000
0100
,
1000
0000
0100
0010
0000
0100
0001
0010
0100
1000
0000
0000
,
0000
0000
0000
0001
0000
0010
0001
0000
1000
0001
0000
0100
,
0001
0000
0010
0001
0000
0000
0001
0000
1000
0100
0100
0010
,
0010
0001
0100
0010
0000
0000
1000
0100
0000
0000
1000
0100
,
1000
0001
0000
0000
1000
0010
0100
1000
0100
0001
0000
0000
,
0000
1000
0001
1000
0000
0000
0010
0000
0000
1001
0000
0000
,
0000
1000
0001
1000
0000
0010
0000
0110
0000
0001
0000
0000
,
0000
0001
1000
0001
0000
0000
0000
1000
0010
0110
0000
1000
,
0000
0001
0000
1000
0000
0001
0000
0100
0000
0010
0000
0000
,
0000
0100
0010
0100
0000
0000
1000
0000
0000
0110
0000
0000
,
0000
0100
0010
0100
0000
0001
0000
1000
0000
0110
0000
0000
,
0000
0010
0100
0010
0000
0000
0000
0000
0000
0000
0010
0100
,
0110
0000
0000
1000
0000
0110
0000
0000
0000
1001
0000
0000
,
2000
3000
0002
0003
,
2000
3000
0002
0103
,
0200
0300
0020
0130
,
0200
0300
0020
0130
,
0002
0003
0200
0300
,
0002
0003
0200
0301
,
0002
0003
0200
0301
,
0002
0000
0000
0003
0000
0000
0100
0000
0010
0000
1010
0000
,
0000
0000
0000
1100
0000
0022
0000
0000
0000
0000
0000
0000
,
0000
0033
0000
0000
;
