#TITLE:Blue Marine;
#SUBTITLE:;
#ARTIST:ParagonX9;
#TITLETRANSLIT:;
#SUBTITLETRANSLIT:;
#ARTISTTRANSLIT:;
#GENRE:;
#CREDIT:;
#BANNER:Blue Marine-bn.png;
#BACKGROUND:Blue Marine-bg.png;
#LYRICSPATH:;
#CDTITLE:;
#MUSIC:Blue Marine.mp3;
#OFFSET:-0.705000;
#SAMPLESTART:43.349998;
#SAMPLELENGTH:12.000000;
#SELECTABLE:YES;
#BPMS:0.000000=180.199997
;
#STOPS:
;
#BGCHANGES:;
#KEYSOUNDS:;
#ATTACKS:;

//---------------dance-single - ----------------
#NOTES:
     dance-single:
     :
     Hard:
     9:
     0.609676,0.718415,0.393418,0.401971,0.675653,406.000000,46.000000,47.000000,0.000000,0.000000,0.000000,0.609676,0.718415,0.393418,0.401971,0.675653,406.000000,46.000000,47.000000,0.000000,0.000000,0.000000:
0000
0000
0000
0000
,
0000
0000
0000
0000
,
0000
0000
0000
0000
,
0000
0000
0000
0000
,
0000
0000
0000
0000
,
0000
0000
0000
0000
,
0000
0000
0000
0000
,
0000
0000
0000
0000
0000
0000
1000
0000
0001
1000
0001
0000
,
1000
1100
1000
1001
,
0001
0000
0000
0101
0000
0000
0001
0000
0001
1000
0000
0000
,
0010
1010
1000
1001
,
0001
0000
0000
0011
0000
0000
0010
0000
0010
0001
1000
0001
,
1000
1100
1000
1001
,
0001
0000
0000
0101
0000
0000
0001
0000
0001
1000
0000
0000
,
0010
1010
1000
1001
,
0001
0000
0000
0000
0000
0000
0001
0010
0001
1000
0001
1000
,
0100
0000
0000
1000
0000
0000
0010
0000
1000
0000
0000
0001
,
0100
0000
0000
0001
0000
0000
1000
0000
0010
0000
0000
1000
,
0100
0000
0000
0010
0000
0001
0000
0000
0001
0010
0000
0000
,
0100
0000
0000
0000
0000
0000
0000
0000
0000
0000
0000
0000
0010
0000
0000
0000
0000
0000
0001
0000
0000
0010
0000
0000
0001
0000
0000
0000
0000
0000
0000
0000
0000
0000
0000
0000
0010
0000
0000
0000
0000
0000
0000
0000
0100
0000
0000
0000
,
1000
0000
0000
0010
0000
0000
0100
0000
0001
0000
0000
1000
,
0010
0000
0000
0100
0000
0000
0010
0000
1000
0000
0000
1000
,
0001
0000
0000
0100
0000
0010
0000
0000
0010
0100
0000
0000
,
0002
0000
0000
0000
0000
0000
0013
0000
0100
0000
1000
0000
,
0020
0230
0302
0023
,
0230
0000
0000
0010
0000
0000
0310
0000
0100
2000
0000
0000
,
3002
0203
0320
2030
,
3200
0000
0000
1000
0000
0000
1300
0000
0100
0000
0010
0000
,
0002
0000
0000
0000
0000
0000
0000
0000
0000
0000
0000
0000
0000
0000
0000
0000
0000
0000
0000
0000
0203
0000
0000
0000
0000
0000
0000
0000
0000
0000
0000
0000
0000
0000
0000
0000
0000
0000
0000
0000
0300
0000
0010
0000
0000
0100
0000
0000
,
0020
2030
3200
0320
,
0032
1000
0100
1003
,
1001
0000
1010
0000
0110
0000
0101
0000
0000
0000
0000
0000
,
1100
1000
0001
0101
,
1001
0000
0000
1000
0000
0000
0100
0000
0100
0010
0000
0000
,
0011
0001
0100
0110
,
0101
0000
0000
0001
0000
0000
1001
0000
0000
1000
0010
1000
,
0010
1000
0010
0110
,
0101
0000
0000
0100
0000
0001
0000
0000
0000
1001
0000
0000
,
1000
0100
0010
0110
,
1001
0000
0000
0000
0000
0000
0110
0000
0101
0000
1001
0000
,
1010
0000
0000
0100
0000
0000
0010
0100
0010
0100
0000
0001
,
1000
0000
0100
0010
0000
0001
1000
0010
1000
0010
0000
0100
,
0001
0000
0000
1000
0000
0000
0100
0010
0100
0010
0000
0001
,
1000
0000
1000
0100
0010
0100
1000
0000
1000
0010
0000
0000
,
0100
0000
0000
0010
0000
0000
0100
0010
0100
0010
0000
1000
,
0001
0000
0010
0100
0000
1000
0001
0100
0001
0100
0000
0010
,
1000
0000
1000
0001
0000
0000
0010
0100
0010
0100
0000
1000
,
0001
0000
0001
0000
0010
0000
0100
0000
1000
0000
0010
0000
,
0200
0000
0000
0302
,
2003
0000
0000
3200
,
0320
0000
0000
0032
,
0203
0000
0320
0000
,
2030
0000
0000
3200
,
0320
0000
0000
0032
,
0203
0000
0000
0320
,
2030
0000
0000
0000
0000
0000
3001
0000
0010
0000
0100
0000
,
2000
0000
0000
0000
0000
0000
3100
1000
0100
2000
0000
0000
,
3002
0000
0000
0000
0000
0000
0103
0001
0100
0002
0000
0000
,
0023
0000
0000
0000
0000
0000
0130
0010
0100
0020
0000
0000
,
0031
0000
0001
0100
0000
0100
0010
0000
0010
0200
0000
0000
,
0302
0000
0000
0203
0000
0000
0310
0100
0010
0200
0000
0000
,
0302
0000
0000
2003
0000
0000
3001
1000
0001
2000
0000
0000
,
3100
0000
0100
0010
0000
0010
0001
0000
0001
0100
0000
0100
,
0010
0000
0100
0000
0010
0000
1000
0000
0100
0000
0010
0000
,
0001
0000
0000
0100
0000
0010
1000
0100
1000
0010
0100
0010
,
0100
0000
0001
0100
0000
0010
1000
0100
1000
0100
0000
1000
,
0001
0000
0000
0100
0000
0000
0010
1000
0001
0100
0001
1000
,
0100
0000
0100
0010
0001
0010
0001
0000
0001
1000
0000
0000
,
0100
0000
0000
0100
0000
0000
0100
0010
0100
0010
0001
0010
,
0001
0000
0100
0001
0000
0100
0010
1000
0010
1000
0000
0100
,
1000
0000
1000
0010
0000
0010
0100
0001
0100
0001
0010
0001
,
1000
0000
1000
0000
0010
0000
0101
0000
1001
0000
1010
0000
,
1000
0000
1000
0010
0000
0010
0100
0000
0100
0010
0000
0000
,
1001
0000
0001
0010
0000
0010
0100
0000
0100
0010
0000
0000
,
0110
0000
0010
0001
0000
0001
1000
0000
1000
0100
0000
0000
,
1100
0000
1000
0001
0000
0000
1001
0000
0001
0100
0000
0000
,
0110
0000
0100
0010
0000
0010
1000
0000
1000
0001
0000
0000
,
1001
0000
1000
0100
0000
0100
0010
0000
0010
0001
0000
0000
,
0011
0000
0001
0100
0000
0100
0010
1000
0001
0100
0001
1000
,
0010
0000
0010
0000
0110
0000
1001
0000
1010
0000
0011
0000
,
1001
0000
0000
0000
;

//---------------dance-single - ----------------
#NOTES:
     dance-single:
     :
     Medium:
     7:
     0.514376,0.547364,0.393418,0.461838,0.342103,321.000000,46.000000,54.000000,0.000000,0.000000,0.000000,0.514376,0.547364,0.393418,0.461838,0.342103,321.000000,46.000000,54.000000,0.000000,0.000000,0.000000:
0000
0000
0000
0000
,
0000
0000
0000
0000
,
0000
0000
0000
0000
,
0000
0000
0000
0000
,
0000
0000
0000
0000
,
0000
0000
0000
0000
,
0000
0000
0000
0000
,
0000
0000
1001
0110
,
1000
0010
1000
0010
,
0100
0000
0000
0001
0000
0000
1000
0000
0001
1000
0000
0000
,
0100
1000
0100
0010
,
0001
0000
0000
0100
0000
0000
0001
0000
1000
0001
0000
0000
,
0011
0010
0100
1000
,
0100
0000
0000
0010
0000
0000
0100
0000
0010
0100
0000
0000
,
1000
0001
0100
0010
,
1000
0000
1001
0110
,
1000
0000
0000
1000
0000
0000
0100
0000
0010
0000
0000
0001
,
0000
0000
0000
0001
0000
0000
0100
0000
0010
0000
0000
1000
,
0000
0000
0000
0000
0000
0100
0000
0000
0000
0010
0000
0000
,
0001
0001
1000
1000
,
0100
0000
0000
0100
0000
0000
1000
0000
0001
0000
0000
0010
,
0000
0000
0000
0010
0000
0000
0100
0000
1000
0000
0000
0001
,
0000
0000
0000
0001
0000
0100
0000
0000
0000
0010
0000
0000
,
2000
0000
0000
0000
0000
0000
3001
0000
0100
0000
0010
0000
,
1000
0200
0320
0032
,
2003
0000
0000
0000
0000
0000
0000
0000
0000
3010
0000
0100
,
0020
2030
3002
0023
,
0230
0000
0000
0000
0000
0000
2300
0000
3200
0000
0320
0000
,
0032
0000
0000
0000
0000
0000
0000
0000
0000
0000
0203
0000
0000
0000
0000
0000
0000
0000
0000
0000
0000
0320
0000
0000
,
2030
3200
2300
3002
,
0023
0000
0000
0230
,
1300
0000
0010
0000
1000
0000
0100
0000
0000
0000
0000
0000
,
1001
1000
0100
0110
,
0011
0000
0000
0001
0000
0000
1000
0000
0100
1000
0000
0000
,
1010
0010
1000
1100
,
1001
0000
0000
0001
0000
0000
0101
0000
0001
0100
0000
0010
,
0100
0010
1000
1100
,
0110
0000
0000
0100
0000
0000
1000
0000
0001
1000
0000
0000
,
1010
0010
0100
0001
,
0100
0000
0000
0000
0000
0000
0100
0000
0001
0000
0100
0000
,
0001
0000
0000
0001
0000
0001
1000
0000
1000
0100
0000
0100
,
0010
0000
0000
0010
0000
0010
0100
0000
0100
0010
0000
0000
,
0001
0000
0000
0001
0000
0001
1000
0000
1000
0001
0000
0000
,
0010
1001
0100
1001
,
1000
0000
0000
1000
0000
1000
0001
0000
0001
0100
0000
0100
,
0010
0000
0000
0010
0000
0010
0100
0000
0100
0010
0000
0000
,
1000
0000
0000
1000
0000
1000
0100
0000
0100
0010
0000
0010
,
0001
0000
0100
0000
0010
0000
1000
0000
0100
0000
0010
0000
,
0002
0000
0000
0203
,
0320
0000
0000
2030
,
3002
0000
0000
2003
,
3200
0000
0320
0000
,
0032
0000
0000
0203
,
0320
0000
0000
2030
,
3002
0000
0000
0023
,
0230
0000
0000
0000
0000
0000
1300
0000
0010
0000
0100
0000
,
1002
0010
1000
0203
,
0320
1000
0100
2030
,
3002
0010
0100
2003
,
3200
1000
0320
0100
,
0032
0010
1000
0203
,
0320
1000
0100
2030
,
3002
1000
0100
0023
,
0230
0000
0320
0000
0032
0000
1003
0000
0100
0000
0010
0000
,
1001
0101
1001
1100
,
0110
1100
0110
0011
,
0101
1001
1010
1001
,
0101
0110
0101
0011
,
0110
1100
1001
0101
,
0110
1010
0110
0101
,
1001
1100
0110
0011
,
1000
0000
0001
0000
0010
0000
0001
0000
1000
0000
0010
0000
,
0100
0000
0010
0100
0000
0010
0100
0000
0010
0100
0000
0000
,
0001
0000
0010
0001
0000
0010
0001
0000
0010
0001
0000
0000
,
0010
0000
0100
0010
0000
0100
0010
0000
0100
0010
0000
0000
,
0001
0000
1000
0001
0000
0000
1000
0000
0001
1000
0000
0000
,
1000
0000
0100
1000
0000
0100
1000
0000
0100
1000
0000
0000
,
0001
0000
0100
0001
0000
0100
0001
0000
0100
0001
0000
0000
,
0010
0000
0100
0010
0000
0100
0010
0000
0100
0010
0000
0000
,
0100
0000
0010
0000
0001
0000
1000
0000
0010
0000
0100
0000
,
0001
0000
0000
0000
;

//---------------dance-single - ----------------
#NOTES:
     dance-single:
     :
     Easy:
     5:
     0.360429,0.478944,0.153946,0.290787,0.000000,243.000000,18.000000,34.000000,0.000000,0.000000,0.000000,0.360429,0.478944,0.153946,0.290787,0.000000,243.000000,18.000000,34.000000,0.000000,0.000000,0.000000:
// measure 0
0000
0000
0000
0000
,  // measure 1
0000
0000
0000
0000
,  // measure 2
0000
0000
0000
0000
,  // measure 3
0000
0000
0000
0000
,  // measure 4
0000
0000
0000
0000
,  // measure 5
0000
0000
0000
0000
,  // measure 6
0000
0000
0000
0000
,  // measure 7
0000
0000
0010
0100
,  // measure 8
1001
1000
1000
0001
,  // measure 9
0100
0100
0100
0010
,  // measure 10
1000
1000
1000
0100
,  // measure 11
1000
1000
0001
0001
,  // measure 12
0010
0010
0010
0001
,  // measure 13
1000
1000
1000
0100
,  // measure 14
0010
0010
0010
0100
,  // measure 15
0010
0000
0010
0100
,  // measure 16
1001
0000
1000
0100
,  // measure 17
0010
0000
0001
0010
,  // measure 18
0100
1000
0100
0000
,  // measure 19
1000
0100
0010
0001
,  // measure 20
1000
0000
0001
0100
,  // measure 21
0010
0000
1000
0010
,  // measure 22
0100
0010
1000
0000
,  // measure 23
0001
0100
0010
0010
,  // measure 24
1001
2000
3200
0320
,  // measure 25
0032
0000
0000
0023
,  // measure 26
0230
0320
0032
2003
,  // measure 27
3200
0000
0320
0032
,  // measure 28
2003
0000
3020
0000
,  // measure 29
0230
0302
2003
3002
,  // measure 30
0023
0000
0000
0130
,  // measure 31
0110
0000
1000
0001
,  // measure 32
1000
0100
1000
0100
,  // measure 33
0100
0010
0100
0010
,  // measure 34
0010
0001
0010
0001
,  // measure 35
0001
0100
0010
0100
,  // measure 36
0001
1000
0001
1000
,  // measure 37
1000
0010
1000
0010
,  // measure 38
0010
0100
0010
0100
,  // measure 39
0100
0000
0100
0010
,  // measure 40
1001
1000
0010
0100
,  // measure 41
0001
0001
0010
0100
,  // measure 42
1000
0010
0100
0001
,  // measure 43
1000
0010
1000
0100
,  // measure 44
1000
1000
0100
0010
,  // measure 45
0001
0001
0100
0010
,  // measure 46
1000
0010
0100
0001
,  // measure 47
1001
0000
1000
0001
,  // measure 48
2000
0000
0000
3200
,  // measure 49
0320
0000
0000
0032
,  // measure 50
2003
0000
0000
3200
,  // measure 51
0320
0000
0230
0000
,  // measure 52
2300
0000
0000
3002
,  // measure 53
0203
0000
0000
0320
,  // measure 54
2030
0000
0000
3200
,  // measure 55
0320
0000
0130
0100
,  // measure 56
1001
0000
0000
1000
,  // measure 57
1100
0000
0000
0010
,  // measure 58
0110
0000
0000
0001
,  // measure 59
0101
0000
0110
0000
,  // measure 60
1001
0000
0000
0001
,  // measure 61
0101
0000
0000
0010
,  // measure 62
0110
0000
0000
1000
,  // measure 63
1100
0000
1001
0000
,  // measure 64
0001
0010
0100
1000
,  // measure 65
0010
0100
0010
1000
,  // measure 66
0100
1000
0001
0100
,  // measure 67
0001
0010
0100
1000
,  // measure 68
0001
0100
0010
0100
,  // measure 69
0001
0010
0100
1000
,  // measure 70
0010
0100
0010
1000
,  // measure 71
0100
0010
0001
1000
,  // measure 72
1001
1000
0100
0100
,  // measure 73
0001
0001
0010
0010
,  // measure 74
0100
0100
1000
1000
,  // measure 75
0001
0001
0100
0100
,  // measure 76
0010
0010
0001
0001
,  // measure 77
0100
0100
1000
1000
,  // measure 78
0010
0010
0100
0100
,  // measure 79
1000
1000
0001
0001
,  // measure 80
1001
0000
0000
0000
;

//---------------dance-single - ----------------
#NOTES:
     dance-single:
     :
     Beginner:
     3:
     0.206483,0.307892,0.085526,0.333550,0.000000,120.000000,10.000000,39.000000,0.000000,0.000000,0.000000,0.206483,0.307892,0.085526,0.333550,0.000000,120.000000,10.000000,39.000000,0.000000,0.000000,0.000000:
0000
0000
0000
0000
,
0000
0000
0000
0000
,
0000
0000
0000
0000
,
0000
0000
0000
0000
,
0000
0000
0000
0000
,
0000
0000
0000
0000
,
0000
0000
0000
0000
,
0000
0000
0010
0000
,
1000
0000
0000
0000
,
0100
0000
0000
0000
,
0010
0000
0000
0000
,
0001
0000
0100
0000
,
0010
0000
0000
0000
,
1000
0000
0000
0000
,
0001
0000
0000
0000
,
0010
0000
0100
0000
,
0010
0000
0010
0000
,
0100
0000
0100
0000
,
1000
0000
1000
0000
,
0001
0000
0001
0000
,
0100
0000
0100
0000
,
0010
0000
0010
0000
,
1000
0000
1000
0000
,
0001
0000
1000
0000
,
0020
0000
0000
0000
,
0230
0000
0000
0000
,
0302
0000
0000
0000
,
2003
0000
0000
0000
,
3200
0000
0000
0000
,
0320
0000
0000
0000
,
0032
0000
0000
0000
,
1003
0000
0001
0000
,
1000
0000
0000
0100
,
0100
0000
0000
0010
,
0010
0000
0000
0001
,
0001
0000
0100
0000
,
0010
0000
0000
1000
,
1000
0000
0000
0001
,
0001
0000
0000
0010
,
0010
0000
0000
0000
,
0100
0000
1000
0000
,
0001
0000
0010
0000
,
0001
0000
1000
0000
,
0010
0000
0100
0000
,
0010
0000
1000
0000
,
0001
0000
0100
0000
,
0001
0000
0010
0000
,
0001
0000
1000
0000
,
0200
0000
0000
0000
,
2300
0000
0000
0000
,
3020
0000
0000
0000
,
0230
0000
0302
0000
,
0023
0000
0000
0000
,
0230
0000
0000
0000
,
2300
0000
0000
0000
,
3002
0000
0100
0000
,
2003
0000
0000
0000
,
3002
0000
0000
0000
,
0023
0000
0000
0000
,
0230
0000
0320
0000
,
0032
0000
0000
0000
,
0203
0000
0000
0000
,
0320
0000
0000
0000
,
2030
0000
3001
0000
,
2001
3000
2000
3000
,
0002
0003
0002
0003
,
0200
0300
0200
0300
,
0020
0030
0200
0300
,
0002
0003
0002
0003
,
2000
3000
2000
3000
,
0200
0300
0200
0300
,
1000
0000
0001
0000
,
1001
0000
0100
0000
,
1010
0000
0100
0000
,
0011
0000
1000
0000
,
0101
0000
1100
0000
,
1001
0000
0100
0000
,
0011
0000
0100
0000
,
1010
0000
0100
0000
,
0110
0000
0100
0000
,
0010
0000
0000
0000
;
