#TITLE:Aurora -COLD DISTRICTS TYPE L.E.D.-G MIX- Z-I-v Summer Contest 2014 Edition;
#SUBTITLE:;
#ARTIST:Remixed by L.E.D.-G;
#TITLETRANSLIT:;
#SUBTITLETRANSLIT:;
#ARTISTTRANSLIT:;
#GENRE:;
#CREDIT:;
#MENUCOLOR:;
#METERTYPE:DDR;
#BANNER:[12ths Week] - Aurora -COLD DISTRICTS TYPE L.E.D.-G MIX-.png;
#BACKGROUND:[12ths Week] - Aurora -COLD DISTRICTS TYPE L.E.D.-G MIX--bg.png;
#LYRICSPATH:;
#CDTITLE:./CDTITLES/NONE.PNG;
#MUSIC:[12ths Week] - Aurora -COLD DISTRICTS TYPE L.E.D.-G MIX-.mp3;
#OFFSET:-0.046;
#SAMPLESTART:66.960;
#SAMPLELENGTH:15.000;
#SELECTABLE:YES;
#LISTSORT:;
#BPMS:0.000=165.000;
#STOPS:;
#BGCHANGES:;
#ATTACKS:;

//---------------dance-single - ----------------
#NOTES:
     dance-single:
     :
     Beginner:
     1:
     0.109,0.164,0.025,0.000,0.000:
0000
0000
0000
0000
,
0000
0000
0000
0000
,
0000
0000
0000
0000
,
0000
0000
0000
0000
,
0000
0000
0000
0000
,
0000
0000
0000
0000
,
0010
0000
0000
0000
,
0000
0000
0000
0000
,
0100
0000
0000
0000
,
0000
0000
0000
0000
,
1001
0000
0000
0000
,
1000
0000
0000
0000
,
1000
0000
0000
0000
,
0001
0000
0000
0000
,
0001
0000
0000
0000
,
0100
0000
0000
0000
,
0100
0000
0000
0000
,
0010
0000
0000
0000
,
0010
0000
0000
0000
,
1000
0000
1000
0000
,
1000
0000
0000
0000
,
0001
0000
0001
0000
,
0001
0000
0000
0000
,
0100
0000
0100
0000
,
0100
0000
0000
0000
,
0010
0000
0010
0000
,
0010
0000
0000
0000
,
1001
0000
0000
0000
,
0000
0000
0000
0000
,
1000
0000
0000
0000
,
0000
0000
0000
0000
,
0001
0000
0000
0000
,
0000
0000
0000
0000
,
0100
0000
0000
0000
,
0010
0000
0000
0000
,
1000
0000
1000
0000
,
1000
0000
0000
0000
,
0001
0000
0001
0000
,
0001
0000
0000
0000
,
0100
0000
0100
0000
,
0100
0000
0000
0000
,
0010
0000
0000
0000
,
1000
0000
0000
0000
,
0001
0000
1000
0000
,
0001
0000
1000
0000
,
0001
0000
0000
0000
,
1000
0000
1000
0000
,
1000
0000
0000
0000
,
0100
0000
0100
0000
,
0100
0000
0000
0000
,
0010
0000
0010
0000
,
0010
0000
0000
0000
,
0001
0000
0001
0000
,
0001
0000
0000
0000
,
0000
0001
0000
0001
,
0000
1000
0000
0000
,
0000
1000
0000
1000
,
1000
0000
0000
0000
,
0000
0010
0000
0010
,
0000
0010
0000
0000
,
0000
0100
0000
0100
,
0100
0000
0000
0000
,
0001
0000
0000
0000
,
0000
0000
0000
0000
,
1000
0000
0000
0000
,
0000
0000
0000
0000
,
0010
0000
0000
0000
,
0000
0000
0000
0000
,
0100
0000
0000
0000
,
0100
0000
0000
0000
,
0001
0000
0001
0000
,
1000
0000
1000
0000
,
0010
0000
0000
0000
,
1000
0000
0001
0000
,
1000
0000
1000
0000
,
0001
0000
0001
0000
,
0100
0000
0000
0000
,
0001
0000
1000
0000
,
1001
0000
0000
0000
;

//---------------dance-single - ----------------
#NOTES:
     dance-single:
     :
     Easy:
     4:
     0.278,0.301,0.117,0.159,0.013:
0000
0000
0000
0000
,
0000
0000
0000
0000
,
0000
0000
0000
0000
,
0000
0000
0000
0000
,
0000
0000
0000
0000
,
0000
0000
0000
0000
,
0020
0000
0000
0000
,
0030
2000
3002
0203
,
0320
0000
0230
0000
,
0302
0000
2003
0000
,
3001
0000
0000
0000
,
1000
1000
1000
1000
,
0000
0001
0001
0100
,
0001
0001
0001
0001
,
0000
0010
0010
0100
,
0010
0010
0010
0010
,
0000
0001
0001
1000
,
0100
0100
0100
0100
,
0000
0010
0000
1000
,
0001
0100
0010
1000
,
0000
0001
0100
0001
,
1000
0100
0010
0001
,
0000
1000
0100
1000
,
0000
1001
0010
0100
,
0000
0001
0100
0010
,
1000
0001
1000
1001
,
0001
1000
0001
1001
,
0220
0000
0000
0000
,
0000
0000
0000
0330
,
1000
0000
0000
0000
,
2000
0000
0000
3000
,
0001
0000
0000
0000
,
0002
0000
0000
0003
,
0010
0000
0000
0000
,
0020
0000
0000
0030
,
0100
0000
0100
0000
,
1000
0001
1000
0000
,
0110
0010
0010
0000
,
2000
0000
3001
0000
,
0010
0010
0010
0000
,
0002
0000
1003
0000
,
1001
0010
0010
0000
,
1000
0000
0001
0000
,
1001
0010
0010
0000
,
0001
0000
1000
0000
,
0220
0000
0000
0330
,
0001
0100
0010
0010
,
1000
0000
0100
0000
,
1000
0100
0010
0010
,
0001
0000
1000
0000
,
0001
1000
0010
0010
,
0100
0000
0001
0000
,
1000
0001
0010
0010
,
0100
0000
1000
0000
,
0001
0001
0100
0100
,
0010
0010
1000
1000
,
0100
0100
1000
1000
,
0001
0000
1000
0000
,
1000
1000
0100
0100
,
0010
0010
0001
0001
,
1000
1000
0010
0010
,
0100
0000
0001
0000
,
1001
0000
0000
0000
,
0010
0010
0010
0010
,
0110
0000
0000
0000
,
0000
0000
0001
0000
0000
0001
0000
0000
0001
0000
0000
0000
,
1001
0000
0000
0000
,
1000
1000
1000
1000
,
0110
0000
1001
0000
,
0010
0010
0010
0000
,
0100
0100
0001
0001
,
1000
1000
0010
1000
,
0001
0001
0010
0010
,
0001
0001
0100
0010
,
1000
1000
0100
0100
,
0010
0010
0001
0001
,
0100
0100
0010
0010
,
1000
0000
0001
0000
,
2002
0000
0000
0000
,
0000
0000
0000
3003
;

//---------------dance-single - ----------------
#NOTES:
     dance-single:
     :
     Medium:
     7:
     0.425,0.569,0.143,0.302,0.398:
0000
0000
0000
0000
,
0000
0000
0000
0000
,
0000
0000
0000
0000
,
0000
0000
0000
0000
,
0000
0000
0000
0000
,
0000
0000
0000
0000
,
0020
0000
0000
0000
,
0030
2000
3002
0203
,
0302
0000
2003
0000
,
3020
0000
0230
0000
,
0310
0000
0000
0000
,
1000
0000
0100
1000
0000
0000
0100
0000
0000
0100
0000
0000
,
0000
0010
0001
0010
,
0001
0000
0100
0001
0000
0000
0100
0000
0000
0100
0000
0000
,
0000
0010
1000
0001
,
1000
0000
0001
1000
0000
0000
0001
0000
0000
0001
0000
0000
,
0000
0100
0010
1000
,
0001
0000
1000
0001
0000
0000
1000
0000
0000
1000
0000
0000
,
0010
0000
0010
0000
1000
0000
0100
0000
0000
0000
0000
0000
,
1000
0000
0100
1000
0000
0000
0100
0000
0000
0010
0000
0000
,
0000
0001
0100
0010
,
0100
0000
0001
0100
0000
0000
0001
0000
0000
1000
0000
0000
,
0000
0010
1000
0001
,
0000
0000
0000
0110
0000
0001
0100
0000
0000
0100
0000
0000
,
0001
0010
0100
1000
,
0100
0000
1000
0100
0000
0000
0010
0000
0001
0010
0000
0000
,
0001
0000
1000
0000
0001
0000
0100
0000
0000
0110
0000
0000
,
2002
0000
0000
0000
,
0000
0000
0000
3003
,
1000
0000
0000
0000
0000
0000
0001
0000
0001
1000
0000
0020
,
0000
0000
0000
0030
,
0100
0000
0000
0000
0000
0000
0010
0000
0010
0100
0000
0002
,
0000
0000
0000
0003
,
1000
0000
0000
0000
0000
0000
0100
0000
0100
1000
0000
0200
,
0000
0000
0000
0300
,
0010
0000
0001
0000
,
1000
0001
1000
0110
,
0001
0000
0000
0100
0000
0000
0010
0000
0010
1000
0000
0020
,
0000
0000
1000
1030
,
0100
0000
0000
0010
0000
0000
0001
0000
0001
0100
0000
0002
,
0000
0000
0100
0103
,
0110
0001
0100
1000
,
1001
1000
0100
0001
,
0110
0001
0110
1000
,
0001
0000
0001
0100
0000
0000
0010
0000
0010
1000
0000
0000
,
0220
0000
0000
0330
,
0001
0000
0001
0010
0000
0000
0001
0000
0001
0100
0000
0020
,
0000
0000
1000
0130
,
1000
0000
1000
0100
0000
0000
0010
0000
0010
0001
0000
2000
,
0000
0000
0001
3010
,
0001
0000
0001
0100
0000
0000
0010
0000
0010
1000
0000
0002
,
0000
0000
1000
0013
,
1000
0000
1000
0100
0000
0000
0010
0000
0010
0001
0000
2000
,
0000
0000
0100
3001
,
0010
0000
0100
1000
0000
0100
0010
0000
0100
1000
0000
0000
,
0010
0000
0100
0001
0000
0100
0010
0000
0100
0001
0000
0000
,
1000
0000
0001
0100
0000
0001
0010
0000
0001
1000
0000
0000
,
0001
0000
0001
1000
0000
1000
0000
0000
0001
1000
0000
0000
,
0001
0000
0010
0001
0000
0100
0001
0000
1000
0001
0000
0000
,
1000
0000
0010
1000
0000
0001
1000
0000
0100
1000
0000
0000
,
0100
0000
0010
0001
0000
0100
0010
0000
1000
0100
0000
0000
,
1000
0000
1000
0010
0000
0010
0100
0000
0000
0110
0000
0000
,
2002
0000
0000
3003
,
0010
0010
0010
0010
,
0220
0000
0000
0330
,
0000
0000
0100
0000
0000
0100
0000
0000
0100
0000
0000
0000
,
2002
0000
0000
3003
,
0010
0010
0010
0010
,
2200
3300
2002
3003
,
0202
0303
2002
3003
,
0010
0000
1000
0010
0000
1000
0100
0000
0100
0000
0000
0100
,
0010
0000
0001
0010
0000
0001
0100
0000
0100
0000
0000
0100
,
0010
0000
1000
0001
0000
0100
0010
0000
1000
0100
0000
0010
,
0001
0000
0100
0010
0000
0100
0010
0000
0100
0001
0000
1000
,
0100
0000
1000
0010
0000
0100
0001
0000
0001
0000
0000
0001
,
1000
0000
0001
0010
0000
0001
1000
0000
1000
0000
0000
1000
,
0100
0000
0001
0100
0000
1000
0100
0000
1000
0010
0000
0001
,
0010
0000
0010
0100
0000
0100
0000
0000
0001
1000
0000
0001
,
2000
0000
0000
0000
,
0000
0000
0000
3000
;

//---------------dance-single - ----------------
#NOTES:
     dance-single:
     :
     Hard:
     9:
     0.606,0.769,0.076,0.193,1.000: // measure 1
0000
0000
0000
0000
,  // measure 2
0000
0000
0000
0000
,  // measure 3
0000
0000
0000
0000
,  // measure 4
0000
0000
0000
0000
,  // measure 5
0000
0000
0000
0000
,  // measure 6
0000
0000
0000
0000
,  // measure 7
0020
0000
0000
0000
,  // measure 8
0030
2000
3002
0203
,  // measure 9
0302
0000
2003
0000
,  // measure 10
3200
0000
0320
0000
,  // measure 11
0031
0000
0000
0000
,  // measure 12
1000
0000
0010
0100
0000
0010
0100
0000
0001
0100
0000
0100
,  // measure 13
0000
0000
0001
0010
0000
0010
0100
0000
0100
1000
0000
1000
,  // measure 14
0100
0000
0010
0100
0000
0010
0100
0000
0010
0001
0000
0001
,  // measure 15
0000
0000
0100
0010
0000
1000
0001
0000
1000
0100
1000
0100
,  // measure 16
1000
0000
0100
1000
0000
0001
0100
0000
0010
0100
0000
0100
,  // measure 17
0000
0000
0001
0010
0000
0010
0001
1000
0001
1000
0000
1000
,  // measure 18
0010
0000
0100
0010
0000
1000
0100
0000
0010
0001
0000
0001
,  // measure 19
1000
0000
1010
0000
0100
0000
0001
0000
1000
0001
1000
0010
,  // measure 20
0100
0000
0001
0100
0000
0001
0010
0000
0100
1000
0000
0001
,  // measure 21
0000
0000
1000
0100
0000
0010
0100
0000
1000
0010
0000
0100
,  // measure 22
0001
0000
0010
0100
0000
0010
0001
0000
1000
0010
0000
0100
,  // measure 23
0000
0000
0010
1000
0000
0001
0010
0001
1000
0001
1000
0100
,  // measure 24
0000
0000
0000
1100
0000
0100
0010
0000
0001
0100
0000
0010
,  // measure 25
0000
0000
0100
0001
0000
1000
0001
0000
0010
0001
0000
1000
,  // measure 26
0100
0000
0100
1000
0000
0001
0100
0010
0100
0001
0000
1000
,  // measure 27
0100
0000
1100
0000
0010
0000
0011
0000
0001
0100
0010
1000
,  // measure 28
0002
0000
0000
0000
,  // measure 29
0000
0000
0000
0003
,  // measure 30
1000
0000
0000
0000
0000
0000
0010
0000
0010
0100
0000
0020
,  // measure 31
0000
0000
0100
0130
,  // measure 32
0001
0000
0000
0000
0000
0000
1000
0000
1000
0001
0000
2000
,  // measure 33
0000
0000
0000
0000
0000
0000
0001
0000
0000
3001
0000
0001
,  // measure 34
0010
0000
0000
0000
0000
0000
0010
0001
0010
0100
0000
0100
,  // measure 35
0020
0000
0000
0000
0000
0000
0001
0000
0000
0031
0000
0100
,  // measure 36
0010
0000
0000
0000
0000
1000
0001
0000
0000
0000
0000
0001
,  // measure 37
1000
0000
1000
0001
0000
0001
1000
0000
0000
0110
0000
0001
,  // measure 38
1001
0000
0000
0100
0000
0000
0010
0000
0010
1000
0000
0002
,  // measure 39
0000
0000
0100
0103
,  // measure 40
1000
0000
0000
0100
0000
0000
0010
0000
0010
0100
0000
2000
,  // measure 41
0000
0000
0000
0000
0000
0000
0010
0000
0000
3010
1000
0010
,  // measure 42
1000
0001
0100
0001
0000
0001
1000
0000
0001
1000
0000
0020
,  // measure 43
0000
0000
1000
0130
,  // measure 44
0010
0100
0001
0100
0000
0100
0010
1000
0100
0010
0000
0010
,  // measure 45
0100
1000
0100
1000
0001
1000
0010
0100
0010
1000
0001
0100
,  // measure 46
0002
0000
0000
0000
0000
0000
0000
0000
0000
1003
0000
1000
,  // measure 47
0001
0000
0100
0001
0000
1000
0100
0000
0010
0100
0000
1000
,  // measure 48
0020
0000
0000
1030
0000
0000
0001
0000
0001
0100
0000
0001
,  // measure 49
0010
0000
0010
0100
0000
0010
0001
0000
1000
0100
0000
0010
,  // measure 50
0100
0000
0100
1000
0000
1000
0010
0000
0010
1000
0001
1000
,  // measure 51
0001
0000
0100
0010
0000
1000
0100
0000
1000
0010
0000
0100
,  // measure 52
0020
0000
0000
0130
0000
0000
0001
0100
0001
1000
0000
1000
,  // measure 53
0001
0000
1000
0100
0000
0010
0100
0000
1000
0010
0000
0100
,  // measure 54
0001
0000
1000
0001
0000
1001
0000
0000
0100
0010
0100
0010
,  // measure 55
1000
0000
0001
0100
0001
0010
0001
0000
0001
0010
0000
0000
,  // measure 56
0001
0000
1000
0100
1000
0010
1000
0000
1000
0001
0000
0000
,  // measure 57
0100
0000
0010
0100
0001
0100
0010
0000
0010
1000
0000
1000
,  // measure 58
0001
0000
1000
0001
0000
0100
0010
0000
1000
0100
0000
0010
,  // measure 59
0001
0000
0001
0010
0000
0010
0001
0100
0010
0100
0000
0100
,  // measure 60
0010
0000
1000
0100
0000
0100
0010
0000
0100
1000
0100
0010
,  // measure 61
0001
0000
0001
0100
0010
0100
0001
0000
0001
1000
0000
1000
,  // measure 62
0001
0000
1000
0001
0000
0100
0010
1000
0100
0010
0001
1000
,  // measure 63
0020
0000
0000
0000
,  // measure 64
1000
0000
0000
1000
0000
0000
1000
0000
0000
1030
0000
0001
,  // measure 65
0200
0000
0000
0000
,  // measure 66
0000
0000
0001
0000
0000
0001
0000
0000
0001
0300
0000
0001
,  // measure 67
2000
0000
0000
0000
,  // measure 68
0010
0000
0000
0010
0000
0000
0010
0000
0000
3010
0000
0010
,  // measure 69
1000
0000
1000
0001
0100
0010
0100
0000
0100
0001
0010
0100
,  // measure 70
0010
0001
1000
0001
1000
0001
0000
1000
0001
0100
0010
0100
,  // measure 71
0001
0000
0001
0100
0010
1000
0100
0000
0010
0100
0000
0100
,  // measure 72
1000
0001
1000
0100
0010
0001
0100
0000
0010
0100
0000
0100
,  // measure 73
0001
0100
0001
1000
0010
1000
0001
0000
0001
1000
0100
1000
,  // measure 74
0010
0000
0010
0100
0000
0001
0100
0000
1000
0100
0001
0100
,  // measure 75
0010
0000
1000
0100
0001
0100
1000
0000
0001
0100
0000
0001
,  // measure 76
0010
0001
0010
0001
0100
1000
0100
0000
0100
0001
0000
1000
,  // measure 77
0010
1000
0100
0001
0100
1000
0010
0001
0010
1000
0100
0001
,  // measure 78
0100
0000
0010
0001
0000
1001
0000
0000
0100
0010
0100
0001
,  // measure 79
2002
0000
0000
0000
,  // measure 80
0000
0000
0000
3003
;
