#VERSION:0.81;
#TITLE:Aquatic Poseidon;
#SUBTITLE:;
#ARTIST:RIC;
#TITLETRANSLIT:;
#SUBTITLETRANSLIT:;
#ARTISTTRANSLIT:;
#GENRE:;
#ORIGIN:;
#CREDIT:;
#BANNER:[12ths Week] - Aquatic Poseidon-bn.png;
#BACKGROUND:[12ths Week] - Aquatic Poseidon-bg.png;
#PREVIEWVID:;
#JACKET:[12ths Week] - Aquatic Poseidon-jacket.png;
#CDIMAGE:;
#DISCIMAGE:;
#LYRICSPATH:;
#CDTITLE:;
#MUSIC:[12ths Week] - Aquatic Poseidon.mp3;
#OFFSET:-0.020000;
#SAMPLESTART:41.437996;
#SAMPLELENGTH:14.000000;
#SELECTABLE:YES;
#BPMS:0.000=142.000;
#STOPS:;
#DELAYS:;
#WARPS:;
#TIMESIGNATURES:0.000=4=4;
#TICKCOUNTS:0.000=4;
#COMBOS:0.000=1;
#SPEEDS:0.000=1.000=0.000=0;
#SCROLLS:0.000=1.000;
#FAKES:;
#LABELS:0.000=Song Start;
#BGCHANGES:;
#KEYSOUNDS:;
#ATTACKS:
;

//---------------dance-single - ----------------
#NOTEDATA:;
#CHARTNAME:;
#STEPSTYPE:dance-single;
#DESCRIPTION:;
#CHARTSTYLE:;
#DIFFICULTY:Beginner;
#METER:2;
#RADARVALUES:0.146008,0.135027,0.000000,0.016619,0.000000,121.000000,0.000000,2.000000,0.000000,0.000000,0.000000,0.000000,0.000000,0.146008,0.135027,0.000000,0.016619,0.000000,121.000000,0.000000,2.000000,0.000000,0.000000,0.000000,0.000000,0.000000;
#CREDIT:;
#NOTES:
0000
0000
0000
0000
,
0000
0000
0000
0000
,
0000
0000
0000
0000
,
0000
0000
0000
0000
,
0000
0000
0000
0000
,
0000
0001
0000
0001
,
0000
1000
0000
1000
,
0000
0001
0000
0001
,
0000
1000
0000
1000
,
0000
0010
0000
0010
,
0000
0100
0000
0100
,
0000
0010
0000
0010
,
0000
0100
0000
0100
,
0000
0010
0000
0010
,
0000
1000
0000
1000
,
0000
0010
0000
0010
,
0000
1000
0000
1000
,
0002
0000
0000
0000
,
0003
0000
0100
0000
,
0100
0000
0000
0000
,
0000
0000
0010
0000
,
0020
0000
0000
0000
,
0030
0000
1000
0000
,
1000
0000
0000
0000
,
0000
0000
0001
0000
,
1000
0000
0001
0000
,
1000
1000
1000
0000
,
0001
0000
1000
0000
,
0001
0001
0001
0000
,
0100
0000
0010
0000
,
0100
0100
0100
0000
,
0010
0000
0100
0000
,
0010
0010
0010
0000
,
1000
0000
0001
0000
,
1000
0001
1000
0000
,
0001
0000
1000
0000
,
0001
1000
0001
0000
,
0100
0000
0010
0000
,
0100
0010
0100
0000
,
0010
0000
0100
0000
,
0010
0100
0010
0000
,
0000
1000
0000
1000
,
0000
0001
0000
0001
,
0000
1000
0000
1000
,
0000
0001
0000
0001
,
0000
1000
0000
1000
,
0000
0010
0000
0010
,
0000
0100
0000
0100
,
0000
0001
0000
0001
,
1000
0000
1000
0000
,
0010
0000
0100
0000
,
0001
0000
0001
0000
,
0100
0000
0010
0000
,
1000
0000
1000
0000
,
0010
0000
0100
0000
,
0001
0000
0001
0000
,
0100
0000
0010
0000
,
1000
0000
1000
0000
,
0010
0000
0010
0000
,
0100
0000
0100
0000
,
0001
0000
0001
0000
,
0100
0000
0100
0000
,
0010
0000
0010
0000
,
1000
0000
1000
0000
,
0001
0000
0001
0000
,
0100
0000
0000
0000
;

//---------------dance-single - ----------------
#NOTEDATA:;
#CHARTNAME:;
#STEPSTYPE:dance-single;
#DESCRIPTION:;
#CHARTSTYLE:;
#DIFFICULTY:Easy;
#METER:3;
#RADARVALUES:0.189929,0.189038,0.033237,0.108022,0.000000,143.000000,4.000000,13.000000,0.000000,0.000000,0.000000,0.000000,0.000000,0.189929,0.189038,0.033237,0.108022,0.000000,143.000000,4.000000,13.000000,0.000000,0.000000,0.000000,0.000000,0.000000;
#CREDIT:;
#NOTES:
0000
0000
0000
0000
,
0000
0000
0000
0000
,
0000
0000
0000
0000
,
0000
0000
0000
0000
,
0000
0000
0000
0000
,
0000
0001
0000
0001
,
0000
1000
0000
1000
,
0000
0001
0000
0001
,
0000
1000
0000
1000
,
0000
0010
0100
0010
,
0000
0100
0010
0100
,
0000
0010
1000
0010
,
0000
0100
0001
0100
,
0000
0010
0100
0010
,
0000
1000
0001
1000
,
0000
0010
1000
0010
,
0000
1000
0001
1000
,
0002
0000
0000
0000
,
0003
0000
0100
0100
,
0000
0000
0000
0000
,
0000
0000
0010
0100
,
0020
0000
0000
0000
,
0030
0000
1000
1000
,
0000
0000
0000
0000
,
0000
0000
0001
0000
,
2000
0000
3001
0000
,
1000
1000
1000
0000
,
0002
0000
1003
0000
,
0001
0010
0001
0001
,
0200
0000
0310
0000
,
0100
0100
0100
0000
,
0020
0000
0130
0000
,
0010
0100
0010
0010
,
2000
0000
3001
0000
,
1000
0001
1000
0000
,
0002
0000
1003
0000
,
0001
1000
0001
1000
,
0200
0000
0310
0000
,
0100
0010
0100
0000
,
0020
0000
0130
0000
,
0010
0100
0010
0100
,
1000
0001
0000
0001
,
0000
1000
1000
1000
,
0000
0001
0000
0001
,
0000
1000
2000
3001
,
0000
0001
0000
0001
,
0000
0100
0100
0100
,
0000
0010
0000
0010
,
0000
1000
2000
3001
,
1000
0000
1010
0000
,
0010
0000
0100
0000
,
0001
0000
0101
0000
,
0100
0000
0010
0000
,
1000
0000
1010
0000
,
0010
0000
0100
0000
,
0001
0000
0101
0000
,
0100
0000
0010
0000
,
1000
0000
1000
0000
,
0010
0000
0010
0100
,
0001
0000
0001
0000
,
0100
0000
0200
0301
,
1000
0000
1000
0000
,
0001
0000
0001
1000
,
0100
0000
0100
0000
,
0010
0000
0010
0001
,
1000
0000
0000
0000
;

//---------------dance-single - ----------------
#NOTEDATA:;
#CHARTNAME:;
#STEPSTYPE:dance-single;
#DESCRIPTION:;
#CHARTSTYLE:;
#DIFFICULTY:Medium;
#METER:6;
#RADARVALUES:0.372735,0.408198,0.099712,0.290828,0.274209,267.000000,12.000000,35.000000,0.000000,0.000000,0.000000,0.000000,0.000000,0.372735,0.408198,0.099712,0.290828,0.274209,267.000000,12.000000,35.000000,0.000000,0.000000,0.000000,0.000000,0.000000;
#CREDIT:;
#NOTES:
0000
0000
0000
0000
,
0000
0000
0000
0000
,
0000
0000
0000
0000
,
0000
0000
0000
0000
,
0000
0000
0000
0000
,
0000
0000
0001
0000
0000
0010
0000
0000
0000
0000
0001
0000
0000
0100
0000
0000
,
0000
0000
0010
0000
0000
1000
0000
0000
0000
0000
0010
0000
0000
0100
0000
0000
,
0000
0000
0001
0000
0000
0010
0000
0000
0000
0000
0001
0000
0000
1000
0000
0000
,
0000
0000
0010
0000
0000
0100
0000
0000
0000
0000
0010
0000
0000
0100
0000
0000
,
0001
0000
0100
0000
0000
0001
0000
0000
0100
0000
0010
0000
0000
0100
0000
0000
,
0001
0000
1000
0000
0000
0001
0000
0000
0100
0000
0010
0000
0000
0100
0000
0000
,
0010
0000
1000
0000
0000
0010
0000
0000
0100
0000
0001
0000
0000
0100
0000
0000
,
0001
0000
1000
0000
0000
0001
0000
0000
0100
0000
0001
0000
0000
0100
0000
0000
,
0010
0000
1000
0000
0000
0010
0000
0000
0100
0000
0010
0000
0000
0100
0000
0000
,
0001
0000
1000
0000
0000
0001
0000
0000
0100
0000
0010
0000
0000
0100
0000
0000
,
0001
0000
1000
0000
0000
0001
0000
0000
1000
0000
0100
0000
0000
1000
0000
0000
,
0001
0000
1000
0000
0000
0001
0000
0000
0100
0000
0000
0001
0000
0000
0100
0000
,
0002
0000
0000
0000
,
0003
0000
0000
0000
0000
0000
0000
0000
0100
0000
0000
0100
0000
0000
0100
0000
,
0000
0000
0000
0000
,
0000
0000
0000
0000
0000
0000
0000
0000
0010
0000
0000
1000
0000
0000
0100
0000
,
0020
0000
0000
0000
,
0030
0000
0000
0000
0000
0000
0000
0000
0001
0000
0000
0001
0000
0000
0001
0000
,
0000
0000
0000
0000
,
1000
0000
0000
0000
0001
0000
0000
0000
0001
0000
0000
0010
0000
0000
0100
0000
,
2000
3100
0002
0103
,
1000
0000
0010
0000
0100
0000
0002
0000
0000
0003
0000
0000
,
2000
3010
0002
0013
,
1000
0000
0000
0000
0010
0000
0000
0000
0100
0000
0000
0000
0001
0000
0000
0100
0000
0000
0010
0000
0000
0000
0000
0000
,
2000
3010
0002
0103
,
1000
0000
0100
0000
0010
0000
0002
0000
0000
0003
0000
0000
,
0002
0013
2000
3100
,
0001
0000
0000
0000
0000
0000
0000
0000
0100
0000
0000
0000
0000
0000
0000
0000
0010
0000
0000
0000
0000
0000
0000
0000
1000
0000
0000
0000
0000
0000
0000
0000
0000
0010
0000
0000
0000
0000
0000
0000
0000
0000
0100
0000
0000
0000
0000
0000
,
0002
0013
2000
3010
,
0001
0000
0010
0000
0100
0000
2000
0000
0000
3000
0000
0000
,
0002
0103
2000
3100
,
0001
0000
0000
0000
0000
0000
0000
0000
0100
0000
0000
0000
0000
0000
0000
0000
0010
0000
0000
0000
0000
0000
0000
0000
1000
0000
0000
0000
0000
0000
0000
0000
0000
0010
0000
0000
0000
0000
0000
0000
0000
0000
1000
0000
0000
0000
0000
0000
,
0200
0301
0020
1030
,
0001
0000
0010
0000
0100
0000
2000
0000
0000
3000
0000
0000
,
0200
1300
0020
0031
,
1000
0000
0000
0000
0010
0000
0000
0000
0100
0000
0000
0000
0001
0000
0000
1000
0000
0000
0100
0000
0000
0000
0000
0000
,
1000
0001
0000
0001
,
0000
0000
0000
0000
1000
0000
0000
0000
1000
0000
0000
0100
0000
0000
0010
0000
,
0001
0001
0000
0001
,
0000
0000
0000
0000
1000
0000
0000
0000
1000
0000
0000
0010
0000
0000
1000
0000
,
0001
0001
0000
0001
,
0000
0000
0000
0000
0100
0000
0000
0000
0100
0000
0000
0010
0000
0000
0100
0000
,
0001
0010
0000
0010
,
0000
0000
0000
0000
0001
0000
0000
0000
1000
0000
0000
0010
0000
0000
0100
0000
,
0010
1010
1000
1001
,
0001
0000
0000
0000
0101
0000
0000
0000
0001
0000
0000
1000
0000
0000
0001
0000
,
1000
1010
0010
0110
,
0100
0000
0101
0000
0100
0010
0100
0010
,
1000
1001
0001
0011
,
0010
0000
0000
0000
0110
0000
0000
0000
0010
0000
0000
0001
0000
0000
0100
0000
,
0010
1010
1000
1001
,
0001
0000
0000
0000
0101
0000
0000
0000
0100
0000
0000
0010
0000
0000
0100
0000
,
0002
0000
1000
0000
0000
1000
0003
0000
2000
0000
0001
0000
0000
0001
3000
0000
,
0002
0000
1000
0000
0000
1000
0003
0000
0100
0000
0010
0000
0100
0000
0000
0000
,
2000
0000
0001
0000
0000
0001
3000
0000
0002
0000
1000
0000
0000
1000
0003
0000
,
2000
0000
0001
0000
0000
0001
3000
0000
0010
0000
0000
0100
0000
0000
1000
0000
,
0200
0000
0010
0000
0000
0010
0300
0000
0020
0000
0100
0000
0000
0100
0030
0000
,
0200
0000
0010
0000
0000
0010
0300
0000
0001
0000
1000
0000
0001
0000
0000
0000
,
0020
0000
0100
0000
0000
0100
0030
0000
0200
0000
0010
0000
0000
0010
0300
0000
,
0020
0000
0100
0000
0000
0100
0030
0000
0001
0000
1000
0000
0001
0000
1000
0000
,
0200
0000
0300
0000
;

//---------------dance-single - ----------------
#NOTEDATA:;
#CHARTNAME:;
#STEPSTYPE:dance-single;
#DESCRIPTION:;
#CHARTSTYLE:;
#DIFFICULTY:Hard;
#METER:9;
#RADARVALUES:0.600649,0.571477,0.083094,0.490253,0.702142,437.000000,10.000000,59.000000,0.000000,0.000000,0.000000,0.000000,0.000000,0.600649,0.571477,0.083094,0.490253,0.702142,437.000000,10.000000,59.000000,0.000000,0.000000,0.000000,0.000000,0.000000;
#CREDIT:;
#NOTES:
// measure 0
0000
0000
0000
0000
,  // measure 1
0000
0000
0000
0000
,  // measure 2
0000
0000
0000
0000
,  // measure 3
0000
0000
0000
0000
,  // measure 4
0000
0000
0000
0000
,  // measure 5
1000
0000
0010
0000
0000
1000
0000
0000
0010
0000
0100
0000
0001
0100
0000
0000
,  // measure 6
0001
0000
1000
0000
0000
0001
0000
0000
0100
0000
0001
0000
0100
0010
0000
0000
,  // measure 7
1000
0000
0010
0000
0000
1000
0000
0000
0010
0000
0100
0000
0001
0100
0000
0000
,  // measure 8
0001
0000
0100
0000
0000
0001
0000
0000
1000
0000
0001
0000
1000
0001
0000
0000
,  // measure 9
0001
0000
0100
0000
0001
0010
0000
0000
0001
0100
0001
0000
1000
0100
0000
0000
,  // measure 10
0010
0000
0001
0000
0100
0010
0000
0000
0100
0001
0100
0000
0010
0001
0000
0000
,  // measure 11
1000
0000
0001
0000
0100
0001
0000
0000
1000
0100
1000
0000
0010
0100
0000
0000
,  // measure 12
0001
0000
0010
0000
0001
0100
0000
0000
0001
1000
0001
0000
0010
1000
0000
0000
,  // measure 13
0001
0000
0010
0000
0001
0100
0000
0000
0001
0010
0001
0000
1000
0100
0000
0000
,  // measure 14
0010
0000
0001
0000
1000
0100
0000
0000
0010
0001
0010
0000
1000
0001
0000
0000
,  // measure 15
1000
0000
0010
0000
0100
0010
0000
0000
1000
0100
1000
0000
0010
0100
0000
0000
,  // measure 16
0001
0000
1000
0000
0000
0001
0000
0000
0100
0000
0000
0001
0000
0000
1000
0000
,  // measure 17
0200
0000
0000
0000
,  // measure 18
0300
0000
0000
0000
0000
0000
0010
0000
0001
0000
0000
0001
0000
0000
0001
0000
,  // measure 19
0000
0000
0100
0000
0000
0100
0000
0000
0000
0000
0010
0000
0000
0010
0000
0000
,  // measure 20
0000
0000
1000
0000
0000
1000
0000
0000
0001
0000
0000
1000
0000
0000
0001
0000
,  // measure 21
0200
0000
0000
0000
,  // measure 22
0300
0000
0000
0000
0000
0000
0010
0000
1000
0000
0000
1000
0000
0000
1000
0000
,  // measure 23
0000
0000
0001
0000
0000
0001
0000
0000
0000
0000
0100
0000
0000
0010
0000
0000
,  // measure 24
0110
0000
0000
0000
1010
0000
0000
0000
0020
0000
0000
0230
0000
0000
0301
0000
,  // measure 25
1000
0001
1000
0002
0000
0003
0100
0001
0100
0002
0000
0003
,  // measure 26
1000
0001
1000
0001
0100
0001
0200
0000
0000
0310
0000
0000
,  // measure 27
0010
1000
0010
2000
0000
3000
0010
0100
0010
0200
0000
0300
,  // measure 28
0010
0000
1000
0000
0010
0000
1000
0000
0001
0000
1000
0000
0001
0000
0000
0100
0000
0000
0010
0000
0000
0100
0000
0000
,  // measure 29
0001
1000
0001
2000
0000
3000
0001
0100
0001
0200
0000
0300
,  // measure 30
0010
1000
0010
1000
0100
1000
0200
0000
0000
0310
0000
0000
,  // measure 31
0001
0010
0001
0020
0000
0030
0001
0100
0001
0200
0000
0300
,  // measure 32
0010
0000
0000
0000
1000
0000
0000
0000
0010
0000
0000
0000
1000
0000
0000
0000
0001
0000
0000
0000
0100
0000
0000
0000
0002
0000
0000
0000
0000
0000
0000
0000
0000
0203
0000
0000
0000
0000
0000
0000
0000
0000
0310
0000
0000
0000
0000
0000
,  // measure 33
1000
0001
0100
0020
0000
0030
0100
0001
1000
0020
0000
0030
,  // measure 34
1000
0010
1000
0001
0100
0001
2000
0000
0000
3001
0000
0000
,  // measure 35
0001
1000
0010
0200
0000
0300
0010
1000
0001
0200
0000
0300
,  // measure 36
0001
0000
0000
0000
0100
0000
0000
0000
0001
0000
0000
0000
1000
0000
0000
0000
0010
0000
0000
0000
1000
0000
0000
0000
0002
0000
0000
0000
0000
0000
0000
0000
0000
0023
0000
0000
0000
0000
0000
0000
0000
0000
0130
0000
0000
0000
0000
0000
,  // measure 37
1000
0001
0100
0020
0000
0030
0100
0001
1000
0020
0000
0030
,  // measure 38
1000
0100
1000
0001
0100
0001
0200
0000
0000
0301
0000
0000
,  // measure 39
0001
1000
0010
0200
0000
0300
0010
1000
0001
0200
0000
0300
,  // measure 40
0001
0000
0100
0000
0001
0000
0100
0000
0010
0000
0100
0000
0001
0000
0000
1000
0000
0000
0010
0000
0000
0100
0000
0000
,  // measure 41
0002
0013
0020
0130
,  // measure 42
0200
0000
0000
0000
1300
0000
0000
0001
0000
1000
0001
1000
0000
0001
1000
0000
,  // measure 43
0020
0000
0100
0000
0000
1000
0030
0000
2000
0000
0100
0000
0000
0010
3000
0000
,  // measure 44
0020
0000
0100
0000
0000
1000
0030
0000
2000
0000
0000
3002
0000
0000
0103
0000
,  // measure 45
0020
1030
2000
3010
,  // measure 46
0020
0000
0000
0000
0130
0000
0000
0001
0000
0100
0001
0100
0000
0001
0100
0000
,  // measure 47
0020
0000
0100
0000
0000
1000
0030
0000
2000
0000
0100
0000
0000
0001
3000
0000
,  // measure 48
0002
0000
0100
0000
0000
1003
0000
0000
2000
0000
0000
3002
0000
0000
0013
0000
,  // measure 49
0100
0000
1000
0000
1100
0000
0000
0000
0001
0000
1000
0000
0010
0100
0000
0000
,  // measure 50
0100
0000
0001
0000
0101
0000
0000
0001
0000
1000
0100
1000
0000
1000
0100
0000
,  // measure 51
0010
0000
0001
0000
0011
0000
0000
0000
0001
0000
0100
0000
0010
1000
0000
0000
,  // measure 52
0100
0000
0010
0000
0110
0000
0000
0000
0010
0001
0010
0000
0100
0000
1000
0000
,  // measure 53
0001
0000
0100
0000
0101
0000
0000
0000
0001
0000
0010
0000
0100
1000
0000
0000
,  // measure 54
0010
0000
0100
0000
0110
0000
0000
0010
0000
1000
0010
1000
0000
1000
0010
0000
,  // measure 55
1000
0000
0001
0000
1001
0000
0000
0000
0010
0000
1000
0000
0001
0100
0000
0000
,  // measure 56
0010
0000
1000
0000
1010
0000
0000
0000
0002
0000
0000
0203
0000
0000
0301
0000
,  // measure 57
1000
0010
0200
0000
0000
0001
0300
0000
0001
1000
0002
0000
0000
0103
0000
0000
,  // measure 58
0020
0000
0100
0000
0000
0100
0030
1000
0000
0010
1000
0100
0000
0010
0001
0000
,  // measure 59
0100
0001
0020
0000
0000
0100
0030
0100
0000
1000
0100
0000
0010
0000
0001
0000
,  // measure 60
0020
0000
0100
0000
0000
1000
0030
0000
0002
0000
0000
0203
0000
0000
0310
0000
,  // measure 61
1000
0001
0200
0000
0000
0010
0300
0000
0100
0001
2000
0000
0000
3010
0000
0000
,  // measure 62
2000
0000
0010
0000
0000
0010
3000
0100
0000
0001
1000
0001
0000
1000
0100
0000
,  // measure 63
0010
0001
0200
0000
0000
0010
0000
0010
0300
0001
1000
0000
1000
0000
0100
0000
,  // measure 64
0200
0000
0010
0000
0000
0010
0300
0000
0001
0100
0001
0100
0010
1000
0010
1000
,  // measure 65
0002
0000
0003
0000
;
