#TITLE:8-Bit Superhero;
#SUBTITLE:(Eptic Remix);
#ARTIST:Excision & Datsik;
#TITLETRANSLIT:;
#SUBTITLETRANSLIT:;
#ARTISTTRANSLIT:;
#GENRE:;
#CREDIT:;
#BANNER:8-Bit Superhero (Eptic Remix) - Excision & Datsikbn.png;
#BACKGROUND:8-Bit Superhero (Eptic Remix) - Excision & Datsikbg.png;
#LYRICSPATH:;
#CDTITLE:encorerebirth.png;
#MUSIC:8-Bit Superhero (Eptic Remix) - Excision & Datsik.ogg;
#OFFSET:-0.045;
#SAMPLESTART:47.880;
#SAMPLELENGTH:13.614;
#SELECTABLE:YES;
#BPMS:0.000=140.000
;
#STOPS:
;
#BGCHANGES:;
#KEYSOUNDS:;
#ATTACKS:;

//---------------dance-single - Spork!----------------
#NOTES:
     dance-single:
     :
     Beginner:
     2:
     0.158,0.225,0.138,0.109,0.000,87.000,14.000,11.000,0.000,0.000,0.000,0.158,0.225,0.138,0.109,0.000,87.000,14.000,11.000,0.000,0.000,0.000:
0000
0000
0000
0000
,
0000
0000
0000
0000
,
0000
0000
0000
0000
,
0000
0000
0000
0000
,
0002
0000
0000
0000
,
1003
0000
0000
0000
,
2000
0000
0000
0000
,
3001
0000
0000
0000
,
1000
0000
1000
0000
,
0001
0000
0001
0000
,
0010
0000
0010
0000
,
0010
0000
0010
0000
,
0002
0000
0003
0000
,
2000
0000
3000
0000
,
1000
0000
0100
0000
,
0010
0000
0001
0000
,
0200
0000
0000
0000
,
0000
0000
0000
0000
,
0000
0000
0000
0000
,
0000
0000
0000
0000
,
0020
0000
0000
0000
,
0000
0000
0000
0000
,
0000
0000
0000
0000
,
0000
0000
0330
0000
,
0001
0000
0010
0000
,
0001
0000
0100
0000
,
0110
0000
1001
0000
,
0110
0000
0110
0000
,
1000
0000
0100
0000
,
1000
0000
0001
0000
,
1001
0000
0110
0000
,
1001
0000
1001
0000
,
1000
0000
0100
0000
,
0010
0000
0001
0000
,
1001
0000
0110
0000
,
1001
0000
0200
0000
,
0301
0000
0010
0000
,
0100
0000
1000
0000
,
1001
0000
0110
0000
,
1001
0000
1000
0000
,
0001
0001
0001
0000
,
0010
0000
0001
0000
,
1000
1000
1000
0000
,
0100
0000
1000
0000
,
0010
0010
0010
0000
,
1000
0000
0001
0000
,
0100
0100
0100
0000
,
0001
0000
1000
0000
,
0001
0000
0001
0000
,
1000
0000
1000
0000
,
0010
0000
0010
0000
,
0010
0000
0010
0000
,
2000
0000
3000
0000
,
0002
0000
0003
0000
,
0001
0000
0010
0000
,
0100
0000
2000
0000
,
0002
0000
0000
0000
,
3003
0000
0000
0000
;

//---------------dance-single - Spork!----------------
#NOTES:
     dance-single:
     :
     Easy:
     5:
     0.356,0.451,0.396,0.524,0.000,159.000,40.000,53.000,0.000,0.000,0.000,0.356,0.451,0.396,0.524,0.000,159.000,40.000,53.000,0.000,0.000,0.000:
0000
0000
0000
0000
,
0000
0000
0000
0000
,
0000
0000
0000
0000
,
0000
0000
0000
0000
,
0200
0300
2002
3003
,
0010
1000
1001
0010
,
0200
0300
2002
3003
,
0010
0001
1001
0100
,
1000
1000
1000
1000
,
0001
0010
1000
0010
,
0011
0010
0110
0100
,
1100
1000
0002
0000
,
2003
0000
0100
0000
,
3002
0000
0010
0000
,
2003
0000
3200
0000
,
0320
0000
0032
0000
,
2003
0000
0000
0000
,
0000
0000
0000
0000
,
0000
0000
0000
0000
,
0000
0000
0000
0000
,
0001
0001
0001
3001
,
1000
1000
1000
1000
,
0001
1000
0001
1000
,
1001
1001
2002
3003
,
0110
0100
0001
2000
,
0100
0010
3001
1000
,
2002
3003
0202
0303
,
2200
3300
2002
3003
,
0110
0100
1000
0002
,
0010
0100
1003
0001
,
2002
3003
2020
3030
,
0022
0033
2002
3003
,
0001
0100
1001
0010
,
1000
0100
1001
0010
,
0200
0310
0020
1030
,
2000
3001
0002
0003
,
0100
0001
0110
1000
,
0100
1000
0110
0001
,
2000
3010
0020
0130
,
0200
0300
1001
0000
,
0011
0010
1010
0010
,
0012
0100
0100
1003
,
1010
0010
0011
0010
,
2010
0100
3100
1000
,
0101
0100
1100
0100
,
0102
1000
1003
0010
,
1100
0100
0101
0100
,
2100
0001
3001
0010
,
0001
0001
0001
0001
,
1000
0010
0001
0010
,
1010
0010
0110
0100
,
0101
0001
2000
0000
,
3002
0000
0000
0000
,
2003
0000
0000
0000
,
3002
0000
0203
0000
,
0320
1000
2030
0000
,
0002
0000
0000
0000
,
3003
0000
0000
0000
;

//---------------dance-single - Spork!----------------
#NOTES:
     dance-single:
     :
     Hard:
     7:
     0.453,0.564,0.287,0.544,0.331,237.000,29.000,55.000,0.000,0.000,0.000,0.453,0.564,0.287,0.544,0.331,237.000,29.000,55.000,0.000,0.000,0.000:
0000
0000
0000
0000
,
0000
0000
0000
0000
,
0000
0000
0000
0000
,
0000
0000
0000
0000
,
0200
0301
1001
1000
,
0020
1030
1001
0001
,
0200
1300
0110
1000
,
0200
0301
0110
1001
,
0101
1001
1100
1001
,
0200
0000
0000
0301
0010
0001
0010
0100
0010
0100
1000
0100
,
2000
0000
0000
3001
0100
0001
0200
0000
0000
0301
1000
0001
,
2000
0001
3002
0000
,
2003
0000
0100
0000
,
3002
0000
0010
1000
,
2003
0010
3020
0100
,
0230
0001
0302
0000
,
2000
0000
0000
0000
,
0000
0000
0000
0000
,
0003
0000
0000
0000
,
0000
0000
0000
0000
,
3001
0001
0010
0010
,
1000
1000
0100
0100
,
0001
0000
0010
0000
0001
0000
0100
0000
0010
0000
1000
0000
,
0100
0000
1000
0000
0010
0000
2002
0000
0000
3003
0000
0000
,
1001
0000
0000
0001
0100
0001
0200
0000
0000
0010
0000
0000
,
0001
1000
0320
0130
,
0102
0013
2100
3010
,
0102
1003
0220
0330
,
1001
0000
0000
1000
0100
1000
0200
0000
0000
0010
0000
0000
,
1000
0001
0320
0130
,
0012
0103
2010
3100
,
0012
1003
0220
0330
,
0001
0000
0001
0010
0000
0010
0100
0000
0000
0100
0000
0100
,
1000
0000
1000
0010
0000
0010
0100
0000
0000
0100
0000
0000
,
0102
0013
2001
3100
,
1020
0130
2002
3003
,
1000
0000
1000
0100
0000
0100
0010
0000
0000
0010
0000
0010
,
0001
0000
0001
0100
0000
0100
0010
0000
0000
0100
0000
0000
,
0020
0000
0000
1030
0001
1000
0002
0000
0000
0013
0100
0010
,
0200
1300
1001
0000
,
0001
0000
0001
0100
0000
0100
0001
0000
0001
0010
0000
0020
,
0000
0000
0000
0100
0000
0000
0001
0000
0000
0130
0000
0100
,
1000
0000
1000
0010
0000
0010
1000
0000
1000
0100
0000
0200
,
0000
0010
1000
0310
,
1000
0000
1000
0001
0000
0001
0100
0000
0100
0010
0000
0020
,
0000
0000
0000
1000
0000
0000
0001
0000
0000
0130
0000
0100
,
0001
0000
0001
1000
0000
1000
0010
0000
0010
0100
0000
0200
,
0000
0001
1000
0310
,
1010
1001
0011
1001
,
0020
0000
0000
1030
0100
1000
0100
0010
0100
0010
0001
0010
,
0002
0000
0000
1003
0010
1000
0020
0000
0000
1030
0001
1000
,
0002
0000
0000
0000
0000
0000
1000
0000
0000
0003
1000
0000
0010
0000
0100
0000
0001
0000
0100
0000
0010
0000
1000
0000
,
0002
0000
0000
0000
,
2003
0000
0000
0000
,
3002
0100
0203
0010
,
0320
1000
2030
0000
,
0002
0000
0000
0000
,
3003
0000
0000
0000
;

//---------------dance-single - Spork!----------------
#NOTES:
     dance-single:
     :
     Challenge:
     10:
     0.663,0.688,0.336,0.366,1.000,398.000,34.000,37.000,20.000,0.000,2.000,0.663,0.688,0.336,0.366,1.000,398.000,34.000,37.000,20.000,0.000,2.000:
0000
0000
0000
0000
,
0000
0000
0000
0000
,
0000
0000
0000
0000
,
0000
0000
0000
0000
0000
0000
0000
0000
0000
0000
0000
0010
,
1000
0000
1000
0100
0000
0100
1000
0000
1000
0010
0000
0010
,
0000
0000
0000
0000
0100
0010
0100
0000
0001
0000
0010
0000
0100
0000
1000
0000
0010
0000
0100
0000
0000
0000
0100
0000
,
0001
0000
0001
0010
0000
0010
0001
0000
0001
0100
0000
0100
,
0000
0000
0000
0000
0100
0010
0100
0000
0001
0000
0010
0000
0001
0000
0100
0000
0010
0000
1000
0000
0000
0000
1000
0000
,
1100
0101
1100
0101
,
0020
0000
0000
1030
0100
0010
0001
0010
0100
1000
0010
0100
,
0002
0000
0000
1003
0100
0001
0200
0000
0000
1300
0010
0001
,
0020
0000
0000
0130
0000
0200
0000
0000
0000
0000
0000
0000
,
0302
0000
0010
0000
,
2003
0000
0000
0000
0000
0000
0000
0000
0100
0000
0000
0000
3000
0000
0100
1000
,
0001
0000
0000
0000
0010
0001
0100
0001
0010
0000
0000
0000
0100
1000
0010
1000
,
0100
0000
0000
0000
1000
0010
0100
0001
2000
0000
0000
0000
0000
0000
0000
0000
,
0002
0000
0000
0000
,
0000
0000
0000
0000
,
3003
0000
0000
0000
1000
0100
1000
0001
1000
0010
0100
0001
,
0010
0001
1000
0001
0100
0010
1000
0100
0010
0001
0100
0010
,
100M
0100
1000
01M0
0001
0100
M001
0100
0010
M100
0010
0010
,
M001
0100
0001
01M0
1000
0100
100M
0100
0010
010M
0010
0010
,
101M
0000
1M01
0000
0M11
0000
M101
0000
011M
0000
101M
0000
,
1M01
10M0
0M01
M010
010M
M010
0220
0000
0000
0330
0000
0000
,
0012
0000
0000
0103
0001
1000
1020
0000
0000
0130
0001
0001
,
1000
0001
0001
0010
0001
0001
0101
0000
0000
1100
0000
0100
,
2000
0000
0000
3010
1000
1000
0002
0000
0000
0103
0001
0001
,
0020
0000
0000
0000
0000
0000
0130
0000
1000
0000
1000
0000
0020
0000
0000
0000
0000
0000
0130
0000
0001
0000
1000
0001
,
2000
0000
0000
3010
1000
0001
0201
0000
0000
0310
1000
1000
,
0001
1000
1000
0100
1000
1000
1010
0000
0000
0011
0000
1000
,
0002
0000
0000
0103
0001
0001
2000
0000
0000
3010
1000
1000
,
0200
0000
0000
0000
0000
0000
0310
0100
0010
0000
0001
0000
0200
0000
0000
0000
0000
0000
0310
0000
0000
0000
0000
0000
,
1010
0000
0000
0000
1000
0100
0010
0000
0000
0000
0100
0000
1001
0000
0000
0000
0000
0000
0010
0000
0000
0000
0001
0000
,
0101
0000
0010
1000
0000
1000
1001
0000
0000
0110
0000
0100
,
0001
0000
0001
1000
0100
0001
0100
0000
0100
1000
0010
0001
,
0010
0000
0000
0000
0010
0000
1000
0001
1000
0001
1000
0001
4000
0000
0000
0000
0000
0000
0000
0000
0000
3000
0000
0000
,
0011
0000
0000
0000
0001
0100
0010
0000
0000
0000
0100
0000
1001
0000
0000
0000
0000
0000
0010
0000
0000
0000
0100
0000
,
1100
0000
0010
0001
0000
1000
1001
0000
0000
0110
0000
0010
,
2000
0000
0000
3001
0100
0001
0020
0000
0000
0130
1000
0001
,
0200
0310
1001
0000
,
0001
0010
0100
0010
1000
0010
0100
0010
0001
0010
0000
0020
,
0000
0000
0031
0010
0000
0010
0100
0000
0100
1000
0000
0001
,
1000
0010
0100
0010
0001
0010
0100
0010
1000
0010
0000
0020
,
0000
0000
0000
0000
0130
0001
0100
0000
0010
0000
1000
0000
0001
0000
0010
0000
0100
0000
1000
0000
0000
0000
0001
0000
,
1000
0100
0010
0100
0001
0100
0010
0100
1000
0100
0000
0200
,
0000
0000
1300
0100
0000
0100
0010
0000
0010
0001
0000
1000
,
0001
0100
0010
0100
1000
0100
0010
0100
0001
0100
0000
0200
,
0000
0000
0000
0000
0310
1000
0010
0000
0100
0000
0001
0000
1000
0000
0100
0000
0010
0000
0001
0000
0000
0000
1000
0000
,
1010
0011
1010
0011
,
0200
0000
0000
0301
0010
0100
1000
0100
0010
0001
0100
0010
,
2000
0000
0000
3001
0100
1000
0200
0000
0000
0301
0010
1000
,
0020
0000
0000
0130
0000
0100
1000
0010
1000
0100
0010
0001
,
0200
0000
0000
0300
,
0020
0000
0000
0000
0000
0000
0000
0000
0000
0000
0000
0000
0030
0000
0100
0001
,
1000
0000
0000
0000
0010
1000
0100
1000
0010
0000
0000
0000
0100
0001
0010
0001
,
0100
0000
0000
0000
0001
0010
0100
1000
0002
0000
0000
0000
0000
0000
0000
0000
,
4000
0000
0000
0000
,
0003
0000
0000
0000
,
3000
0000
0000
0000
;

//---------------dance-single - Spork!----------------
#NOTES:
     dance-single:
     :
     Medium:
     6:
     0.400,0.395,0.396,0.465,0.099,196.000,40.000,47.000,0.000,0.000,0.000,0.400,0.395,0.396,0.465,0.099,196.000,40.000,47.000,0.000,0.000,0.000:
0000
0000
0000
0000
,
0000
0000
0000
0000
,
0000
0000
0000
0000
,
0000
0000
0000
0000
,
1000
0010
1020
1030
,
0001
0010
0210
0310
,
0001
0100
0201
0301
,
1000
0010
0110
1001
,
0002
0203
0320
2030
,
3001
0010
1000
0100
,
0101
0010
1100
0010
,
1001
0010
0200
0000
,
0302
0000
0010
0000
,
2003
0000
0100
0001
,
3002
0010
0023
0100
,
0230
1000
2300
0000
,
0002
0000
0000
0000
,
0000
0000
0000
0000
,
0003
0000
0000
0000
,
0000
0000
0000
0000
,
3001
0001
0001
0001
,
1000
1000
1000
1000
,
0001
0000
0010
0000
0001
0000
1000
0000
0010
0000
1000
0000
,
0001
0000
1000
0000
0100
0000
2002
0000
0000
3003
0000
0000
,
0011
0001
0201
0010
,
1000
0310
0110
1001
,
2000
0100
3002
0010
,
0203
0001
0320
0130
,
1010
1000
1200
0010
,
0001
0310
1001
0110
,
0002
0010
2003
0010
,
3200
1000
0320
0230
,
1300
0000
1000
0001
0000
0001
1000
0000
0000
0010
0000
0000
,
0100
0000
0100
0010
0000
0010
0100
0000
0000
0001
0000
0000
,
0101
1000
0011
0100
,
1001
0001
0220
0330
,
0001
0000
0001
1000
0000
1000
0100
0000
0000
0010
0000
0000
,
0100
0000
0100
0010
0000
0010
0100
0000
0000
1000
0000
0000
,
0102
1003
2100
3001
,
0012
1003
1001
0000
,
0101
0100
1100
0100
,
0210
0001
0010
1300
,
1100
0100
0101
0100
,
0110
0000
0010
1000
0000
1000
0001
0000
0001
1000
0000
0000
,
1010
0010
0011
0010
,
0120
1000
0100
0031
,
0011
0010
1010
0010
,
0110
0000
0100
0001
0000
0001
1000
0000
1000
0001
0000
0000
,
2000
3200
0320
0032
,
1003
0010
0001
0100
,
1100
0010
0101
0010
,
1001
0010
0200
0000
,
2300
0000
0000
0000
,
3002
0000
0000
1000
,
2003
0100
3200
0010
,
0320
0001
0032
0000
,
2000
0000
0000
0000
,
3003
0000
0000
0000
;

//---------------dance-double - Spork!----------------
#NOTES:
     dance-double:
     :
     Easy:
     4:
     0.290,0.366,0.366,0.257,0.000,142.000,37.000,26.000,0.000,0.000,0.000,0.290,0.366,0.366,0.257,0.000,142.000,37.000,26.000,0.000,0.000,0.000:
00000000
00000000
00000000
00000000
,
00000000
00000000
00000000
00000000
,
00000000
00000000
00000000
00000000
,
00000000
00000000
00000000
00000000
,
10000000
00000000
11000000
00000000
,
01000000
00010000
00001000
00000100
,
00000001
00000000
00000011
00000000
,
00000010
00001000
00010000
00100000
,
20000000
32000000
03200000
00320000
,
01030000
00001000
00010000
00000100
,
00000110
00000100
00001100
00001000
,
00001001
00000001
00000200
00000000
,
00000302
00000000
00000000
00000003
,
00002000
00000000
00000000
00003000
,
00001100
00000000
00011000
00000000
,
01010000
00000000
00011000
00000000
,
20020000
00000000
00000000
00000000
,
00000000
00000000
00000000
00000000
,
00030000
00000000
00000000
00000000
,
00000000
00000000
00000000
00000000
,
30010000
10000000
00010000
00001000
,
00001000
00000001
00001000
00010000
,
00011000
00000100
00001001
00000010
,
00011000
01000000
20020000
30030000
,
01100000
00100000
20000000
00000000
,
00000000
00000000
30010000
01000000
,
10010000
00000000
00011000
00000000
,
00001001
00000000
00011000
00000000
,
00000110
00000010
00000002
00000000
,
00000000
00000000
00001003
00000010
,
00001001
00000000
00011000
00000000
,
10010000
00000000
00011000
00000000
,
00100000
00010000
01000000
01000000
,
00000010
00001000
00000100
00000100
,
00000110
00000000
00011000
00000000
,
01100000
00000000
00020000
00000000
,
00030100
00001000
00000010
00000010
,
01000000
00010000
00100000
00100000
,
01100000
00000000
00011000
00000000
,
00000110
00001000
00000001
00000000
,
00000001
00000010
00000001
00000010
,
00000200
00000000
02000300
00000000
,
03010000
00100000
00010000
00100000
,
01000000
10000000
00010000
00010000
,
10000000
00100000
10000000
00100000
,
02000000
00000000
03000200
00000000
,
00001300
00000010
00001000
00000010
,
00000100
00000001
00001000
00001000
,
00000002
00000023
00000230
00002300
,
00003010
00010000
00001000
00100000
,
01100000
00100000
00110000
00010000
,
10010000
10000000
00200000
00000000
,
20300000
00000000
00000000
30000000
,
00020000
00000000
00000000
00030000
,
00110000
00000000
00011000
00000000
,
00001010
00000000
00011000
00000000
,
00020000
00000000
00000000
00000000
,
00030000
00000000
00000000
00000000
;

//---------------dance-double - Spork!----------------
#NOTES:
     dance-double:
     :
     Medium:
     6:
     0.364,0.395,0.386,0.336,0.089,185.000,39.000,34.000,0.000,0.000,0.000,0.364,0.395,0.386,0.336,0.089,185.000,39.000,34.000,0.000,0.000,0.000:
00000000
00000000
00000000
00000000
,
00000000
00000000
00000000
00000000
,
00000000
00000000
00000000
00000000
,
00000000
00000000
00000000
00000000
,
00000100
00000000
00000000
00000001
00000000
00000000
00000011
00000000
00000000
00000010
00000000
00000100
,
00000000
00010000
00000010
00100000
,
01000000
00000000
00000000
10000000
00000000
00000000
10100000
00000000
00000000
00100000
00000000
01000000
,
00000000
00001000
00100000
00000010
,
00000110
00000110
00000110
00000110
,
00001000
00000000
00000000
00000100
00000000
00000100
00000010
00000000
00000010
00000001
00000000
00000000
,
00001001
00000010
00011000
01000000
,
10010000
00100000
00011000
00000000
,
02000000
00000000
00010000
00000000
,
03200000
00000000
10000000
00000000
,
20300000
01000000
32000000
00100000
,
03200000
00010000
00320000
00000000
,
20000000
00000000
00000000
00000000
,
00000000
00000000
00000000
00000000
,
30000000
00000000
00000000
00000000
,
00000000
00000000
00000000
00000000
,
10030000
01000000
00001000
00000100
,
00000001
00000010
00010000
00100000
,
10000000
00000000
00010000
00000000
01000000
00000000
00010000
00000000
10000000
00000000
01000000
00000000
,
00100000
00001000
00022000
00033000
,
10100000
00000000
00000000
01000000
00000000
00000000
10010000
00000000
00000000
00100000
00000000
00100000
,
00001000
00000000
00001000
00010000
00000000
00010000
00000010
00000000
00000000
00000010
00000000
00000000
,
00000120
00000030
00021000
00030000
,
02100000
03000000
00012000
00003000
,
00000011
00000000
00000000
00000100
00000000
00000000
00001001
00000000
00000000
00000010
00000000
00000010
,
00010000
00000000
00010000
00001000
00000000
00001000
00100000
00000000
00000000
00100000
00000000
00000000
,
01200000
00300000
00012000
00003000
,
00000210
00000300
00021000
00030000
,
00010000
00000100
00001001
00000010
,
00010000
00100000
10010000
10010000
,
02000000
03001000
00002000
00013000
,
00020000
00030100
00022000
00033000
,
00001000
01000000
10010000
00100000
,
00001000
00000010
00001001
00001001
,
00000200
00000000
00000000
00000310
00000000
00000010
00002000
00000000
00000000
00003001
00000000
00000001
,
00000020
00000031
00001001
00000000
,
00000001
00000100
00001000
00010000
,
02000000
00100000
00100000
03100000
,
10000000
00100000
00010000
00001000
,
00000010
00000100
00010000
00001000
,
10000000
01000000
00010000
00001000
,
00000200
00000010
00000010
00000310
,
00000001
00000010
00001000
00010000
,
00100000
01000000
00001000
00010000
,
01100000
01100000
01100000
01100000
,
00010000
00000000
00000000
01000000
00000000
01000000
00100000
00000000
00100000
10000000
00000000
00000000
,
10010000
01000000
00011000
00000010
,
00001001
00000100
00011000
00000000
,
00000020
00000000
00001000
00000000
,
00000230
00000000
00000001
00000000
,
00000302
00000010
00000023
00000100
,
00000230
00001000
00002300
00000000
,
00000002
00000000
00000000
00000000
,
00003003
00000000
00000000
00000000
;

//---------------dance-double - Spork!----------------
#NOTES:
     dance-double:
     :
     Challenge:
     11:
     0.633,0.676,0.129,0.297,1.000,405.000,13.000,30.000,8.000,4.000,10.000,0.633,0.676,0.129,0.297,1.000,405.000,13.000,30.000,8.000,4.000,10.000:
00000000
00000000
00000000
00000000
,
00000000
00000000
00000000
00000000
,
00000000
00000000
00000000
00000000
,
00000000
00000000
00000000
00000000
,
00010000
00000000
00010000
00100000
00000000
00100000
10000000
00000000
10000000
01000000
00000000
01000000
,
00000000
00000000
00000000
00000000
01000000
10000000
01000000
00000000
00100000
00000000
00001000
00000000
00010000
00000000
00000010
00000000
00000100
00000000
00000001
00000000
00000000
00000000
00000001
00000000
,
00001000
00000000
00001000
00000100
00000000
00000100
00000001
00000000
00000001
00000010
00000000
00000010
,
00000000
00000000
00000000
00000000
00000010
00000001
00000010
00000000
00000100
00000000
00010000
00000000
00001000
00000000
01000000
00000000
00100000
00000000
10000000
00000000
00000000
00000000
10000000
00000000
,
00020000
00000000
00000000
02000000
00000000
00000000
00001000
00000000
00000000
10000000
03030000
00000000
,
01010000
00000000
00000000
10000000
00100000
10000000
01000000
00010000
00001000
00000100
00000001
00000100
,
00000020
00000000
00000000
00000000
00000000
00000000
00000000
00000000
00000000
00000030
00000000
00000000
00010000
00000000
00000000
00000000
00000100
00000000
00000000
00000000
00000010
00000000
00000000
00000000
00002000
00000000
00000000
00000000
00000000
00000000
00000000
00000000
00000000
00003000
00000000
00000000
00001000
00000000
00000000
00000000
01000000
00000000
00000000
00000000
00100000
00000000
00000000
00000000
,
00020000
00000000
00000000
00000000
00000000
00000000
00000000
00000000
00000000
00030000
00000000
00000000
00001000
00000000
00000000
00000000
00000000
00000000
00000000
00000000
00002000
00000000
00000000
00000000
00000000
00000000
00000000
00000000
00000000
00000000
00000000
00000000
00000000
00000000
00000000
00000000
00000000
00000000
00000000
00000000
00000000
00000000
00000000
00000000
00000000
00000000
00000000
00000000
,
00203000
00310000
01001000
00010000
,
00000200
00000000
00000000
00000000
00001300
00000000
00000000
00000000
00010010
00000000
00000000
00000000
00000000
00000000
00000010
00001000
,
00000100
00000000
00000000
00000000
01000000
00010000
00100000
00010000
01000000
00000000
00000000
00000000
00000100
00001000
00000010
00001000
,
00000100
00000000
00000000
00000000
00100000
00010000
01000000
00010000
00200000
00000000
00000000
00000000
00000000
00000000
00300000
00000000
,
20020000
00000000
00000000
00000000
,
00000000
00000000
00000000
00000000
,
30030000
00000000
00000000
00000000
00010000
10000000
01000000
00100000
00010000
01000000
00001000
00010000
,
00000010
00001000
00000100
00001000
00000001
00000010
00000100
00001000
00000010
00010000
00001000
00100000
,
01000000
00000000
00100000
00000M00
00100000
00000000
10000000
00000000
01000000
000000M0
01000000
00000000
00001000
00000000
00010000
0000000M
00010000
00000000
00100000
00000000
00001000
M0000000
00001000
00000000
,
00000010
00000000
00000100
0M000000
00000100
00000000
00000001
00000000
00000010
00M00000
00000010
00000000
00010000
00000000
00001000
M0000000
00001000
00000000
00000100
00000000
00010000
0000000M
00010000
00000000
,
00011000
00000000
00010100
00000000
00100100
00000000
00011000
00000000
01001000
00000000
01000010
00000000
,
00001000
00100000
01000000
00010000
00000010
00000100
00002000
00000000
00000000
00013000
00000000
00000000
,
02001000
00000000
00000000
03010000
00100000
01000000
20000000
00000000
00000000
30100000
00100000
00100000
,
00100000
00100000
00100000
00100000
00100000
00100000
02000000
00000000
00000000
03002000
00000000
00000000
,
00043000
00000000
00000000
00030010
00000100
00001000
00040000
00000000
00000000
01030000
00100000
00001000
,
00040000
00000000
00000000
00000000
00000000
00000000
00130000
00000000
01000000
00000000
00001000
00000000
00040000
00000000
00000000
00000000
00000000
00000000
00030100
00000000
00000010
00000000
00001000
00010000
,
00000200
00000000
00000000
00001300
00000010
00000100
00000002
00000000
00000000
00000013
00000010
00000010
,
00000010
00000010
00000010
00000010
00000010
00000010
00000200
00000000
00000000
00020300
00000000
00000000
,
00034000
00000000
00000000
01003000
00100000
00010000
00004000
00000000
00000000
00003010
00000100
00010000
,
00004000
00000000
00000000
00000000
00000000
00000000
00003100
00000010
00000100
00000000
00000010
00000000
00040000
00000000
00000000
00000000
00000000
00000000
00032000
00000000
00000000
00000000
00000000
00000000
,
00103000
00000000
10000000
00100000
00000000
00100000
00001000
00000000
00000000
00010000
00000000
00010000
,
00000010
00000000
00000001
00000010
00000000
00000010
00010000
00000000
00000000
00001000
00000000
00000000
,
00010000
00000000
00000000
00000000
00010000
00001000
00010000
00000000
00000010
00000000
00010000
00000000
00001000
00000000
00000000
00000000
00001000
00010000
00001000
00000000
01000000
00000000
00001000
00000000
,
00010000
00000000
00000000
00000000
00010000
00000000
00001000
00010000
00001000
00010000
00001000
00010000
00002000
00000000
00000000
00000000
00000000
00000000
00013000
00000000
00000000
00000000
00000000
00000000
,
00000100
00000000
00000001
00000100
00000000
00000100
00010000
00000000
00000000
00001000
00000000
00001000
,
01000000
00000000
10000000
01000000
00000000
01000000
00001000
00000000
00000000
00010000
00000000
00000000
,
00001000
00000000
00001000
00010000
00000010
00000100
00000001
00000000
00010000
00001000
00100000
01000000
,
10000000
00000000
00000000
00001000
00010000
00001000
00011000
00000000
00000000
00100000
00000000
00000000
,
00010000
00000000
00010000
01000000
00000000
01000000
10000000
00000000
10000000
00100000
00000000
00100000
,
00010000
01000000
10000000
01000000
00010000
00100000
01000000
00100000
00001000
00010000
00000010
00000010
,
00001000
00000000
00001000
00000100
00000000
00000100
00000001
00000000
00000001
00000010
00000000
00000010
,
00001000
00000000
00000000
00000000
00000001
00001000
00000001
00000000
00000100
00000000
00001000
00000000
00010000
00000000
01000000
00000000
00010000
00000000
00001000
00000000
00000100
00000000
00000001
00000000
,
00001000
00000000
00001000
00000010
00000000
00000010
00000001
00000000
00000001
00000100
00000000
00000100
,
00001000
00000010
00000001
00000010
00001000
00000100
00000010
00000100
00010000
00001000
01000000
01000000
,
00010000
00000000
00010000
00100000
00000000
00100000
10000000
00000000
10000000
01000000
00000000
01000000
,
00010000
00000000
00000000
00000000
10000000
00010000
10000000
00000000
00100000
00000000
00010000
00000000
00001000
00000000
00000010
00000000
00001000
00000000
00010000
00000000
00000000
00000000
00010000
00000000
,
00000200
00002000
00010000
00003301
,
00001100
00000000
00000000
00000001
00000100
00000001
00000010
00001000
00010000
00100000
10000000
00100000
,
02000000
00000000
00000000
00000000
00000000
00000000
00000000
00000000
00000000
03000000
00000000
00000000
00001000
00000000
00000000
00000000
00100000
00000000
00000000
00000000
01000000
00000000
00000000
00000000
00020000
00000000
00000000
00000000
00000000
00000000
00000000
00000000
00000000
00030000
00000000
00000000
00010000
00000000
00000000
00000000
00000010
00000000
00000000
00000000
00000100
00000000
00000000
00000000
,
00002000
00000000
00000000
00000000
00000000
00000000
00000000
00000000
00000000
00003000
00000000
00000000
00010000
00000000
00000000
00000000
00000000
00000000
00000000
00000000
00010000
00000000
00000000
00000000
00000010
00000000
00000000
00000000
00000010
00000000
00000000
00000000
00000010
00000000
00000000
00000000
00000010
00000000
00000000
00000000
00000010
00000000
00000000
00000000
00000010
00000000
00000000
00000000
,
00002000
00000000
00000000
00003000
,
00020000
00000000
00000000
00000000
00000000
00000000
00000000
00000000
00000000
00000000
00000000
00000000
00030000
00000000
01000000
00010000
,
00100000
00000000
00000000
00000000
00000010
00001000
00000100
00001000
00000010
00000000
00000000
00000000
00100000
00010000
01000000
00010000
,
00100000
00000000
00000000
00000000
00000100
00001000
00000010
00001000
00000200
00000000
00000000
00000000
00000000
00000000
00000300
00000000
,
00004000
00000004
00000000
00000000
00000000
00000000
00000000
00000000
00000000
00000000
00000000
00003000
,
00000003
00000000
00000000
00000000
;

//---------------dance-double - Spork!----------------
#NOTES:
     dance-double:
     :
     Hard:
     8:
     0.482,0.536,0.346,0.435,0.425,262.000,35.000,44.000,0.000,0.000,0.000,0.482,0.536,0.346,0.435,0.425,262.000,35.000,44.000,0.000,0.000,0.000: // measure 0
00000000
00000000
00000000
00000000
,  // measure 1
00000000
00000000
00000000
00000000
,  // measure 2
00000000
00000000
00000000
00000000
,  // measure 3
00000000
00000000
00000000
00000000
,  // measure 4
00002000
00000000
00000000
01003000
00000000
00000000
10010000
00000000
00010000
00100000
00000000
00100000
,  // measure 5
00000000
00000000
00100000
00001000
00000000
00001000
00010000
00000000
00010000
00000010
00000000
00000010
,  // measure 6
00020000
00000000
00000000
00030100
00000000
00000000
00001001
00000000
00001000
00000010
00000000
00000010
,  // measure 7
00000000
00000000
00000010
00010000
00000000
00010000
00002000
00000000
00000000
00013000
00000000
00000000
,  // measure 8
00101000
00011000
00010010
00011000
,  // measure 9
01001000
00000000
00000000
01000000
00010000
01000000
00100000
10000000
00100000
01000000
00010000
10000000
,  // measure 10
02000000
00000000
00000000
03100000
00001000
00010000
00002000
00000000
00000000
01003000
00001000
00010000
,  // measure 11
00002000
00023000
00030200
00000000
,  // measure 12
00000320
00000000
00000000
00000000
00000001
00000000
00000000
00000030
,  // measure 13
00000200
00000000
00000000
00000000
00000000
00000000
00000000
00000000
00001000
00000000
00000000
00000000
00000000
00000000
00000310
00000001
,  // measure 14
00000100
00000000
00000000
00000000
00000100
00000010
00000100
00000010
00000100
00000000
00000000
00000000
00000010
00001000
00000010
00001000
,  // measure 15
00000010
00000000
00000000
00000000
00001000
00000001
00001000
00000001
00001000
00000000
00000000
00000000
00000000
00000000
00000000
00000000
,  // measure 16
00022000
00000000
00000000
00000000
,  // measure 17
00000000
00000000
00000000
00000000
,  // measure 18
00030000
00000000
00000000
00000000
,  // measure 19
00000000
00000000
00000000
00000000
,  // measure 20
00013000
00100000
10000000
01000000
,  // measure 21
00001000
00000010
00000001
00000100
,  // measure 22
00010000
00000000
00000100
00000000
00000001
00000000
00000100
00000000
00010000
00000000
00001000
00000000
,  // measure 23
01000000
00000000
10000000
01000000
00000000
01000000
00002000
00000000
00000000
00013000
00000000
00000000
,  // measure 24
00011000
00000000
00000000
00001000
00010000
00001000
00010000
00000000
00000000
00000100
00000000
00001000
,  // measure 25
00000010
00000000
00000010
00000001
00000000
00000001
00000010
00000000
00000000
00001000
00000000
00000000
,  // measure 26
00002200
00003300
00220000
00330000
,  // measure 27
00002020
00003030
02020000
03030000
,  // measure 28
00011000
00000000
00000000
00010000
00001000
00010000
00001000
00000000
00000000
01000000
00000000
00010000
,  // measure 29
00100000
00000000
00100000
10000000
00000000
10000000
00100000
00000000
00000000
00010000
00000000
00000000
,  // measure 30
02020000
03030000
00002020
00003030
,  // measure 31
00220000
00330000
00002200
00003300
,  // measure 32
00010000
00000000
00000100
00001000
00000000
00001000
00000010
00000000
00000000
00000100
00000000
00000001
,  // measure 33
00000010
00000000
00000010
00000100
00000000
00000100
00001000
00000000
00000000
00000010
00000000
00000000
,  // measure 34
00020000
00000000
00000000
00031000
01000000
00001000
00020000
00000000
00000000
00030100
00001000
00000010
,  // measure 35
00020000
00000000
00000000
00031000
00010000
00001000
00200000
00000000
00000000
00000000
00000000
00000000
,  // measure 36
00301000
00000000
01000000
00010000
00000000
00010000
00100000
00000000
00000000
01000000
00000000
10000000
,  // measure 37
00100000
00000000
00100000
01000000
00000000
01000000
00010000
00000000
00000000
00100000
00000000
00000000
,  // measure 38
00002000
00000000
00000000
00013000
00010000
00000100
00020000
00000000
00000000
00031000
00001000
01000000
,  // measure 39
00001000
00100000
10010000
00000000
,  // measure 40
10000000
01000000
00010000
00001000
,  // measure 41
10001000
01001000
00010100
00010001
,  // measure 42
00000001
00000010
00001000
00010000
,  // measure 43
00010001
00000000
00010000
00000100
00000000
00000100
00000010
00000000
00000010
00000001
00000000
00000000
,  // measure 44
00000001
00000100
00001000
00010000
,  // measure 45
00010001
00010010
00101000
10001000
,  // measure 46
10000000
00100000
00010000
00001000
,  // measure 47
10001000
00000000
00001000
00010000
00000000
00010000
00000010
00000000
00000010
00001000
00000000
00000000
,  // measure 48
00010010
00011000
00101000
00011000
,  // measure 49
00010100
00000000
00000000
00000100
00001000
00000100
00000010
00000001
00000010
00000100
00001000
00000001
,  // measure 50
00000200
00000000
00000000
00000310
00010000
00001000
00020000
00000000
00000000
00030100
00010000
00001000
,  // measure 51
00020000
00032000
02003000
00000000
,  // measure 52
03200000
00000000
10000000
00300000
,  // measure 53
02000000
00000000
00000000
00000000
00000000
00000000
00000000
00000000
00010000
00000000
00000000
00000000
03000000
00000000
00100000
10000000
,  // measure 54
01000000
00000000
00000000
00000000
01000000
00100000
01000000
00100000
01000000
00000000
00000000
00000000
00100000
00010000
00100000
00010000
,  // measure 55
00100000
00000000
00000000
00000000
00010000
10000000
00010000
10000000
00010000
00000000
00000000
00000000
00000000
00000000
00000000
00000000
,  // measure 56
00022000
00000000
00000000
00000000
,  // measure 57
00033000
00000000
00000000
00000000
;
