#VERSION:0.81;
#TITLE:Theory Of Eternity;
#SUBTITLE:;
#ARTIST:TAG;
#TITLETRANSLIT:;
#SUBTITLETRANSLIT:;
#ARTISTTRANSLIT:;
#GENRE:;
#ORIGIN:;
#CREDIT:;
#BANNER:TheoryOfEternity-bn.png;
#BACKGROUND:Theory of Eternity-bg.png;
#PREVIEWVID:;
#JACKET:TheoryOfEternity.png;
#CDIMAGE:;
#DISCIMAGE:;
#LYRICSPATH:;
#CDTITLE:;
#MUSIC:Theory of Eternity.mp3;
#OFFSET:0.000000;
#SAMPLESTART:37.555817;
#SAMPLELENGTH:12.000000;
#SELECTABLE:YES;
#DISPLAYBPM:160.000000:220.000000;
#BPMS:0.000=160.000,
148.500=220.000,
197.000=190.000,
209.000=160.000;
#STOPS:;
#DELAYS:;
#WARPS:;
#TIMESIGNATURES:0.000=4=4;
#TICKCOUNTS:0.000=4;
#COMBOS:0.000=1;
#SPEEDS:0.000=1.000=0.000=0;
#SCROLLS:0.000=1.000;
#FAKES:;
#LABELS:0.000=Song Start;
#BGCHANGES:;
#KEYSOUNDS:;
#ATTACKS:
;

//---------------dance-single - ----------------
#NOTEDATA:;
#CHARTNAME:;
#STEPSTYPE:dance-single;
#DESCRIPTION:;
#CHARTSTYLE:;
#DIFFICULTY:Challenge;
#METER:10;
#RADARVALUES:1.000000,1.000000,0.930860,0.744688,0.447977,492.000000,80.000000,64.000000,0.000000,0.000000,0.000000,0.000000,0.000000,1.000000,1.000000,0.930860,0.744688,0.447977,492.000000,80.000000,64.000000,0.000000,0.000000,0.000000,0.000000,0.000000;
#CREDIT:;
#DISPLAYBPM:160.000000:220.000000;
#NOTES:
0000
0000
0000
0000
,
2000
3002
0013
1001
,
0001
0010
0001
2000
0000
0000
3200
0000
,
0000
0300
0011
0000
1100
0011
0001
0000
,
0010
0000
0001
0000
0000
0001
0010
0001
,
0100
0011
0001
1100
1000
0001
0010
0100
,
0001
0010
1000
1001
0001
1000
0001
1000
,
0001
0110
0010
1010
0000
0011
0001
1001
,
0000
0011
2002
0000
0000
3003
1010
0101
,
0010
0100
0010
0000
2100
0010
0001
0100
,
3200
0010
1000
0010
0301
0000
1002
0010
,
0100
0000
1000
0000
0003
0000
0001
0000
0100
0000
1000
0000
0001
0010
0001
0010
,
0001
0010
0100
0010
0100
1000
0100
1000
0102
0000
0010
0000
0100
0000
1000
0000
,
0100
0000
0000
0010
0000
0000
0100
0000
0000
1000
0000
0000
0103
0000
1000
0000
0000
0000
0100
0000
0010
0000
0000
0000
,
0001
0010
0000
0100
0010
0000
0001
0010
0000
1000
0100
0000
,
0010
0000
0000
0000
0000
0000
0000
0000
1000
0000
0000
0000
0100
0000
0000
0000
0000
0000
0000
0000
0001
0000
0000
0000
0001
0000
0000
0000
0010
0000
0000
0000
0000
1000
0000
0000
0100
0000
0000
1000
0000
0000
0001
0000
0000
0010
0000
0000
,
0001
1001
1000
1000
0110
0001
1001
1000
,
0100
0100
2000
3100
0001
0020
0031
0200
,
1300
0000
0020
0000
0030
0000
0002
0000
1003
1000
0010
1000
0010
0100
0001
0100
,
0011
0100
0001
0010
1100
0000
1100
0000
0011
0000
0011
0000
0110
0000
0110
0000
,
1001
0110
0101
1010
0001
0010
0100
1000
,
0100
0010
0101
0202
0303
1010
0001
0020
,
0230
0000
1300
0000
0100
0000
0010
0000
0001
1000
0010
0001
0100
0010
1000
0001
,
0100
1010
1010
0002
0013
1000
0100
0001
,
0010
1000
0100
0001
0010
0011
0000
0011
,
0200
0300
1100
0002
0013
2002
3003
2020
,
3030
0000
0101
0000
0220
0000
0330
0000
1001
0000
0001
0010
0100
0001
1000
0100
,
0010
0001
0010
0000
0020
0000
0130
0000
2000
0000
3100
0000
0002
0000
0013
0000
,
0020
0000
0130
0000
1001
0000
1001
0000
0001
0010
0001
1000
0100
0010
0001
0100
,
0010
0010
1000
0001
0200
0310
1001
0000
1001
0000
1010
0000
1010
0000
0202
0000
,
0303
0000
0010
0000
1000
0000
0000
0000
0110
1000
0001
0000
1000
0100
0020
0031
,
2000
3100
0002
0013
0200
0310
0020
0130
,
0220
0000
0000
0000
0000
0000
0000
0000
0000
0000
0000
0000
0330
1000
0100
1000
,
0100
0010
0001
0010
1001
0000
0100
0000
0001
0000
1000
0000
0100
0001
0010
0000
,
1000
0000
0100
0000
0001
0000
0010
0000
0001
0000
1000
0010
0100
0000
1000
0000
,
0100
0000
0000
0000
0000
0000
0001
0000
0000
0000
0000
0000
0010
0000
0000
0000
0000
0000
0001
0000
0000
0010
0000
0000
0100
0000
0000
0000
0000
0000
1000
0000
0000
0000
0100
0000
0000
0000
0000
0000
0001
0000
0000
0000
0010
0000
0100
0000
,
1000
0100
1000
0100
0001
0010
0001
1000
0100
0020
0031
0010
1000
0010
0002
0203
,
0301
1100
1000
0000
0010
0000
1000
0000
0010
0000
1000
0000
0010
0000
1010
0000
,
0001
0100
0001
0100
0001
0100
0101
0010
,
1000
0010
1000
0010
1000
1010
1010
0101
,
0101
0001
0010
0100
1000
0100
0010
0001
,
0100
0021
1030
0100
0010
1002
0103
0011
,
0100
0001
0010
0001
0010
0001
0100
0001
,
1000
0001
0100
0010
2000
3200
0320
1030
,
0100
0010
0001
0010
0001
0100
2000
3200
,
0300
1001
1001
1001
1001
1001
0001
0100
,
0010
1000
0100
0010
0100
0001
0010
0001
,
0100
0001
0002
0013
2000
3100
0020
0130
,
0200
0310
0110
0110
1001
1001
0101
1010
,
1001
0110
0001
0010
1000
0100
0010
0001
,
0010
0100
0001
0010
0101
0100
0010
2000
,
3100
1000
1000
0100
0001
0001
0010
0100
,
0100
1000
0001
0010
0100
1000
0100
0020
,
0031
0010
0100
1000
0100
0010
0100
0010
,
0100
0001
0010
0100
2000
3100
1000
0100
,
0010
0001
1000
0100
0010
0001
0100
0001
,
0010
0100
1000
0100
0010
0001
0100
0010
,
0020
0000
0032
0000
0103
0100
0010
0001
0000
0001
0100
1000
0100
0000
0000
0100
,
0001
0010
0100
1000
0010
0000
0000
0020
0030
0000
0000
0010
0001
0010
0100
1000
,
0000
0001
0100
0001
0001
0100
0100
0000
0120
0030
0000
1000
0000
0000
0000
0000
,
0020
0000
0000
0030
;

//---------------dance-single - ----------------
#NOTEDATA:;
#CHARTNAME:;
#STEPSTYPE:dance-single;
#DESCRIPTION:;
#CHARTSTYLE:;
#DIFFICULTY:Hard;
#METER:8;
#RADARVALUES:0.816165,0.848246,0.395616,0.465430,0.250169,417.000000,34.000000,40.000000,0.000000,0.000000,0.000000,0.000000,0.000000,0.816165,0.848246,0.395616,0.465430,0.250169,417.000000,34.000000,40.000000,0.000000,0.000000,0.000000,0.000000,0.000000;
#CREDIT:;
#DISPLAYBPM:160.000000:220.000000;
#NOTES:
0000
0000
0000
0000
,
1000
0001
0010
1001
,
0001
0001
0000
0200
,
0000
0300
0011
0000
1100
0001
0001
0000
,
0010
0000
0001
0010
0010
0000
0010
0001
,
0100
0001
0001
1100
1000
0001
0010
0100
,
0001
0010
1000
1000
0001
0010
0001
0000
,
0001
0010
0010
1000
0000
0001
0001
1000
,
0000
0001
0002
0000
0000
0003
1000
0101
,
0010
0100
0010
0000
2100
0010
0001
0000
,
3200
0010
0000
0010
0300
0000
1002
0010
,
0000
1000
0003
0001
0100
1000
0001
0001
,
0001
0100
0100
0100
0102
0010
0000
1000
,
0000
0000
0000
0010
0000
0000
0000
0000
0000
1000
0000
0000
0003
0000
1000
0000
0000
0000
0000
0000
0010
0000
0000
0000
,
0000
0010
0000
0000
0010
0000
0000
0010
0000
0000
0100
0000
,
0010
0000
0000
0000
0000
0000
0000
0000
1000
0000
0000
0000
0100
0000
0000
0000
0000
0000
0000
0000
0001
0000
0000
0000
0001
0000
0000
0000
0010
0000
0000
0000
0000
1000
0000
0000
0000
0000
0000
1000
0000
0000
0001
0000
0000
0000
0000
0000
,
0001
1000
1000
1000
0110
0001
0001
1000
,
0100
0100
1000
0100
0001
0010
0001
0100
,
1000
0010
0000
0001
1000
0010
0010
0001
,
0011
0001
1000
1000
0001
0001
0100
0010
,
1000
0010
0001
1000
0001
0010
0100
1000
,
0100
0010
0001
0002
0003
1000
0001
0020
,
0230
0000
1300
0000
0100
0000
0010
0000
0001
0000
0010
0000
0100
0010
1000
0001
,
0100
1000
1010
0001
0010
1000
0100
0001
,
0010
1000
0100
0001
0010
0001
0011
0010
,
0200
0300
1000
0002
0013
0002
0003
2000
,
3000
0000
0001
0000
0200
0000
0300
0000
1000
0000
0001
0000
0100
0000
1000
0100
,
0010
0001
0010
0000
0020
0000
0030
0000
2000
0000
3000
0000
0002
0000
0003
0000
,
0020
0030
1000
0001
0001
0001
0100
0001
,
0010
0010
1000
0001
0200
0310
0001
0000
1000
0000
1000
0000
0010
0000
0200
0000
,
0300
0000
0010
0000
1000
0000
0000
0000
0010
1000
0001
0000
1000
0100
0020
0031
,
2000
3100
0002
0013
0200
0310
0020
0130
,
0200
0000
0000
0000
0000
0000
0000
0000
0000
0000
0000
0000
0300
1000
0000
1000
,
0100
0010
0000
0010
1001
0000
0100
0000
0001
0000
1000
0000
0100
0000
0010
0000
,
1000
0100
0001
0010
0001
1000
0100
1000
,
0100
0001
0010
0001
0100
1000
0100
0001
,
1010
0000
1000
0100
0001
0000
0001
1000
0100
0000
0001
0000
1000
0000
0002
0003
,
0001
1100
1000
0000
0000
0000
1000
0000
0000
0000
1000
0000
0000
0000
1010
0000
,
0001
0000
0001
0000
0001
0000
0101
0010
,
0000
0010
0000
0010
0000
0010
1010
0101
,
0001
0001
0000
0100
1000
0100
0000
0001
,
0000
0021
1030
0100
0010
1002
0003
0011
,
0100
0001
0000
0001
0000
0001
0000
0001
,
1000
0001
0100
0010
2000
3200
0320
1030
,
0000
0010
0000
0010
0001
0100
2000
3200
,
0300
1001
0001
1001
0001
1001
0001
0100
,
0000
1000
0000
0010
0000
0001
0010
0001
,
0100
0001
0001
0010
1000
0100
0010
0100
,
0100
0010
0100
0010
1000
0001
0100
0010
,
1000
0100
0001
0010
1000
0100
0010
0001
,
0010
0000
0001
0010
0100
0100
0010
1000
,
0100
1000
1000
0100
0001
0001
0010
0100
,
0100
1000
0001
0010
0100
1000
0100
0020
,
0031
0010
0100
1000
0100
0001
0100
0001
,
0100
0001
0010
0100
1000
0100
1000
1100
,
0110
0011
1001
1100
0110
0011
0101
0001
,
0010
0100
1000
0100
0010
0001
0100
0010
,
0020
0000
0032
0000
0103
0100
0010
0001
0000
0001
0100
1000
0100
0000
0000
0100
,
0001
0010
0100
1000
0010
0000
0000
0020
0030
0000
0000
0010
0001
0010
0100
1000
,
0000
0001
0100
0001
0001
0100
0100
0000
0120
0030
0000
1000
0000
0000
0000
0000
,
0020
0000
0000
0030
;

//---------------dance-single - ----------------
#NOTEDATA:;
#CHARTNAME:;
#STEPSTYPE:dance-single;
#DESCRIPTION:;
#CHARTSTYLE:;
#DIFFICULTY:Medium;
#METER:6;
#RADARVALUES:0.601735,0.600841,0.162901,0.325801,0.058179,320.000000,14.000000,28.000000,0.000000,0.000000,0.000000,0.000000,0.000000,0.601735,0.600841,0.162901,0.325801,0.058179,320.000000,14.000000,28.000000,0.000000,0.000000,0.000000,0.000000,0.000000;
#CREDIT:;
#DISPLAYBPM:160.000000:220.000000;
#NOTES:
0000
0000
0000
0000
,
1000
0001
0010
1001
,
0000
0001
0000
0100
,
0000
0000
0011
0000
1100
0001
0000
0000
,
0010
0001
0010
0010
,
0100
0000
0001
1000
1000
0000
0010
0100
,
0001
1000
0001
0001
,
0001
0000
0010
1000
0000
0000
0001
1000
,
0000
0001
0001
0000
0000
0000
1000
0100
,
0010
0100
0010
0000
2100
0000
0001
0000
,
3200
0000
0000
0010
0300
0000
0002
0010
,
0000
1000
0003
0001
0100
1000
0001
0000
,
0001
0100
0000
0100
0102
0000
0000
1000
,
0000
0010
0000
0000
1003
0100
0010
0001
,
0010
0001
0100
1000
,
0010
0000
0000
0000
0100
0000
0000
0000
0001
0000
0000
0000
0000
1000
0000
0000
,
0001
1000
0000
1000
0110
0001
0001
1000
,
0100
0000
1000
0100
0001
0000
0001
0100
,
1000
0000
0000
0001
1000
0010
0010
0001
,
0001
0001
1000
0000
0001
0000
0100
0000
,
1000
0000
0001
1000
0001
0000
0100
0000
,
0100
0000
0001
0001
0000
1000
0001
0010
,
0100
0000
1000
0000
0100
0000
0010
0000
0001
0000
0010
0000
0100
0000
0000
0001
,
0100
1000
1000
0001
0010
0000
0100
0000
,
0010
1000
0100
0001
0000
0001
0010
0010
,
0100
0000
1000
0001
0010
0001
0000
1000
,
0000
0001
0200
0300
1000
0001
0100
1000
,
0010
0000
0020
0030
2000
3000
0002
0003
,
0020
0030
1000
0000
0001
0000
0100
0000
,
0010
0000
1000
0000
0200
0300
0001
0000
1000
0000
0000
0000
0010
0000
0200
0000
,
0300
0000
0000
0000
1000
0000
0000
0000
0010
1000
0001
0000
1000
0100
0020
0031
,
2000
3000
0002
0003
0200
0300
0020
0030
,
0100
0000
0010
0000
0100
0000
0010
0000
0100
0000
0010
0000
0100
0000
0010
1000
,
0100
0000
0000
0010
1000
0000
0000
0000
0001
0000
1000
0000
0100
0000
0010
0000
,
1000
0100
0001
0000
0001
0000
0100
1000
,
0100
0001
0010
0000
0100
1000
0100
0001
,
1000
0000
1000
0000
0001
0000
0001
0000
0100
0000
0001
0000
1000
0000
0002
0003
,
0001
0100
1000
0000
0000
0000
1000
0000
0000
0000
1000
0000
0000
0000
1010
0000
,
0001
0000
0000
0000
0001
0000
0100
0010
,
0000
0000
0000
0010
0000
0000
1010
0001
,
0000
0001
0000
0100
0000
0100
0000
0001
,
0000
0021
1030
0000
0010
1002
0003
0011
,
0100
0001
0000
0000
0000
0001
0000
0000
,
1000
0000
0100
0010
2000
3000
0020
1030
,
0000
0010
0000
0000
0001
0100
2000
3200
,
0300
0001
0000
0001
0000
1001
0001
0100
,
0000
1000
0000
0010
0000
0001
0000
0001
,
0000
0001
0001
0000
1000
0000
0010
0100
,
0100
0010
0100
0010
1000
0000
0100
0010
,
1000
0000
0001
0000
1000
0100
0010
0001
,
0010
0000
0001
0000
0100
0100
0010
0000
,
0100
1000
1000
0001
0000
0001
0010
0000
,
0100
1000
0001
0000
0100
1000
0000
0020
,
0030
0010
0100
1000
0000
0001
0100
0001
,
0100
0000
0010
0000
1000
0100
1000
0100
,
0010
0001
1001
0100
0100
0010
0001
0001
,
0000
0100
1000
0100
0000
0001
0100
0010
,
0020
0032
0103
0010
0000
0100
0100
0000
,
0001
0000
0100
0000
0010
0000
0000
0010
0000
0000
0000
0000
0001
0000
0100
0000
,
0000
0000
0100
0000
0001
0000
0100
0000
0120
0030
0000
1000
0000
0000
0000
0000
,
0020
0000
0000
0030
;

//---------------dance-single - ----------------
#NOTEDATA:;
#CHARTNAME:;
#STEPSTYPE:dance-single;
#DESCRIPTION:;
#CHARTSTYLE:;
#DIFFICULTY:Easy;
#METER:4;
#RADARVALUES:0.463768,0.565498,0.116358,0.186172,0.023272,253.000000,10.000000,16.000000,0.000000,0.000000,0.000000,0.000000,0.000000,0.463768,0.565498,0.116358,0.186172,0.023272,253.000000,10.000000,16.000000,0.000000,0.000000,0.000000,0.000000,0.000000;
#CREDIT:;
#DISPLAYBPM:160.000000:220.000000;
#NOTES:
// measure 0
0000
0000
0000
0000
,  // measure 1
1000
0001
0010
1000
,  // measure 2
0000
0001
0000
0100
,  // measure 3
0000
0001
1100
0001
,  // measure 4
0010
0001
0010
0010
,  // measure 5
0100
0000
0001
0000
1000
0000
0010
0100
,  // measure 6
0001
1000
0001
0001
,  // measure 7
0001
0000
0010
0000
0000
0000
0001
1000
,  // measure 8
0000
0001
0000
1000
,  // measure 9
0010
0100
0010
0000
2100
0000
0001
0000
,  // measure 10
3200
0000
0300
0002
,  // measure 11
0000
1000
0003
0001
0000
1000
0001
0000
,  // measure 12
0000
0100
0000
0000
0102
0000
0000
0000
,  // measure 13
0000
0010
0000
0000
1003
0000
0010
0000
,  // measure 14
0010
0001
0100
1000
,  // measure 15
0010
0000
0000
0000
0100
0000
0000
0000
0001
0000
0000
0000
0000
1000
0000
0000
,  // measure 16
0001
1000
0000
1000
0100
0001
0001
0010
,  // measure 17
0100
1000
0000
0100
0001
0001
0001
0100
,  // measure 18
0000
1000
0000
0001
1000
0000
0010
0001
,  // measure 19
0000
0001
1000
0000
0001
0000
0100
0000
,  // measure 20
1000
0000
0001
1000
0001
0000
0100
0000
,  // measure 21
0100
0001
0000
0001
,  // measure 22
0100
1000
0100
0000
0001
0000
0100
0000
,  // measure 23
0100
0000
1000
0001
0010
0000
0100
0000
,  // measure 24
0010
0000
0100
0001
0000
0000
0010
0000
,  // measure 25
0100
0000
1000
0001
0010
0000
0000
0000
,  // measure 26
0000
0001
0200
0300
1000
0000
0100
0000
,  // measure 27
0010
0010
1000
0001
,  // measure 28
0010
1000
0001
0100
,  // measure 29
0010
0000
0100
0000
1000
0000
0010
0200
,  // measure 30
0300
0000
1000
0000
0010
0001
1000
0010
,  // measure 31
2000
3000
0002
0003
0200
0300
0020
0030
,  // measure 32
0100
0000
0000
0000
0100
0000
0000
0000
0100
0000
0000
0000
0100
0000
0010
1000
,  // measure 33
0100
0000
1000
0000
0001
0000
0100
0010
,  // measure 34
1000
0001
0001
0100
,  // measure 35
0100
0000
0010
0000
0100
1000
0100
0000
,  // measure 36
1000
0000
0001
0000
0100
0000
1000
0001
,  // measure 37
0001
0100
1000
0000
0000
0000
0000
0000
0000
0000
1000
0000
0000
0000
1010
0000
,  // measure 38
0100
0001
0001
0000
0001
0000
0100
0000
,  // measure 39
0001
0000
0100
0010
0010
0000
1010
0001
,  // measure 40
0000
0000
0000
0100
0000
0000
0000
0001
,  // measure 41
0000
0010
1000
0000
0010
0002
0003
0001
,  // measure 42
0100
0001
0000
0000
0000
0001
0000
0000
,  // measure 43
1000
0000
0100
0000
2000
3000
0020
0030
,  // measure 44
0000
0000
0000
0000
0001
0000
2000
3200
,  // measure 45
0300
0001
0000
0000
0000
0001
0001
0100
,  // measure 46
0000
0000
1000
0010
0000
0001
0000
0000
,  // measure 47
0000
0001
0000
0000
1000
0000
0010
0000
,  // measure 48
0100
0010
0100
0000
1000
0000
0100
0000
,  // measure 49
1000
0000
0001
0000
1000
0000
0010
0001
,  // measure 50
0010
0001
0100
0010
,  // measure 51
0100
1000
0000
0001
0001
0001
0010
0010
,  // measure 52
0100
1000
0101
0000
0101
1000
0000
0010
,  // measure 53
0000
0010
0101
1000
0000
0001
0100
1001
,  // measure 54
0100
0000
0000
0000
1000
0000
1000
0100
,  // measure 55
0000
0001
1000
0100
0000
0010
0000
0001
,  // measure 56
0000
0000
1000
0100
0000
0000
0100
0000
,  // measure 57
0001
0001
0100
0010
0000
0000
0100
0000
,  // measure 58
0001
0000
0010
0000
0000
0000
0001
0100
,  // measure 59
0000
0000
0000
0000
0001
0000
0000
0000
0110
0000
0000
1000
0000
0000
0000
0000
,  // measure 60
0020
0000
0000
0030
;
