#TITLE:Switch On!;
#SUBTITLE:;
#ARTIST:土屋アンナ;
#TITLETRANSLIT:;
#SUBTITLETRANSLIT:;
#ARTISTTRANSLIT:Anna Tsuchiya;
#CREDIT:;
#BANNER:Switch On!.png;
#BACKGROUND:Switch On!-bg.png;
#LYRICSPATH:;
#CDTITLE:;
#MUSIC:Switch On!.mp3;
#OFFSET:-0.158;
#SAMPLESTART:40.380;
#SAMPLELENGTH:16.420;
#SELECTABLE:YES;
#BPMS:0.000=190.000;
#STOPS:;
#BGCHANGES:;

//---------------dance-single - ----------------
#NOTES:
     dance-single:
     :
     Hard:
     9:
     0.824,1.000,0.481,0.388,0.235: // measure 1
0000
0000
0000
0000
,  // measure 2
0000
0000
1100
0101
,  // measure 3
1000
1000
0020
0000
0130
0002
0000
1003
,  // measure 4
0200
0000
0300
0010
0101
0000
1100
0000
,  // measure 5
1002
0010
0100
1000
,  // measure 6
0100
0013
1010
0011
,  // measure 7
1000
0100
0001
1000
0010
0001
1000
0001
,  // measure 8
0000
0000
0011
1010
,  // measure 9
1002
0000
0103
0001
1000
0100
0001
0100
,  // measure 10
1000
0001
0000
1001
0000
1000
0010
1000
,  // measure 11
0001
0010
0100
1000
0010
0100
0001
1000
,  // measure 12
0001
0010
1000
0010
0000
0001
0100
0010
,  // measure 13
0100
0001
0010
0100
0000
1000
0010
0100
,  // measure 14
0002
0000
0100
0200
0003
0000
0310
0000
,  // measure 15
2010
3001
0012
1003
,  // measure 16
2100
0000
3001
0000
0102
0000
1003
0001
,  // measure 17
1000
0100
0002
0000
0100
0103
0000
0001
,  // measure 18
0100
1000
0010
0100
0000
1001
0000
0001
,  // measure 19
1000
0000
0001
0010
2000
0000
3010
0000
,  // measure 20
0001
0100
0010
1000
1001
1001
0000
2100
,  // measure 21
0000
0000
3001
0000
1000
0010
1000
0000
,  // measure 22
0010
0100
0010
0000
0100
0001
0010
0001
,  // measure 23
1000
0100
1000
0000
0001
0100
0010
1010
,  // measure 24
0000
0000
0010
0100
0010
0000
0100
0000
0100
0000
0001
0000
0001
0000
1000
0000
,  // measure 25
0001
0100
0000
1000
0100
0000
0001
0010
,  // measure 26
0000
1000
0010
0000
0002
0000
1003
0000
,  // measure 27
0001
0010
0000
1000
0010
0000
0001
0100
,  // measure 28
0000
0000
1000
0000
0100
0000
0000
0000
0001
1000
0001
1000
0001
0000
0000
0000
,  // measure 29
2000
0010
0100
0001
,  // measure 30
0100
0000
0000
0000
0010
0000
0000
0000
3001
0000
1000
0001
1000
0000
0000
0000
,  // measure 31
0001
0100
1000
0001
0010
1000
0001
1000
,  // measure 32
0020
0000
0000
0000
0000
0000
0000
0000
0130
0001
1000
0001
1000
0000
1001
0000
,  // measure 33
0000
1000
0010
1000
0001
1000
0100
1000
,  // measure 34
0001
0000
0010
0000
0001
0000
1000
0000
0001
0000
0100
0000
0001
0000
1000
0001
,  // measure 35
1000
0010
0100
0010
0001
0010
0100
0010
,  // measure 36
1000
0000
0100
0000
0010
0000
0100
0000
1000
0000
0001
0100
0001
0000
1000
0100
,  // measure 37
1000
0000
1001
0000
0001
0100
0010
0000
,  // measure 38
2020
0000
3030
0021
0000
0000
1030
0000
,  // measure 39
0002
0000
0010
0000
0100
0100
0000
1003
,  // measure 40
0101
0000
0000
0000
1100
0000
0000
0000
1000
0001
1000
0001
1000
0001
2000
0000
,  // measure 41
0000
3001
0100
0001
1000
0001
0010
0001
,  // measure 42
1000
0000
0100
0000
1000
0000
0001
0000
1000
0000
0010
0000
1000
0000
0001
1000
,  // measure 43
0001
0100
0010
0100
1000
0100
0010
0100
,  // measure 44
0001
0000
0010
0000
0100
0000
0010
0000
0001
0000
1000
0010
1000
0000
0001
0010
,  // measure 45
0001
0000
1001
0000
1000
0010
0100
0000
,  // measure 46
0202
0000
0303
1200
0000
0000
0301
0000
,  // measure 47
2000
0000
0100
0000
0010
0010
0000
3001
,  // measure 48
1010
0000
0000
0000
0011
0000
0000
0000
1000
0001
1000
0001
1000
0001
1000
0001
,  // measure 49
1000
0010
0001
0010
1000
0010
0100
0001
,  // measure 50
1000
0100
0001
0100
1000
0100
0010
1000
,  // measure 51
0010
0001
0100
0010
1000
0100
0010
0001
,  // measure 52
2000
0000
0000
0000
3001
0000
0000
0000
0100
0010
0100
0010
0100
0000
0010
0000
,  // measure 53
1000
0000
0101
0001
0010
0100
1000
0000
,  // measure 54
0001
0000
1010
1000
0010
0100
0001
0000
,  // measure 55
1000
0100
0100
0001
1000
1000
0100
0001
,  // measure 56
1000
0001
1000
0001
1000
0001
1000
0001
1000
0001
1000
0001
1000
0001
2000
0000
,  // measure 57
0000
0000
0010
0000
0100
0100
0000
0001
,  // measure 58
3002
0103
1010
0011
,  // measure 59
1001
1002
0010
0000
0100
0100
0000
1000
,  // measure 60
2003
0000
3001
0100
0011
0000
1010
0000
,  // measure 61
1000
0010
0010
0100
0001
0001
1000
0100
,  // measure 62
0100
0010
0001
0001
1000
0010
0100
0000
,  // measure 63
0001
0100
0001
0100
0001
0100
0010
0100
0010
0100
0010
0100
0010
1000
0010
1000
,  // measure 64
0010
1000
0001
1000
0001
1000
0001
1000
0100
0000
0000
0000
0110
0000
0000
0000
,  // measure 65
2002
0000
0000
3003
;

//---------------dance-single - ----------------
#NOTES:
     dance-single:
     :
     Easy:
     5:
     0.409,0.380,0.070,0.176,0.000: // measure 1
0000
0000
0000
0000
,  // measure 2
0000
0000
1000
0001
,  // measure 3
0000
0000
0000
0000
,  // measure 4
0000
0000
0100
0010
,  // measure 5
1000
0000
0000
0100
0000
0000
0010
0000
,  // measure 6
0000
0100
0000
0000
1000
0000
0001
0000
,  // measure 7
1000
0010
0100
0001
,  // measure 8
1000
0000
0010
0010
,  // measure 9
2000
3000
0001
0010
,  // measure 10
0100
0100
0010
0000
,  // measure 11
0001
0100
1000
0100
,  // measure 12
0010
1000
0001
0000
,  // measure 13
1000
0100
0010
0000
,  // measure 14
0001
0100
0010
0000
,  // measure 15
2000
3000
0020
0030
,  // measure 16
0200
0300
0002
0003
,  // measure 17
1000
0100
0010
0001
,  // measure 18
0010
0100
1000
1000
,  // measure 19
0001
0100
0010
1000
,  // measure 20
0010
0000
0100
0000
0001
0001
0000
1000
,  // measure 21
0000
0001
0010
1000
,  // measure 22
0010
0100
1000
0001
,  // measure 23
0100
0000
1000
0000
0100
0000
0010
0010
,  // measure 24
0000
1000
0001
0100
,  // measure 25
0002
0003
0020
0030
,  // measure 26
0200
0300
2000
3000
,  // measure 27
0020
0030
0200
0300
,  // measure 28
0002
0003
1000
1001
,  // measure 29
1000
1000
0010
0010
,  // measure 30
0100
0100
0001
0001
,  // measure 31
1000
0100
0010
0001
,  // measure 32
2000
0000
3000
0000
0001
0000
0100
0100
,  // measure 33
0000
0001
0010
0100
,  // measure 34
1000
0100
0010
0001
,  // measure 35
1000
0010
0100
1000
,  // measure 36
0100
0010
1000
0001
,  // measure 37
0010
0010
0100
0100
,  // measure 38
1000
0000
0000
1001
0000
0000
0000
0000
,  // measure 39
1000
0001
0010
0100
,  // measure 40
1000
0000
1000
0000
0001
0000
0010
0010
,  // measure 41
0000
0001
0100
0010
,  // measure 42
1000
0100
1000
0010
,  // measure 43
0001
0010
0100
0001
,  // measure 44
1000
0100
0010
0001
,  // measure 45
1000
1000
0001
0001
,  // measure 46
0010
0000
0000
0110
0000
0000
0000
0000
,  // measure 47
0100
1000
0010
0100
,  // measure 48
0001
1000
0010
0010
,  // measure 49
1000
0100
0001
0100
,  // measure 50
1000
0100
0010
0010
,  // measure 51
0001
0100
1000
0100
,  // measure 52
0010
0000
0010
0000
1000
0001
1000
0000
,  // measure 53
0001
0010
1000
0010
,  // measure 54
0001
0010
0100
0100
,  // measure 55
1000
0010
0001
0010
,  // measure 56
0100
0000
0001
0000
1000
0001
1000
0001
,  // measure 57
0000
0001
0010
0010
,  // measure 58
0100
0100
1000
1001
,  // measure 59
1000
1000
0010
0010
,  // measure 60
0100
0100
0001
1001
,  // measure 61
0001
0010
0100
1000
,  // measure 62
0100
0010
0001
1000
,  // measure 63
0010
0100
0001
1000
,  // measure 64
0100
0010
0001
1000
,  // measure 65
2002
0000
0000
3003
;

//---------------dance-single - ----------------
#NOTES:
     dance-single:
     :
     Medium:
     7:
     0.627,0.608,0.611,0.247,0.000: // measure 1
0000
0000
0000
0000
,  // measure 2
0000
0000
1100
0101
,  // measure 3
1000
0001
0000
0000
0000
0000
0000
0000
,  // measure 4
0000
0000
1010
0011
,  // measure 5
1002
0010
0100
1000
,  // measure 6
0100
0013
0101
1100
,  // measure 7
0001
1000
0001
1000
0001
1000
0001
1000
,  // measure 8
0000
0000
0110
1001
,  // measure 9
2100
0000
3001
0000
1000
0010
1000
0000
,  // measure 10
0010
0100
0000
0101
0000
0001
0010
0000
,  // measure 11
0001
0100
0001
0000
1000
0100
1000
0000
,  // measure 12
0001
1000
0001
1000
0000
0010
0100
0000
,  // measure 13
0001
0010
0100
1000
0000
0001
1000
0000
,  // measure 14
0020
0000
0100
0230
0000
0000
0310
0000
,  // measure 15
2000
3100
0020
0031
,  // measure 16
2000
3010
0200
0301
,  // measure 17
1000
0001
1000
0000
0010
0100
0000
0100
,  // measure 18
0010
0000
0010
2000
0000
3001
0000
1000
,  // measure 19
0100
0010
0001
1000
,  // measure 20
0010
0100
0001
1000
0010
0010
0000
1010
,  // measure 21
0000
0110
0100
0101
,  // measure 22
0001
0011
0010
0110
,  // measure 23
0100
0000
1100
0000
1000
0010
0100
0002
,  // measure 24
0000
0010
0100
1003
,  // measure 25
0001
0100
0000
0001
0100
0000
0010
1000
,  // measure 26
0000
0010
1000
0000
0002
0000
0013
0000
,  // measure 27
0100
1000
0000
0100
1000
0000
0001
0100
,  // measure 28
0000
0001
0100
0000
0001
1000
0001
0000
,  // measure 29
2000
0010
0100
0010
,  // measure 30
0001
0010
3100
1001
,  // measure 31
1000
0010
0100
0001
0100
0010
1000
0100
,  // measure 32
0020
0000
0000
0030
0100
1000
0001
0100
,  // measure 33
0000
0110
0010
1010
,  // measure 34
1000
0000
1001
0000
0001
0000
0010
0100
,  // measure 35
1000
1010
0010
0110
,  // measure 36
0100
0000
0101
0000
0001
0010
0100
1000
,  // measure 37
0001
0000
1000
0000
0010
0100
0010
0000
,  // measure 38
1010
0000
0000
0022
0000
0000
0033
0000
,  // measure 39
1000
0000
0010
0000
0100
0001
0000
1000
,  // measure 40
0100
0000
0011
0000
1000
0010
0100
0001
,  // measure 41
0000
0110
0100
0101
,  // measure 42
0001
0000
1001
0000
1000
0000
0100
0010
,  // measure 43
0001
0101
0100
0110
,  // measure 44
0010
0000
1010
0000
1000
0100
0010
0001
,  // measure 45
1000
0000
0001
0000
0100
0010
0100
0000
,  // measure 46
0101
0000
0000
2200
0000
0000
3300
0000
,  // measure 47
0001
0000
0100
0000
0010
1000
0000
0001
,  // measure 48
0010
0000
1100
0000
0001
0100
0010
1000
,  // measure 49
0001
0100
0001
0000
0100
0010
0100
0000
,  // measure 50
0010
1000
0010
0000
1000
0100
1000
0000
,  // measure 51
0001
1000
0001
0000
0010
0001
0010
0000
,  // measure 52
0001
0100
0001
0000
1000
0100
0010
0001
,  // measure 53
1000
1001
0001
0101
,  // measure 54
0001
1001
1000
1100
,  // measure 55
1000
0010
1000
0010
0100
0001
0100
0001
,  // measure 56
1000
0100
0010
0001
0010
0100
1000
0002
,  // measure 57
0000
0010
0100
1000
,  // measure 58
0100
0013
0101
1100
,  // measure 59
2001
0001
0010
0100
,  // measure 60
0010
3001
0101
1100
,  // measure 61
1001
0000
0000
0101
0000
0000
0110
0000
,  // measure 62
0000
1010
0000
0000
1100
0000
0101
0000
,  // measure 63
1000
0010
1000
0010
1000
0010
1000
0010
,  // measure 64
0100
0001
0100
0001
1000
0000
0001
0000
,  // measure 65
2002
0000
0000
3003
;
