#TITLE:RED ZONE;
#SUBTITLE:;
#ARTIST:Tatsh&NAOKI;
#TITLETRANSLIT:;
#SUBTITLETRANSLIT:;
#ARTISTTRANSLIT:;
#CREDIT:;
#BANNER:RED ZONE.png;
#BACKGROUND:RED ZONE-bg.png;
#LYRICSPATH:;
#CDTITLE:./CDTitles/BeatmaniaIIDX.png;
#MUSIC:RED ZONE.mp3;
#OFFSET:-0.054;
#SAMPLESTART:24.750;
#SAMPLELENGTH:10.000;
#SELECTABLE:YES;
#DISPLAYBPM:165.000;
#BPMS:0.000=165.000;
#STOPS:;
#BGCHANGES:;

//---------------dance-single - ----------------
#NOTES:
     dance-single:
     :
     Easy:
     6:
     0.411,0.432,0.044,0.044,0.094:
0000
0000
0000
0000
,
0000
0000
0000
0000
,
0000
0000
0000
0000
,
0000
0000
0000
0000
,
0000
0000
2002
3003
,
1000
0010
1000
0010
,
0001
0010
0001
0010
0001
0010
0001
0000
,
0010
0100
0010
0100
,
1000
0000
0000
0010
0000
0000
1000
0000
,
0010
0100
0010
0100
,
0001
1000
0001
1000
,
0001
0000
0000
0010
0000
0000
0100
0000
,
1000
0100
1000
0100
1000
0100
1000
0000
,
1000
0010
1000
0010
,
1000
0001
0010
0100
,
1000
0000
0000
0010
0000
0000
0100
0000
,
0002
0000
0000
0000
2000
0000
0000
3003
,
1000
0000
0100
0000
0010
0001
0000
0000
,
0001
0000
0100
0000
0010
1000
0000
0000
,
0001
0000
1000
0000
0010
1000
0000
0000
,
1000
0010
1000
0000
1000
0001
1000
0000
,
0001
0000
0010
0000
0001
1000
0000
0000
,
1000
0000
0010
0000
1000
0100
0000
0000
,
0010
0000
0001
0000
1000
0100
0000
0000
,
0100
0010
0100
0000
0010
0001
1000
0000
,
0001
1000
0001
1000
,
0001
0010
0001
0000
0001
0100
0001
0000
,
1000
0100
0010
0001
,
1000
0100
1000
0100
1000
0100
1000
0000
,
0010
1000
0001
0100
,
0010
0000
0000
1000
0000
0000
0100
0000
0000
0000
0000
0000
1000
0000
0000
0000
,
1000
0000
0100
0000
0000
0010
0000
0000
0100
0000
0000
1000
0000
0000
0100
0000
,
0000
0010
0000
0000
0001
0000
0000
0000
1000
0000
0000
0001
0000
0000
1000
0000
,
0001
0010
0100
1000
,
0000
0001
0000
0010
0000
0100
0000
1000
,
0001
1000
0001
1000
,
0000
0001
0000
1000
0000
0001
0000
1000
,
0100
0010
0100
0010
,
0000
0100
0000
0010
0000
0100
0000
0010
,
1000
0100
1000
0100
,
0010
0001
0010
0000
0010
0001
0010
0000
,
0001
0000
0100
0000
0001
0000
0000
0100
0000
0010
0000
0000
1000
0000
0000
0000
,
0001
0010
0100
1000
,
0001
0000
0100
0000
0001
0000
0000
1000
0000
0010
0000
0000
1000
0000
0000
0000
,
0100
0010
0001
0000
0001
0010
0100
0000
,
0100
0000
0010
0000
0100
0000
0000
0100
0000
1000
0000
0000
0100
0000
0000
0000
,
0010
0000
0000
0001
0000
0000
0010
0000
0000
0000
0000
0000
0010
0000
0000
0000
,
0011
0000
0000
0010
0000
0000
0100
0000
0000
1000
0000
0000
0001
0000
1000
0000
,
0000
0000
0001
0000
0000
0010
0000
0000
0100
0000
0000
0000
1000
0000
0000
0000
,
1001
0000
0000
0000
,
1000
0100
0010
0001
,
1000
0001
0010
0100
,
1000
0001
0100
0010
,
0100
0010
0100
0000
0100
0010
0100
0000
,
0100
0010
0001
0000
0001
0010
0100
0000
,
0001
0000
1000
0010
1000
0000
0010
1000
,
0010
1000
0100
0010
,
0001
0010
0001
0010
0001
0010
0100
1000
,
0001
0000
0000
0010
0000
0000
0100
0000
0000
0000
0000
0000
0000
0000
0000
0000
,
1000
0000
0000
0100
0000
0000
0010
0000
0000
0000
0000
0000
0000
0000
0000
0000
,
0110
0000
0000
0000
;

//---------------dance-single - ----------------
#NOTES:
     dance-single:
     :
     Medium:
     8:
     0.566,0.608,0.199,0.100,0.227:
0000
0000
0000
0000
,
0000
0000
0000
0000
,
0000
0000
0000
0000
,
0000
0000
0000
0000
,
0000
0000
0000
0000
0000
0000
0000
0000
0000
0000
0000
0000
1000
0000
0000
0100
0000
0000
1000
0000
0000
0000
0100
0000
,
1000
0010
1000
0000
1000
0100
1000
0000
,
0001
0010
0100
1000
0001
0010
0100
1000
,
0001
0020
0030
0020
0030
0020
0030
0020
,
1030
0000
0000
1000
0000
0000
0100
0000
0000
0100
0000
0000
0010
0000
0001
0000
,
0010
0010
0100
0100
,
1000
1000
0001
0001
,
1000
0000
0000
0100
0000
0000
1000
0000
0000
0010
0000
0100
0000
0010
0000
0000
,
1000
0001
1000
0001
1000
0001
1000
0001
,
1000
1000
0100
0100
,
0010
0010
0001
0001
,
1000
0000
0000
0100
0000
0000
1000
0000
0000
0100
0000
0010
0000
0001
0000
0000
,
2000
0000
0000
0000
3001
0010
0100
1000
,
0001
0010
0001
0010
1010
0000
1010
0000
,
1000
0010
1000
0010
0110
0000
0110
0000
,
1000
0100
1000
0010
0110
0000
0011
0000
,
1000
0010
1000
0010
0100
0001
0100
0001
,
0010
0100
1000
0001
0101
0000
0101
0000
,
0010
0001
0010
0100
1100
0000
1100
0000
,
0100
1000
0100
0010
0011
0000
0011
0000
,
1000
0100
0010
0001
1000
0100
0010
0001
,
1000
0000
0100
0000
1000
0000
0000
1000
0000
0010
0000
0000
1000
0000
0100
0000
,
1000
0000
0100
0000
0010
0000
0001
0000
1000
0000
0000
0100
0000
0000
0000
0000
,
0001
0000
0100
0000
0001
0000
0000
0001
0000
0010
0000
0000
0010
0000
0100
0000
,
1000
0100
1000
0100
0010
0001
0010
0001
,
1000
0000
0010
0000
0100
0000
0000
0100
0000
0001
0000
0000
0001
0000
0010
0000
,
0100
0000
0000
1000
0000
0000
0100
0000
0000
0010
0000
0000
0100
0000
0000
0000
,
1000
0000
0100
0000
0000
0010
0000
0000
0001
0000
0000
0001
0000
0000
0100
0000
,
0000
0010
0000
0000
0000
1000
0000
0000
0001
0000
0000
1000
0000
0000
0001
0000
,
0100
0000
0010
0000
0100
0000
0001
0100
,
0000
0001
0100
0001
0000
0001
0100
0001
,
1000
0000
0100
0000
0010
0000
0001
1000
,
0000
0010
1000
0010
0000
0010
1000
0010
,
0100
0000
0001
0000
0010
0000
0100
0010
,
0000
0001
0010
0100
0000
0010
0100
1000
,
0010
0000
0100
0000
0001
0000
1000
0010
,
1000
0100
1000
0100
1000
0100
1000
0100
,
1000
0000
0010
0000
1000
0000
0000
1000
0000
0010
0000
0000
0010
0000
0100
0000
,
0001
0000
0010
0000
0000
0100
0000
0000
1000
0000
0000
0100
0000
0000
0000
0000
,
0010
0000
0100
0000
0010
0000
0000
0010
0000
0001
0000
0000
0001
0000
0010
0000
,
0100
1000
0100
0010
0100
1000
0100
0010
,
0100
0000
1000
0000
0001
0000
0000
1000
0000
0001
0000
0000
1000
0000
0010
0000
,
1000
0000
0000
0100
0000
0000
0010
0000
0000
0001
0000
0000
0010
0000
0000
0000
,
0100
0000
0010
0000
0000
0100
0000
0000
1000
0000
0000
0001
0000
0000
0010
0000
,
0000
0000
0100
0000
0000
1000
0000
0000
0001
0000
0000
0010
0000
0000
0100
0000
,
2002
0000
0000
0000
0000
0000
0000
3003
,
1000
0100
1000
0100
0010
0001
0010
0000
,
0001
0010
0001
0010
0100
1000
0001
0000
,
1000
0010
1000
0010
0100
0001
0100
0000
,
0001
1000
0001
1000
0010
0100
0010
0000
,
1000
0100
1000
0100
0010
0001
0010
0001
,
1000
0000
0001
0010
0100
0000
0100
0010
,
0001
0010
0100
1000
,
0001
0010
0100
1000
,
1001
0000
0000
1000
0000
0000
1100
0000
0000
0000
0001
0000
0000
0000
1000
0000
,
1001
0000
0000
0001
0000
0000
0101
0000
0000
0000
0100
0000
0000
0000
0010
0000
,
0220
0000
0000
0000
,
0330
0000
0000
0000
;

//---------------dance-single - ----------------
#NOTES:
     dance-single:
     :
     Hard:
     10:
     0.756,0.810,0.675,0.066,0.648:
0000
0000
0000
0000
,
0000
0000
0000
0000
,
0000
0000
0000
0000
,
0000
0000
0000
0000
,
0000
0000
0000
0000
0000
0000
0000
0000
0000
0000
0000
0000
1000
0000
0000
0100
0000
0000
0010
0000
0100
0000
0010
0000
,
0100
1000
0100
0000
1000
0001
1000
0000
,
0010
0000
1000
0010
1000
0000
0001
0100
0001
0000
0010
0100
0010
0000
1000
0010
,
1000
0100
0010
0001
1000
0100
0010
0001
,
0000
0000
0000
0000
0000
0000
1010
0000
0000
0000
0000
0000
0000
0000
0000
0000
0000
0000
0000
0000
0000
0000
0000
0000
0000
0000
0000
0000
0000
0000
0000
0000
0000
0000
0000
0000
0000
0000
0000
0000
0000
0000
1100
0000
0000
0000
0000
0000
0000
0000
0000
0000
0000
0000
0000
0000
0000
0000
0000
0000
0000
0000
0000
0000
0000
0000
0000
0000
0000
0000
0000
0000
0000
0000
0000
0000
1000
0000
0000
0000
0000
0000
0000
0000
0000
0000
0000
0000
0000
0000
0000
0000
0000
0000
0000
0000
0000
0000
0000
0000
1100
0000
0000
0000
0000
0000
0000
0000
0000
0000
0000
0000
0000
0000
0000
0000
0000
0000
0000
0000
0000
0000
0000
0000
0000
0000
0000
0000
1010
0000
0000
0000
0000
0000
0000
0000
0000
0000
0000
0000
0000
0000
0000
0000
0000
0000
0000
0000
0000
0000
0000
0000
0000
0000
0000
0000
0000
0000
0000
0000
0100
0000
0000
0000
0000
0000
0000
0000
0000
0000
0000
0000
0000
0000
0000
0000
0001
0000
0000
0000
0000
0000
0000
0000
0000
0000
0000
0000
0000
0000
0000
0000
,
0100
0101
0100
1100
,
0100
0110
0010
0011
,
1000
0001
0000
1000
0001
0000
0100
0000
0000
0001
0000
0010
0000
0100
0000
0000
,
1000
0000
1000
0100
1000
0000
0100
0010
0100
0000
0010
0001
0010
0000
0001
1000
,
0001
0011
0010
0011
,
0001
0101
0100
1100
,
0001
0010
0000
0010
0100
0000
1000
0000
0000
0100
0000
0010
0000
0100
0000
0000
,
2000
0000
0000
0000
0000
0000
3001
0010
0001
0010
0100
1000
,
0100
0000
1000
0000
0100
0000
0100
0000
0010
0001
0000
0011
0000
0000
0000
0010
,
0100
0000
0010
0000
0100
0000
1000
0000
0001
1000
0000
1001
0000
0000
0000
0010
,
1000
0000
0010
0000
0100
0000
0001
0000
0001
0010
0000
1001
0000
0000
0000
0000
,
0001
0000
0001
0010
0001
0000
0100
0010
0100
0000
0010
1000
0010
0000
1000
0100
,
1000
0000
0010
0000
1000
0000
0001
0000
0100
0010
0000
0101
0000
0000
0000
0100
,
0010
0000
0100
0000
0010
0000
0001
0000
0010
0100
0000
1100
0000
0000
0000
0001
,
0010
0000
0001
0000
0010
0000
0100
0000
1000
0010
0000
1010
0000
0000
0000
0000
,
0010
0000
0010
0100
0010
0000
0100
1000
0100
0000
1000
0001
1000
0000
0001
0010
,
0001
0000
0010
0000
0011
0000
0000
0100
1000
0000
1100
0000
0010
1000
0100
0000
,
1000
0000
0100
0000
0000
0010
0000
0000
1000
0000
0000
0110
0000
0000
0000
0000
,
0001
0000
0100
0000
0101
0000
0000
1000
0010
0000
1010
0000
1000
0100
0010
0000
,
1000
0100
0000
0100
0010
0000
0010
0001
0000
0001
0010
0000
0001
0010
0001
0000
,
1000
0000
0010
0000
1010
0000
0000
1000
0001
0000
1001
0000
0001
0100
0001
0000
,
2000
0100
0000
0010
0000
0000
3100
0000
0000
1100
0000
0000
1000
0000
1010
0000
,
0000
0100
0000
0010
0000
0000
1010
0000
0000
0110
0000
0000
0011
0000
0000
0110
,
0000
0000
0000
0000
0000
0000
0000
0000
0000
1100
0000
0000
0000
0000
0000
0000
0000
0000
0110
0000
0000
0000
0000
0000
0100
0000
0000
0000
0010
0000
0000
0000
0100
0000
0000
0000
0010
0000
0000
0000
0100
0000
0000
0000
0010
0000
0000
0000
,
0100
0000
0001
0000
0100
0000
0010
1000
,
0000
0010
0100
0001
0100
0010
0100
0001
,
1000
0000
0100
0000
0010
0000
0001
0100
,
0000
0010
1000
0100
1000
0010
1000
0000
,
1010
0000
1100
0000
0110
0000
0001
0101
,
0000
0001
0010
0001
0100
0001
1000
0001
,
0011
0000
0101
0000
1001
0000
0001
1000
,
0010
0100
0010
0100
0010
0100
0010
0100
,
0010
0000
0100
0000
0110
0000
0000
0100
0001
0100
0000
0100
0010
0100
0000
0000
,
0100
0000
0000
0010
0000
0000
1000
0000
0000
0001
0000
0000
0100
0000
0000
0000
,
0001
0000
0100
0000
0101
0000
0000
1000
0100
0000
1100
0000
0100
1000
0100
0000
,
1000
0010
0000
0010
0100
0000
0100
0001
0000
0001
1000
0000
0001
0000
0010
0000
,
0100
0000
0010
0000
0110
0000
0000
1000
0010
0000
1010
0000
0010
0100
0010
0000
,
1000
0000
0000
0100
0000
0000
0010
0000
0000
0001
0000
0000
0100
0000
0000
0000
,
1000
0000
1100
0000
0000
0110
0000
0000
0011
0000
0000
0110
0000
0000
1100
0000
,
0000
0110
0000
0000
1001
0000
0000
0000
0001
1000
0000
0001
1000
0000
0001
0000
,
2002
0000
0000
0000
0000
0000
0000
3003
,
1000
0000
0100
0000
1000
0000
0010
0000
1000
0000
0001
0010
0100
0000
0000
0000
,
1000
0000
0010
0000
1000
0000
0100
0000
0010
0000
0001
1000
0001
0000
0000
0000
,
1000
0010
0000
0000
0100
0010
0000
0000
1000
0001
0000
0000
0001
0010
0000
0000
,
0010
0100
0000
0000
0100
1000
0000
0000
1000
0010
0000
0000
0010
0100
0000
0000
,
0100
0010
0100
0010
1000
0010
1000
0010
,
1010
0000
0000
0000
0100
1000
0100
1000
0100
0000
0000
0000
0001
1000
0001
1000
,
0001
0010
0001
0100
0001
1000
0001
0100
,
0001
0010
0001
0010
0100
1000
0100
0010
,
0011
0000
0000
0101
0000
0000
0011
0000
0000
0000
1000
0000
0010
0000
1000
0000
,
1100
0000
0000
0110
0000
0000
0011
0000
0000
0000
1000
0000
0001
0000
1000
0000
,
2002
0000
0000
0000
,
3003
0000
0000
0000
;

//---------------dance-double - ----------------
#NOTES:
     dance-double:
     :
     Easy:
     4:
     0.334,0.338,0.177,0.077,0.000:
00000000
00000000
00000000
00000000
,
00000000
00000000
00000000
00000000
,
00000000
00000000
00000000
00000000
,
00000000
00000000
00000000
00000000
,
00000000
00000000
00000000
00000000
,
00100000
10000000
00100000
00010000
,
00001000
00000100
00001000
00010000
,
00001000
01000000
00100000
10000000
,
01000000
00010000
00001000
00011000
,
01000000
00000000
01000000
00000000
,
00100000
10000000
01000000
00010000
,
00001000
00000000
00001000
00000010
,
00000001
00000000
00000100
00000110
,
00000010
00000000
00000010
00000000
,
00000100
00000001
00000010
00001000
,
00010000
00000000
00010000
01000000
,
10000000
00000000
00100000
01100000
,
00100000
10000000
00100000
00000000
,
10000000
00000000
01000000
11000000
,
01000000
00010000
01000000
00000000
,
00010000
00000000
00001000
00011000
,
00000010
00000001
00000010
00000000
,
00000001
00000000
00000100
00000101
,
00000100
00001000
00000100
00000000
,
00001000
00000000
00010000
00011000
,
00100000
10000000
01000000
00100000
,
01000000
00010000
00001000
00011000
,
00000010
00000001
00000100
00000010
,
00000100
00001000
00010000
00011000
,
01000000
10000000
00100000
01000000
,
00100000
00010000
00001000
00011000
,
00000100
00000001
00000010
00000100
,
00000010
00001000
00010000
00011000
,
00200000
00000000
10000000
00000000
,
01000000
10000000
01000000
00300000
,
20000000
00000000
01000000
00000000
,
00010000
01000000
00010000
30000000
,
02000000
00000000
00001000
00000000
,
00010000
00001000
00010000
03000000
,
00002000
00000000
00100000
00000000
,
01000000
00100000
01000000
00003000
,
00100000
10000000
01000000
00100000
,
01000000
00010000
00001000
00011000
,
00000010
00000001
00000100
00000010
,
00000100
00001000
00010000
00011000
,
01000000
10000000
00100000
01000000
,
00100000
00010000
00001000
00011000
,
00000100
00000001
00000010
00000100
,
00000010
00001000
00010000
00011000
,
02000000
00000000
00000000
03000000
,
10000000
10000000
00100000
00100000
,
00010000
00001000
00010000
00000100
,
00000010
00000010
00000001
00000001
,
00000100
00001000
00010000
01000000
,
10000000
00100000
00010000
00100000
,
10000000
01000000
00010000
00001000
,
00000010
00000001
00000010
00001000
,
00010000
01000000
00100000
00001000
,
00010000
00000000
00000000
00010000
00000000
00000000
00010000
00000000
,
00001000
00000000
00000000
00001000
00000000
00000000
00001000
00000000
,
00022000
00000000
00000000
00000000
,
00033000
00000000
00000000
00000000
;

//---------------dance-double - ----------------
#NOTES:
     dance-double:
     :
     Medium:
     6:
     0.443,0.439,0.310,0.089,0.066:
00000000
00000000
00000000
00000000
,
00000000
00000000
00000000
00000000
,
00000000
00000000
00000000
00000000
,
00000000
00000000
00000000
00000000
,
00000000
00000000
00000000
00000000
,
00100000
10000000
01000000
00010000
,
01000000
00010000
00001000
00000010
,
00000001
00000100
00001000
00010000
,
00000000
00001000
00000000
00000000
00010000
00000000
00000000
00001000
00000000
00000000
00000000
00000000
00011000
00000000
00000000
00000000
,
00100000
10000000
00100000
00000000
10000000
00000000
01000000
00000000
,
00100000
00001000
00010000
00000100
,
00001000
00000000
00000000
00000001
00000000
00000000
00000100
00000000
00000000
00000010
00000000
00000000
00001000
00000000
00000000
00000000
,
00000100
00000000
00000000
00000010
00000000
00000000
00000001
00000000
00000000
00001000
00000000
00000000
00000100
00000000
00000000
00000000
,
00000010
00000001
00000010
00000000
00000001
00000000
00000100
00000000
,
00000010
00010000
00001000
01000000
,
00010000
00000000
00000000
10000000
00000000
00000000
01000000
00000000
00000000
00100000
00000000
00000000
00010000
00000000
00000000
00000000
,
01000000
00000000
01000000
00010000
00100000
00000000
00011000
00000000
,
00000010
00001000
00000010
00000001
,
00000100
00001000
00000100
00000000
00001000
00000000
00011000
00000000
,
00100000
00010000
00100000
10000000
,
01000000
00010000
01000000
00000000
00010000
00000000
00011000
00000000
,
00000010
00001000
00000010
00000001
,
00000100
00001000
00000100
00000000
00001000
00000000
00011000
00000000
,
00100000
00010000
00100000
10000000
,
01000000
00010000
01000000
00000000
00010000
00000000
00011000
00000000
,
00000010
00000100
00000010
00000000
00000001
00000000
00000101
00000000
,
00001000
00010000
00100000
10000000
,
01000000
00100000
01000000
00000000
10000000
00000000
00110000
00000000
,
00001000
00000000
00000000
00001000
00000000
00000000
00000100
00000000
00000000
00000100
00000000
00000000
00000110
00000000
00000000
00000000
,
00000001
00000100
00000001
00000000
00001000
00000000
00010100
00000000
,
00001000
00010000
01000000
00100000
,
10000000
01000000
10000000
00000000
00010000
00000000
01001000
00000000
,
00010000
00000010
00001000
00000000
00000100
00000000
00000011
00000000
,
00001200
00000000
00010000
00000000
,
00001000
00010000
00001000
00010300
,
00102000
00000000
01000000
00000000
,
00100000
01000000
00100000
01003000
,
10020000
00000000
01000000
00000000
,
10000000
01000000
10000000
01030000
,
10200000
00000000
01000000
00000000
,
10000000
01000000
10000000
01300000
,
00100000
01000000
00100000
00000000
10000000
00000000
11000000
00000000
,
00010000
00001000
00000010
00000001
,
00000100
00000010
00000100
00000000
00000001
00000000
00001010
00000000
,
00010000
00000000
00000000
00010000
00000000
00000000
01000000
00000000
00000000
01000000
00000000
00000000
01100000
00000000
00000000
00000000
,
10000000
01000000
10000000
00000000
00010000
00000000
01001000
00000000
,
00010000
00001000
00000100
00000010
,
00000001
00000100
00000001
00000000
00001000
00000000
00010100
00000000
,
00001000
00100000
00010000
00000000
01000000
00000000
10100000
00000000
,
02200000
00000000
00000000
03300000
,
00100000
10000000
00100000
00000000
10000000
01000000
10000000
00000000
,
01000000
00010000
01000000
00000000
00010000
00000000
00011000
00000000
,
00000010
00000001
00000010
00000000
00000001
00000100
00000001
00000000
,
00000100
00001000
00000100
00000000
00001000
00000000
00011000
00000000
,
01000000
10000000
01000000
00000000
10000000
00100000
10000000
00000000
,
00100000
00010000
00001000
00000000
00010000
00000000
00011000
00000000
,
00000100
00000001
00000100
00000000
00000001
00000010
00000001
00000000
,
00000010
00001000
00010000
00000000
00001000
00000000
00011000
00000000
,
00100000
00000000
00000000
10000000
00000000
00010000
01000000
00000000
,
00001000
00000000
00000000
00010000
00000000
00000100
00000010
00000000
,
00002002
00000000
00000000
00000000
,
00003003
00000000
00000000
00000000
;

//---------------dance-double - ----------------
#NOTES:
     dance-double:
     :
     Hard:
     9:
     0.585,0.574,0.299,0.089,0.050:
00000000
00000000
00000000
00000000
,
00000000
00000000
00000000
00000000
,
00000000
00000000
00000000
00000000
,
00000000
00000000
00000000
00000000
,
00000000
00000000
00000000
00000000
,
00100000
10000000
00100000
00000000
10000000
01000000
10000000
00000000
,
01000000
00100000
00001000
00010000
00000100
00000000
00000110
00000000
,
00000010
00000001
00000010
00000000
00000001
00000100
00000001
00000000
,
00000000
00000100
00000000
00000000
00000100
00000000
00000000
00000010
00000000
00000000
00000010
00000000
00010000
00000000
00001000
00000000
,
01000000
00100000
01000000
00000000
00100000
10000000
00100000
00000000
,
10000000
01000000
00010000
01000000
00100000
00000000
00101000
00000000
,
00010000
00000000
00000000
00010000
00000000
00000000
00001000
00000000
00000000
00001000
00000000
00000000
00010000
00000000
00000010
00000000
,
00000000
00000100
00000000
00000000
00000100
00000000
00000000
00000010
00000000
00000000
00000010
00000000
00001000
00000000
00000001
00000000
,
00000100
00000010
00000100
00000000
00000010
00001000
00000010
00000000
,
00001000
00000010
00000001
00000010
00000100
00000000
00001100
00000000
,
00010000
00000000
00000000
00010000
00000000
00000000
00001000
00000000
00000000
00000000
00001000
00000000
00000000
00000000
00100000
00000000
,
01000000
00000000
01000000
10000000
00100000
00000000
01100000
00000000
,
01000000
00010000
01000000
00000000
01000000
00100000
01000000
00000000
,
00100000
00010000
00001000
00010000
00000100
00000000
00000110
00000000
,
00000100
00001000
00000100
00000000
00000100
00000010
00000100
00000000
,
00000010
00001000
00010000
00001000
01000000
00000000
01100000
00000000
,
00100000
10000000
00100000
00000000
01000000
00010000
01000000
00000000
,
00001000
00010000
00000100
00000010
00000001
00001000
00001100
00000000
,
00000010
00000001
00000010
00000000
00000100
00001000
00000100
00000000
,
00010000
00001000
01000000
00100000
10000000
00010000
01010000
00000000
,
00100000
01000000
00100000
00000000
10000000
00000000
11000000
00000000
,
00010000
00001000
00010000
00000010
00000100
00000000
00000101
00000000
,
00000010
00000100
00000010
00000000
00000001
00000000
00000101
00000000
,
00001000
00010000
00001000
00100000
01000000
00000000
11000000
00000000
,
00100000
01000000
00100000
00010000
10000000
00000000
11000000
00000000
,
00010000
00001000
00010000
00000010
00000100
00000000
00000101
00000000
,
00000010
00000100
00000010
00001000
00000001
00000000
00000101
00000000
,
00001000
00010000
00001000
00100000
01000000
00000000
11000000
00000000
,
20000000
00000000
01000000
00000000
00010000
00000000
31000000
00010000
,
00000000
00001000
01000000
00100000
00010000
00001000
00000100
00000010
,
00002000
00000000
00000100
00000000
00000001
00000000
00003100
00000001
,
00000000
00000100
00000010
00000001
00000100
00000010
00000000
00000000
,
00000002
00000000
00000010
00000000
00001000
00000000
00000013
00001000
,
00000000
00000100
00010000
00001000
00100000
01000000
10000000
00100000
,
00020000
00000000
00100000
00000000
10000000
00000000
00130000
10000000
,
00000000
00100000
01000000
00010000
00100000
01000000
01010000
00000000
,
00100000
01000000
00100000
00000000
10000000
00000000
11000000
00000000
,
00010000
00001000
00010000
00000010
00000100
00000000
00000101
00000000
,
00000010
00000100
00000010
00000000
00000001
00000000
00000101
00000000
,
00001000
00010000
00001000
00100000
01000000
00000000
11000000
00000000
,
00100000
01000000
00100000
00010000
10000000
00000000
11000000
00000000
,
00010000
00001000
00010000
00000010
00000100
00000000
00000101
00000000
,
00000010
00000100
00000010
00001000
00000001
00000000
00000101
00000000
,
00001000
00010000
00001000
00100000
01000000
00000000
11000000
00000000
,
20020000
00000000
00000000
30030000
,
00100000
01000000
00010000
01000000
10000000
01000000
00010000
00001000
,
00000100
00000010
00000100
00000001
00000100
00001000
00010000
00100000
,
10000000
00010000
10000000
00100000
10000000
01000000
00010000
00001000
,
00000100
00000010
00001000
00000100
00000010
00000001
00000100
00001000
,
00010000
01000000
00010000
00001000
00010000
01000000
00010000
00001000
,
00000100
00000001
00000100
00000010
00000100
00000001
00000100
00000010
,
00010000
00001000
01000000
00001000
00010000
00001000
01000000
00001000
,
00100000
01000000
00010000
01000000
00100000
01000000
00010000
00001000
,
00000100
00000000
00000000
00000100
00000000
00000000
00000010
00000000
00000000
00000000
00000010
00000000
00010000
00000000
00001000
00000000
,
01000000
00000000
00000000
01000000
00000000
00000000
00100000
00000000
00000000
00000000
00100000
00000000
00010000
00000000
00001000
00000000
,
00022000
00000000
00000000
00000000
,
00033000
00000000
00000000
00000000
;
