#TITLE:Proof of the existence;
#SUBTITLE:;
#ARTIST:猫叉Master+;
#TITLETRANSLIT:;
#SUBTITLETRANSLIT:;
#ARTISTTRANSLIT:Nekomata Master+;
#GENRE:;
#CREDIT:Silverhawke;
#MENUCOLOR:;
#METERTYPE:DDR;
#BANNER:[jubeat] - Proof of the existence.png;
#BACKGROUND:[jubeat] - Proof of the existence-bg.png;
#LYRICSPATH:;
#CDTITLE:cdtitle.png;
#MUSIC:[jubeat] - Proof of the existence.mp3;
#OFFSET:-0.028;
#SAMPLESTART:90.379;
#SAMPLELENGTH:15.000;
#SELECTABLE:YES;
#LISTSORT:;
#BPMS:0.000=170.000;
#STOPS:;
#BGCHANGES:;
#ATTACKS:;

//---------------dance-single - ----------------
#NOTES:
     dance-single:
     :
     Hard:
     10:
     0.693,0.822,0.423,0.154,0.435:
0000
0000
0000
0000
,
0000
0000
0000
0000
,
0000
0000
0000
0000
,
0000
0000
0000
0000
,
0000
0000
0000
0000
,
0000
0000
0000
0000
,
0000
0000
0000
0000
,
0000
0000
0000
0000
,
0010
0000
0100
0000
0000
0000
0100
0000
0000
0000
0100
0000
0000
0000
0100
1000
,
0001
0000
0100
0000
0000
0000
0100
0000
0000
0000
0100
0000
0000
0000
0100
0010
,
1000
0000
0100
0000
0000
0000
0100
0000
0000
0000
0100
0000
0000
0000
0100
0010
,
0001
0000
1000
0000
0000
0000
1000
0000
0000
0000
1000
0010
0000
0000
1000
0010
,
0100
0000
0001
0000
0000
0000
0001
0000
0000
0000
0001
0000
0000
0000
0001
0010
,
0100
0000
1000
0000
0000
0000
1000
0000
0000
0000
1000
0000
0000
0000
1000
0010
,
0100
0000
0001
0000
0000
0000
0001
0000
0000
0000
0001
0000
0000
0000
0001
0010
,
0100
0000
0000
0000
0000
0000
2002
3003
,
0010
1000
0100
1000
0010
0100
0001
0001
,
0010
0001
0100
0001
0010
0100
1000
1000
,
0010
0100
0001
0100
0010
1000
0001
0001
,
0010
0100
1000
0100
0010
0001
1000
1000
,
0010
0100
0001
0010
0100
1000
0010
0010
,
0100
0010
1000
0100
0010
0001
0100
0100
,
0001
0010
1000
0010
0100
1000
0001
0001
,
1000
0010
0001
0010
0100
2002
0000
3003
,
0110
0100
0001
0000
0010
0100
1000
0010
,
1010
0000
1000
0000
0100
0000
0000
0000
0010
0000
0001
0000
1000
0001
0010
0000
,
0011
0001
0100
0000
0010
1000
0010
0100
,
0110
0000
0010
0000
1000
0000
0100
0000
0001
0000
0100
0000
1000
0001
0100
0000
,
0110
0010
1000
0000
0001
0010
0100
1000
,
1001
0000
0001
0000
0100
0000
0010
1000
0010
0000
0100
0000
0001
0000
0010
0000
,
0110
0100
1000
0000
0010
0100
0001
0010
,
0110
0000
0100
0000
1000
0000
0001
0000
0100
0000
0010
0100
0001
1000
0001
1000
,
0100
0010
0001
0000
1000
0010
0001
0010
,
0110
0000
0100
0000
0001
0000
0000
0000
0010
0000
1000
0000
0010
0001
1000
0000
,
1010
0010
0100
0000
0001
0010
1000
0010
,
0110
0000
0100
0000
1000
0000
0001
0000
0100
0000
0010
0000
1000
0100
0010
0000
,
0011
0001
1000
0000
0010
0100
0001
0010
,
0110
0000
0100
0000
1000
0000
0010
0100
0010
0000
1000
0000
0100
0000
0010
0000
,
0011
0001
1000
0000
0010
0001
0010
0100
,
0101
0001
0010
1000
0010
0100
1000
0010
,
1010
0000
1000
0000
0001
0010
0001
0000
0100
0000
0010
0000
,
1010
0000
0000
0000
0000
0000
0001
0000
0010
0000
0100
0000
,
1100
0000
1000
0000
0010
0100
0010
0000
0100
0000
0001
0000
,
0011
0000
0000
0000
0000
0000
0000
0000
0000
1000
0100
0010
,
0001
0000
0010
0000
0011
0000
1000
0000
0010
0000
1010
0000
,
1001
0000
0001
0000
1010
0000
0001
0000
1000
0000
0011
0000
,
1100
0000
1000
0000
0010
0100
0010
0000
0100
0000
0001
0000
,
1001
0000
1000
0000
0010
0000
0110
0000
0110
0000
0110
0000
,
0110
0000
0100
0000
0001
0000
1000
0100
0010
0000
0100
0000
1000
0000
0010
0000
,
0100
0000
0001
0000
0010
0000
0100
0010
0001
0000
1000
0000
0010
0000
0100
0000
,
0001
0000
0100
0000
0010
0000
1000
0100
0010
0000
0100
0000
1000
0000
0001
0000
,
0010
0000
0100
0000
1000
0000
0010
0100
0001
0000
0010
0000
0001
0000
0100
0000
,
0010
0000
1000
0000
0001
0000
0010
0100
1000
0001
0000
0001
0010
0000
0100
0000
,
1000
0000
0010
0000
0100
0000
0001
1000
0010
0100
0000
0100
0001
0000
1000
0000
,
0100
0000
0010
0000
0100
0000
1000
0010
0100
0001
0000
0001
1000
0000
0100
0000
,
0010
0000
0100
0000
1000
0000
0010
0100
0001
1000
0000
1000
0100
0010
0001
0100
,
0020
0000
1000
0030
,
2100
0000
0001
3000
,
0102
0000
0010
0003
,
2100
0000
0010
3000
,
0201
0000
1000
0300
,
0021
0000
1000
0030
,
0102
0000
1000
0003
,
1100
0000
1010
0000
0011
0000
0101
0000
0011
0000
1010
0000
,
1100
0000
0100
0000
0010
0000
0001
1000
0010
0000
0100
0000
0001
0000
1000
0000
,
0010
0000
0100
0000
0010
0000
1000
0100
0010
0000
0001
0000
0010
0000
0100
1000
,
0001
0000
0100
0000
0010
0000
1000
0001
0010
0000
0100
0000
1000
0000
0010
0000
,
0100
0000
0001
0000
0100
0000
0010
1000
0001
0000
0010
0000
0100
0000
0010
0001
,
1000
0000
0010
0000
0100
0000
0001
0010
0100
0000
0010
0000
0001
0000
1000
0000
,
0010
0000
0100
0010
0100
0000
0010
1000
0010
0000
1000
0001
1000
0000
0001
0010
,
0001
0000
0010
0000
0100
0000
1000
0001
0100
0000
0010
0000
1000
0000
0001
0000
,
0010
0000
0100
0000
1000
0000
0001
0100
0010
0000
1000
0001
0010
0000
0100
0000
,
1000
0000
0010
0000
1000
0000
0100
0010
0001
1000
0000
1000
0010
0000
0100
0000
,
0001
0000
0010
0000
0001
0000
0100
0010
1000
0100
0000
0100
0010
0000
0001
0000
,
0100
0000
0001
0000
0010
0000
0100
1000
0001
0100
0000
0100
0010
0000
1000
0000
,
0001
0000
0010
0000
0001
0000
0100
0010
1000
0100
0000
0100
1000
0000
0010
0100
,
0001
0000
1000
0000
0100
0000
0010
0001
1000
0010
0000
0010
1000
0000
0001
0010
,
0100
0000
1000
0000
0010
0000
1000
0100
0010
0001
0000
0001
0100
0000
0010
1000
,
0100
0000
0000
0000
0101
0000
0000
0000
1001
0000
0000
0000
0001
0000
0000
1000
0000
0000
0010
0000
0000
0100
0000
0000
,
0010
0000
0000
1000
0000
0000
0010
0000
0000
1000
0000
0000
0010
0000
0000
0000
0000
0000
0100
0000
0000
0000
0000
0000
0001
0000
0000
0010
0000
0000
0001
0000
0000
0010
0000
0000
0100
0000
0000
0000
1000
0000
0000
0000
0001
0000
0000
0000
,
0210
0000
1000
0300
,
0210
0000
0001
0300
,
0012
0000
0100
0003
,
2010
0000
0100
3000
,
0021
0000
1000
0030
,
1200
0000
0001
0300
,
0120
0000
0001
0030
,
2002
0000
0000
0000
,
0000
0000
0000
0000
,
3003
0000
0000
0000
;

//---------------dance-single - ----------------
#NOTES:
     dance-single:
     :
     Medium:
     8:
     0.491,0.685,0.215,0.185,0.258:
0000
0000
0000
0000
,
0000
0000
0000
0000
,
0000
0000
0000
0000
,
0000
0000
0000
0000
,
0000
0000
0000
0000
,
0000
0000
0000
0000
,
0000
0000
0000
0000
,
0000
0000
0000
0000
,
0010
0000
0000
0010
0100
0000
0000
0000
,
0010
0000
0000
0010
0000
0000
0100
0000
0100
0000
0000
0000
,
1000
0000
0000
1000
0001
0000
0000
0000
,
1000
0000
0000
1000
0000
0000
0001
0000
0001
0000
0000
0000
,
0010
0000
0010
0000
0000
0000
0100
0000
0100
0000
0000
0000
,
1000
0000
1000
0000
0000
0000
0001
0000
0001
0000
0000
0000
,
0100
0000
0100
0000
0000
0000
0010
0000
0010
0000
0000
0000
,
1001
0000
0000
0000
0000
0000
0220
0330
,
1000
0100
0010
0000
0010
0100
1000
0000
,
0001
0100
0010
0000
0010
0100
0001
0000
,
1000
0100
0010
0000
0010
0001
0100
0000
,
0001
0100
0010
0000
0010
1000
0100
0000
,
1000
0100
0001
0000
0001
0100
1000
0000
,
0001
0100
1000
0000
1000
0100
0001
0000
,
1000
0010
0100
0010
1000
0100
0010
0000
,
0001
0010
0100
1000
0001
2002
0000
3003
,
1000
0000
0110
0000
0001
0100
0010
0000
,
1000
0000
0101
0000
0010
0100
0001
0001
,
0010
0000
1100
0000
0001
0100
0010
0000
,
1000
0100
0010
0000
0010
0100
1000
0000
,
0001
0000
0110
0000
1000
0010
0100
0000
,
0001
0000
1100
0100
0010
0001
0010
0000
,
0001
0000
1000
0100
0000
0100
0001
0100
,
0000
0100
0010
0100
0000
0100
1000
1000
,
0001
0000
0110
0000
1000
0100
0010
0000
,
0001
0000
1100
0000
0010
0100
0001
0001
,
1000
0000
1100
0000
0010
0100
1000
0000
,
0001
0100
0010
1000
0100
0010
0001
0000
,
1000
0000
0110
0000
0001
0100
0010
0000
,
1000
0000
0101
0001
1000
0100
0010
0000
,
0001
0000
1000
0010
0000
0010
0001
0010
,
0000
0010
0100
0010
0000
0010
1000
0100
,
0010
0000
0001
0000
0010
0000
0001
0000
0100
0000
0001
0000
,
0200
0000
0000
0300
0000
0000
0010
0000
1000
0000
0010
0000
,
1000
0000
0100
0000
1000
0000
0100
0000
0010
0000
0100
0000
,
0020
0030
0000
0001
,
1000
0000
0100
0000
0100
0000
0010
0000
0001
0000
0001
0000
,
2000
0000
0000
3000
0000
0000
0001
0000
0100
0000
0100
0000
,
0010
0000
1000
0000
1000
0000
0100
0000
0010
0000
0010
0000
,
0001
0000
0000
0000
0000
0000
0100
0000
0100
0000
0110
0000
,
1000
0000
0100
0000
0010
0000
0100
0000
1000
0000
0010
0000
,
0100
0000
0001
0000
0100
0000
0001
0000
0010
0000
0100
0000
,
1000
0000
0010
0000
1000
0000
0100
0000
0010
0000
0001
0000
,
1000
0000
0000
0100
0000
0000
0001
0000
0000
0100
1000
0100
,
1000
0000
0010
0000
0100
0000
0001
0000
1000
0000
0100
0000
,
0010
0000
0001
0000
0010
0000
0001
0000
0100
0000
0010
0000
,
1000
0000
0100
0000
0010
0000
0100
0000
1000
0000
0010
0000
,
0200
0000
0000
0000
1000
0000
0000
0000
0310
0000
0000
0010
1000
0000
0001
0000
,
1002
0000
0103
0000
,
2001
0000
3100
0000
,
1002
0000
0013
0000
,
2001
0000
3010
0000
,
0012
0000
0103
0000
,
2010
0000
3100
0000
,
0102
0000
0013
0000
,
0100
0000
1000
0000
0001
0000
0100
0000
0010
0000
0110
0000
,
1000
0100
0010
0000
0010
0100
1000
0000
,
0010
0100
0001
0010
0100
0000
1001
0000
,
1000
0100
0010
0000
0010
0001
0100
0000
,
0001
0100
1000
0100
0001
0010
0100
0000
,
1000
0100
0010
0000
0010
0100
1000
0000
,
0001
0100
0001
0100
1000
0100
1000
0100
,
0010
1000
0100
0001
,
0010
0000
0001
0000
0100
1000
0010
0010
,
0100
0001
0010
0000
0010
0100
1000
0000
,
0001
0100
1000
0100
0010
0000
1001
0000
,
1000
0100
0010
0000
0010
0100
0001
0000
,
0100
1000
0010
0100
0001
1000
0001
0000
,
1100
0000
0010
0001
0100
0010
1000
0100
,
0110
0000
0010
0001
0100
0001
0010
0100
,
1000
0000
0000
0000
0100
0000
0000
0000
1100
0000
0000
0000
0001
0000
0000
1000
0000
0000
0001
0000
0000
1000
0000
0000
,
0010
0000
0000
0100
0000
0000
0010
0000
0000
0000
0000
0000
1000
0000
0000
0000
0000
0000
0001
0000
0000
0000
0000
0000
0010
0000
0000
0100
0000
0000
0010
0000
0000
0000
0000
0000
0001
0000
0000
0000
1000
0000
0000
0000
0001
0000
0000
0000
,
2000
0000
3100
0000
,
0200
0000
0301
0000
,
0002
0000
0013
0000
,
0020
0000
1030
0000
,
2000
0000
3010
0000
,
0020
0000
0031
0000
,
0002
0000
0103
0000
,
2002
0000
0000
0000
,
0000
0000
0000
0000
,
3003
0000
0000
0000
;

//---------------dance-single - ----------------
#NOTES:
     dance-single:
     :
     Easy:
     7:
     0.432,0.514,0.054,0.500,0.108:
0000
0000
0000
0000
,
0000
0000
0000
0000
,
0000
0000
0000
0000
,
0000
0000
0000
0000
,
0000
0000
0000
0000
,
0000
0000
0000
0000
,
0000
0000
0000
0000
,
0000
0000
0000
0000
,
1000
0000
0001
0000
,
0100
0000
0000
0010
0000
0000
0220
0000
0330
0000
0000
0000
,
0001
0000
1000
0000
,
0100
0000
0000
0010
0000
0000
0220
0000
0330
0000
0000
0000
,
2000
0000
3000
0000
0000
0000
0200
0000
0300
0000
0000
0000
,
0020
0000
0030
0000
0000
0000
0002
0000
0003
0000
0000
0000
,
1000
0100
0010
0001
,
1000
0000
0000
0000
0000
0000
0020
0030
,
1000
0000
0100
0000
0010
0100
1000
0000
,
0001
0000
0100
0000
0010
0100
0001
0000
,
1000
0000
0010
0000
0100
0010
1000
0000
,
0001
0000
0010
0000
0100
0010
0001
0000
,
1000
0000
0100
0000
0010
0001
0100
0000
,
0001
0000
0100
0000
0010
1000
0100
0000
,
1000
0010
1000
0000
1000
0100
1000
0000
,
0001
0010
0001
0000
0001
0200
0000
0300
,
0010
0000
0110
0000
0100
0001
1000
0000
,
0001
0000
0011
0000
0010
0100
1000
0000
,
0010
0000
0110
0000
0100
0001
1000
0000
,
0100
0000
1000
0010
0100
0010
1000
0000
,
0001
0000
0011
0000
0010
0100
1000
0000
,
0010
0000
0100
0001
1000
0001
0100
0000
,
0010
0000
1010
0000
1000
0100
0010
0000
,
0001
0000
1000
0000
0010
0100
0200
0300
,
0001
0000
0001
0000
0001
0100
0010
0000
,
1000
0000
1000
0000
1000
0100
0010
0000
,
0001
0000
0001
0000
0001
0010
0100
0000
,
1000
0000
0010
0100
0001
0100
0010
0000
,
1000
0100
0010
0000
0001
0000
0100
0000
,
0010
0100
0001
0000
1000
0100
0010
0000
,
0001
0100
0001
0000
1000
0100
1000
0000
,
0010
0000
0100
0000
0001
1000
0001
0000
,
0010
0000
0010
0000
0010
0000
0001
0000
0001
0000
0001
0000
,
2000
0000
0000
3000
0000
0000
0010
0000
0010
0000
0010
0000
,
0100
0000
0100
0000
0100
0000
0001
0000
0001
0000
0001
0000
,
2000
3000
0002
0003
,
1000
0000
1000
0000
1000
0000
0010
0000
0010
0000
0010
0000
,
0200
0000
0000
0300
0000
0000
0001
0000
0001
0000
0001
0000
,
0010
0000
0010
0000
0010
0000
0100
0000
0100
0000
0100
0000
,
2000
0000
0000
3000
0000
0000
0001
0000
1000
0000
0001
0000
,
1000
0000
0010
0000
0100
0010
0100
0000
,
0001
1000
0100
0100
,
0010
0000
0001
0000
0100
0001
0100
0000
,
0010
1000
0100
0100
,
1000
0000
0001
0000
0100
0010
0100
0000
,
0001
1000
0100
0010
,
0100
0000
1000
0000
0001
0100
0010
0000
,
1000
0000
0100
0000
0010
0100
0010
0100
,
2000
0000
3100
0000
,
0002
0000
0103
0000
,
2000
0000
3010
0000
,
0002
0000
0013
0000
,
0200
0000
1300
0000
,
0020
0000
0031
0000
,
0200
0000
0310
0000
,
1000
0000
0001
0000
1000
0000
0001
0000
0100
0000
0010
0000
,
2000
3100
0002
0103
,
2000
3100
0020
0032
,
2003
3010
0002
0013
,
2000
3100
0020
0032
,
0203
0301
0020
1030
,
0002
0023
0230
2300
,
3002
0103
0020
1030
,
0010
0000
0100
0000
0001
1000
0001
1000
,
0002
0103
2000
3100
,
0002
0103
0020
2030
,
3002
0013
2000
3010
,
0002
0103
0020
2030
,
3200
1300
0020
0031
,
2000
3020
0230
0302
,
1003
0000
0000
0000
1000
0000
0000
0000
1000
0000
0000
0000
1000
0000
0000
0001
0000
0000
0100
0000
0000
0000
0000
0000
,
0001
1000
0100
0000
1000
0001
1000
0001
,
0200
0000
0000
0300
,
0020
0000
0000
0030
,
2000
0000
0000
3000
,
0200
0000
0000
0300
,
0020
0000
0000
0030
,
0002
0000
0000
0003
,
0200
0000
0000
0300
,
0020
0000
0000
0000
,
0000
0000
0000
0000
,
0030
0000
0000
0000
;

//---------------dance-single - ----------------
#NOTES:
     dance-single:
     :
     Beginner:
     1:
     0.109,0.137,0.000,0.008,0.000:
0000
0000
0000
0000
,
0000
0000
0000
0000
,
0000
0000
0000
0000
,
0000
0000
0000
0000
,
0000
0000
0000
0000
,
0000
0000
0000
0000
,
0000
0000
0000
0000
,
0000
0000
0000
0000
,
1000
0000
0000
0000
,
0001
0000
0000
0000
,
1000
0000
0000
0000
,
0001
0000
0000
0000
,
0100
0000
0000
0000
,
0010
0000
0000
0000
,
0100
0000
0000
0000
,
0010
0000
0000
0000
,
1000
0000
0000
0000
,
1000
0000
0000
0000
,
1000
0000
1000
0000
,
1000
0000
0000
0000
,
0001
0000
0000
0000
,
0001
0000
0000
0000
,
0001
0000
0001
0000
,
0001
0000
0000
0000
,
1000
0000
0000
0000
,
1000
0000
0000
0000
,
0100
0000
0000
0000
,
0100
0000
0000
0000
,
0001
0000
0000
0000
,
0100
0000
0000
0000
,
1000
0000
0000
0000
,
0001
0000
0001
0000
,
0001
0000
0000
0000
,
0100
0000
0000
0000
,
0010
0000
0000
0000
,
0100
0000
0100
0000
,
0100
0000
0000
0000
,
0001
0000
0000
0000
,
1000
0000
0000
0000
,
0100
0000
0100
0000
,
0100
0000
0000
0000
,
1000
0000
0000
0000
,
0001
0000
0000
0000
,
1000
0000
0000
0000
,
1000
0000
0000
0000
,
0001
0000
0000
0000
,
0100
0000
0000
0000
,
0010
0000
0000
0000
,
0100
0000
0100
0000
,
0100
0000
0000
0000
,
0001
0000
0001
0000
,
0001
0000
0000
0000
,
1000
0000
1000
0000
,
1000
0000
0000
0000
,
0100
0000
0100
0000
,
0100
0000
0000
0000
,
0010
0000
0000
0000
,
0001
0000
0000
0000
,
0100
0000
0000
0000
,
1000
0000
0000
0000
,
0010
0000
0000
0000
,
1000
0000
0000
0000
,
0100
0000
0000
0000
,
0001
0000
0001
0000
,
0001
0000
0000
0000
,
1000
0000
1000
0000
,
1000
0000
0000
0000
,
0100
0000
0100
0000
,
0100
0000
0000
0000
,
0010
0000
0010
0000
,
0010
0000
0000
0000
,
0001
0000
0001
0000
,
0001
0000
0000
0000
,
1000
0000
1000
0000
,
1000
0000
0000
0000
,
0010
0000
0010
0000
,
0010
0000
0000
0000
,
0100
0000
0100
0000
,
0100
0000
0100
0000
,
0100
0000
0000
0000
,
0001
0000
0000
0000
,
0010
0000
0000
0000
,
1000
0000
0000
0000
,
0100
0000
0000
0000
,
0001
0000
0000
0000
,
0100
0000
0000
0000
,
1000
0000
0000
0000
,
0020
0000
0000
0000
,
0000
0000
0000
0000
,
0030
0000
0000
0000
;

//---------------dance-double - ----------------
#NOTES:
     dance-double:
     :
     Hard:
     9:
     0.618,0.822,0.200,0.223,0.335: // measure 1
00000000
00000000
00000000
00000000
,  // measure 2
00000000
00000000
00000000
00000000
,  // measure 3
00000000
00000000
00000000
00000000
,  // measure 4
00000000
00000000
00000000
00000000
,  // measure 5
00000000
00000000
00000000
00000000
,  // measure 6
00000000
00000000
00000000
00000000
,  // measure 7
00000000
00000000
00000000
00000000
,  // measure 8
00000000
00000000
00000000
00000000
,  // measure 9
00000002
00000100
00000000
00000100
00000000
00000100
00000000
00000103
,  // measure 10
00000010
00001000
00000000
00001000
00000000
00001000
00000000
00001000
,  // measure 11
00000200
00010000
00000000
00010000
00000000
00010000
00000000
00010300
,  // measure 12
01000000
00100000
00000000
00100000
00000000
00100000
00000000
00100000
,  // measure 13
00002000
00000100
00000000
00000100
00000000
00000100
00000000
00003100
,  // measure 14
00000020
00010000
00000000
00010000
00000000
00010000
00000000
00010030
,  // measure 15
02000000
10000000
00000000
10000000
00000000
10000000
00000000
13000000
,  // measure 16
00100000
00000000
00000000
01000000
00000000
00000000
20020000
30030000
,  // measure 17
10000000
01000000
00010000
01000000
10000000
01000000
00010000
00010000
,  // measure 18
00000100
00010000
00001000
00010000
00000100
00010000
00001000
00001000
,  // measure 19
01000000
00010000
00100000
00010000
01000000
00010000
00100000
00100000
,  // measure 20
00001000
00000100
00000010
00000100
00001000
00000100
00000010
00000010
,  // measure 21
00001000
00000100
00000010
00000001
00000100
00000010
00010000
00010000
,  // measure 22
00001000
01000000
00100000
10000000
01000000
00100000
00001000
00001000
,  // measure 23
00010000
01000000
10000000
00100000
01000000
00001000
00010000
00010000
,  // measure 24
00000100
00000010
00000001
00000100
00000010
00002002
00000000
00003003
,  // measure 25
00001001
00000000
00000101
00000000
00000010
00001000
00000100
00001000
,  // measure 26
00000010
00000000
00000000
00000000
00011000
00000000
00000000
00000000
01000000
00000000
00010000
00000000
00100000
01000000
00100000
00000000
,  // measure 27
00010000
00000000
11000000
00000000
00100000
00001000
00010000
00000100
,  // measure 28
00001000
00000000
00000000
00000000
00000010
00000000
00000100
00000000
00000001
00000000
00000010
00000000
00000100
00001000
00000100
00000000
,  // measure 29
00010000
00000000
01001000
00000000
01000000
00100000
10000000
00010000
,  // measure 30
00100000
00000000
00000000
00000000
01000000
00000000
10000000
00010000
10000000
00000000
01000000
00000000
00010000
00000000
00001000
00000000
,  // measure 31
00000010
00000000
00000011
00000000
00000001
00000100
00000010
00000100
,  // measure 32
00000000
00000000
00000100
00000000
00001000
00000000
00000100
00000000
00000000
00000000
00000100
00000001
00001000
00000001
00001000
00000001
,  // measure 33
00000010
00000000
00001100
00000000
00010000
00001000
01000000
00100000
,  // measure 34
10000000
00000000
00000000
00000000
11000000
00000000
00000000
00000000
00100000
00000000
00010000
00000000
01000000
00001000
01000000
00000000
,  // measure 35
00010000
00000000
00101000
00000000
00100000
00001000
00010000
00000100
,  // measure 36
00000010
00000000
00000000
00000000
00000100
00000000
00001000
00000000
00000010
00000000
00000100
00000000
00000001
00001000
00000001
00000000
,  // measure 37
00000010
00000000
00001100
00000000
00010000
00001000
01000000
00100000
,  // measure 38
10000000
00000000
00000000
00000000
00010000
00000000
01000000
00001000
01000000
00000000
00001000
00000000
00010000
00000000
00000010
00000000
,  // measure 39
00000100
00000000
00000101
00000000
00000010
00001000
00000100
00001000
,  // measure 40
00000000
00001000
00010000
00001000
00000000
00001000
00000010
00010000
,  // measure 41
00001000
00000000
00000000
00000000
00000000
00000000
00000000
00000000
00000000
00000000
00000000
00000000
00000000
00000000
00000000
00000000
00000000
00000000
00000000
00000000
00000000
00000000
00000000
00000000
00000000
00000000
00000000
00000000
00000000
00000000
00000000
00000000
01000000
00000000
00000000
00000000
00000000
00000000
00000000
00000000
00000000
00000000
00000000
00000000
00000000
00000000
00000000
00000000
00000000
00000000
00000000
00000000
00000000
00000000
00000000
00000000
00000000
00000000
00000000
00000000
00000000
00000000
00000000
00000000
00100000
00000000
00000000
00000000
00000000
00000000
00000000
00000000
00000000
00000000
00000000
10000000
00000000
00000000
00000000
00000000
00000000
00000000
00000000
00000000
00000000
00100000
00000000
00000000
00000000
00000000
00000000
00000000
00000000
00000000
00000000
00000000
10000000
00000000
00000000
00000000
00000000
00000000
00000000
00000000
00000000
00000000
00000000
00000000
00000000
00000000
00000000
00000000
00000000
00000000
00000000
00000000
00000000
00000000
00000000
00000000
00000000
00000000
00000000
00000000
00000000
00000000
00000000
00000000
01000000
00000000
00000000
00000000
00000000
00000000
00000000
00000000
00000000
00000000
00000000
00000000
00000000
00000000
00000000
00000000
00000000
00000000
00000000
00000000
00000000
00000000
00000000
00000000
00000000
00000000
00000000
00000000
00000000
00000000
00000000
00000000
00100000
00000000
00000000
00000000
00000000
00000000
00000000
00000000
00000000
00000000
00000000
00000000
00000000
00000000
00000000
00000000
00000000
00000000
00000000
00000000
00000000
00000000
00000000
00000000
00000000
00000000
00000000
00000000
00000000
00000000
00000000
00000000
,  // measure 42
00002000
00000000
00000000
00003000
00000000
00000000
00010000
00000000
00000100
00000000
00000010
00000000
,  // measure 43
00000001
00000000
00000000
00000000
00000000
00000000
00000000
00000000
00000000
00000000
00000000
00000000
00000000
00000000
00000000
00000000
00000000
00000000
00000000
00000000
00000000
00000000
00000000
00000000
00000000
00000000
00000000
00000000
00000000
00000000
00000000
00000000
00000100
00000000
00000000
00000000
00000000
00000000
00000000
00000000
00000000
00000000
00000000
00000000
00000000
00000000
00000000
00000000
00000000
00000000
00000000
00000000
00000000
00000000
00000000
00000000
00000000
00000000
00000000
00000000
00000000
00000000
00000000
00000000
00000010
00000000
00000000
00000000
00000000
00000000
00000000
00000000
00000000
00000000
00000000
00001000
00000000
00000000
00000000
00000000
00000000
00000000
00000000
00000000
00000000
00000010
00000000
00000000
00000000
00000000
00000000
00000000
00000000
00000000
00000000
00000000
00001000
00000000
00000000
00000000
00000000
00000000
00000000
00000000
00000000
00000000
00000000
00000000
00000000
00000000
00000000
00000000
00000000
00000000
00000000
00000000
00000000
00000000
00000000
00000000
00000000
00000000
00000000
00000000
00000000
00000000
00000000
00000000
00000100
00000000
00000000
00000000
00000000
00000000
00000000
00000000
00000000
00000000
00000000
00000000
00000000
00000000
00000000
00000000
00000000
00000000
00000000
00000000
00000000
00000000
00000000
00000000
00000000
00000000
00000000
00000000
00000000
00000000
00000000
00000000
00010000
00000000
00000000
00000000
00000000
00000000
00000000
00000000
00000000
00000000
00000000
00000000
00000000
00000000
00000000
00000000
00000000
00000000
00000000
00000000
00000000
00000000
00000000
00000000
00000000
00000000
00000000
00000000
00000000
00000000
00000000
00000000
,  // measure 44
00002000
00000000
00000000
00000000
00000000
00000000
02003000
00000000
00000000
03100000
10000000
00010000
,  // measure 45
01000000
00000000
00000000
00000000
00000000
00000000
00000000
00000000
00000000
00000000
00000000
00000000
00000000
00000000
00000000
00000000
00000000
00000000
00000000
00000000
00000000
00000000
00000000
00000000
00000000
00000000
00000000
00000000
00000000
00000000
00000000
00000000
00010000
00000000
00000000
00000000
00000000
00000000
00000000
00000000
00000000
00000000
00000000
00000000
00000000
00000000
00000000
00000000
00000000
00000000
00000000
00000000
00000000
00000000
00000000
00000000
00000000
00000000
00000000
00000000
00000000
00000000
00000000
00000000
00100000
00000000
00000000
00000000
00000000
00000000
00000000
00000000
00000000
00000000
00000000
00001000
00000000
00000000
00000000
00000000
00000000
00000000
00000000
00000000
00000000
00010000
00000000
00000000
00000000
00000000
00000000
00000000
00000000
00000000
00000000
00000000
00001000
00000000
00000000
00000000
00000000
00000000
00000000
00000000
00000000
00000000
00000000
00000000
00000000
00000000
00000000
00000000
00000000
00000000
00000000
00000000
00000000
00000000
00000000
00000000
00000000
00000000
00000000
00000000
00000000
00000000
00000000
00000000
00010000
00000000
00000000
00000000
00000000
00000000
00000000
00000000
00000000
00000000
00000000
00000000
00000000
00000000
00000000
00000000
00000000
00000000
00000000
00000000
00000000
00000000
00000000
00000000
00000000
00000000
00000000
00000000
00000000
00000000
00000000
00000000
00000100
00000000
00000000
00000000
00000000
00000000
00000000
00000000
00000000
00000000
00000000
00000000
00000000
00000000
00000000
00000000
00000000
00000000
00000000
00000000
00000000
00000000
00000000
00000000
00000000
00000000
00000000
00000000
00000000
00000000
00000000
00000000
,  // measure 46
00001100
00000000
00001000
00000000
00000010
00000000
00000110
00000000
00000100
00000000
00000001
00000000
,  // measure 47
00001000
00000000
00000000
00000000
00000000
00000000
00000000
00000000
00000000
00000000
00000000
00000000
00000000
00000000
00000000
00000000
00000000
00000000
00000000
00000000
00000000
00000000
00000000
00000000
00000000
00000000
00000000
00000000
00000000
00000000
00000000
00000000
00000100
00000000
00000000
00000000
00000000
00000000
00000000
00000000
00000000
00000000
00000000
00000000
00000000
00000000
00000000
00000000
00000000
00000000
00000000
00000000
00000000
00000000
00000000
00000000
00000000
00000000
00000000
00000000
00000000
00000000
00000000
00000000
00010000
00000000
00000000
00000000
00000000
00000000
00000000
00000000
00000000
00000000
00000000
00001000
00000000
00000000
00000000
00000000
00000000
00000000
00000000
00000000
00000000
00010000
00000000
00000000
00000000
00000000
00000000
00000000
00000000
00000000
00000000
00000000
00001000
00000000
00000000
00000000
00000000
00000000
00000000
00000000
00000000
00000000
00000000
00000000
00000000
00000000
00000000
00000000
00000000
00000000
00000000
00000000
00000000
00000000
00000000
00000000
00000000
00000000
00000000
00000000
00000000
00000000
00000000
00000000
01000000
00000000
00000000
00000000
00000000
00000000
00000000
00000000
00000000
00000000
00000000
00000000
00000000
00000000
00000000
00000000
00000000
00000000
00000000
00000000
00000000
00000000
00000000
00000000
00000000
00000000
00000000
00000000
00000000
00000000
00000000
00000000
00100000
00000000
00000000
00000000
00000000
00000000
00000000
00000000
00000000
00000000
00000000
00000000
00000000
00000000
00000000
00000000
00000000
00000000
00000000
00000000
00000000
00000000
00000000
00000000
00000000
00000000
00000000
00000000
00000000
00000000
00000000
00000000
,  // measure 48
20000000
00000000
00000000
30000000
00000000
00000000
01100000
00000000
01001000
00000000
00011000
00000000
,  // measure 49
00010100
00000000
00000100
00000000
00001000
00000000
00000010
00000100
00000010
00000000
00001000
00000000
00000001
00000000
00000000
00000000
,  // measure 50
00000010
00000000
00000100
00000000
00010000
00000000
00001000
01000000
00001000
00000000
00010000
00000000
01000000
00000000
10000000
00000000
,  // measure 51
00100000
00000000
01000000
00000000
00001000
00000000
00010000
00001000
00010000
00000000
00000100
00000000
00001000
00000000
00000000
00000000
,  // measure 52
00000010
00000000
00000100
00000000
00000001
00000000
00000010
00000100
00000010
00000000
00000001
00000000
00000100
00000000
00001000
00000000
,  // measure 53
00010000
00000000
01000000
00000000
10000000
00000000
00100000
01000000
00100000
00000000
10000000
00000000
00010000
00000000
00000000
00000000
,  // measure 54
00100000
00000000
00001000
00000000
00010000
00000000
00000100
00000010
00000100
00000000
00010000
00000000
00001000
00000000
01000000
00000000
,  // measure 55
00100000
00000000
10000000
00000000
01000000
00000000
00010000
00001000
00010000
00000000
00000100
00000000
00000010
00000000
00000000
00000000
,  // measure 56
00000001
00000000
00000100
00000000
00000010
00000000
00001000
00000000
00000100
00000000
00010000
00001000
00010000
00000100
00001000
00000010
,  // measure 57
00000200
00000000
00000010
00000300
,  // measure 58
00002000
00000000
00010000
00003000
,  // measure 59
02000000
00000000
00100000
03000000
,  // measure 60
00020000
00000000
01000000
00030000
,  // measure 61
00200000
00000000
00001000
00300000
,  // measure 62
00000020
00000000
00001000
00000030
,  // measure 63
00000200
00000000
00001000
00000300
,  // measure 64
00000001
00000000
00000100
00000000
00010000
00000000
00001000
00000000
00100000
00000000
10000000
00000000
,  // measure 65
00010000
00000000
00100000
01000000
00100000
00000000
00000000
00000000
00001000
00000000
00010000
00000100
00010000
00000000
00000000
00000000
,  // measure 66
00000010
00000000
00000100
00000001
00000100
00000000
00000000
00000000
00000001
00000000
00000010
00000100
00000010
00000000
00000100
00001000
,  // measure 67
00000100
00000000
00010000
00001000
00010000
00000000
00000000
00000000
00001000
00000000
01000000
00100000
01000000
00000000
00000000
00000000
,  // measure 68
00100000
00000000
10000000
01000000
10000000
00000000
00000000
00000000
01000000
00000000
00100000
00010000
00100000
00000000
00001000
00010000
,  // measure 69
00001000
00000000
00010000
00000100
00010000
00000000
00000000
00000000
00000010
00000000
00001000
00000100
00001000
00000000
00000000
00000000
,  // measure 70
00000001
00000000
00000100
00000010
00000100
00000000
00000010
00010000
00000010
00000000
00010000
00001000
00010000
00000000
00001000
01000000
,  // measure 71
00001000
00000000
01000000
00100000
01000000
00000000
00000000
00000000
00100000
00000000
10000000
00010000
10000000
00000000
00000000
00000000
,  // measure 72
00010000
10000000
01000000
00010000
00001000
00000010
00000001
00000100
,  // measure 73
00000010
00000000
00001000
00000000
00000100
00000000
00010000
00001000
00010000
00000000
00001000
00000000
01000000
00000000
00100000
00000000
,  // measure 74
10000000
00000000
01000000
00000000
00100000
00000000
00001000
00010000
00001000
00000000
00010000
00000000
00010100
00000000
00000000
00000000
,  // measure 75
00000100
00000000
00000010
00000000
00000001
00000000
00000100
00000010
00000100
00000000
00001000
00000000
00010000
00000000
01000000
00000000
,  // measure 76
10000000
00000000
00100000
00000000
01000000
00000000
00001000
00010000
00001000
00000000
00010000
00000000
01010000
00000000
00000000
00000000
,  // measure 77
01000000
10000000
00100000
00010000
00001000
00000100
00000010
00001000
,  // measure 78
00001100
00000100
00010000
00001000
01000000
00100000
10000000
01000000
,  // measure 79
11000000
00000000
00000000
00000000
01100000
00000000
00000000
00000000
00110000
00000000
00000000
00000000
00010000
00000000
00000000
00001000
00000000
00000000
00000100
00000000
00000000
00000010
00000000
00000000
,  // measure 80
00000001
00000000
00000000
00000100
00000000
00000000
00000001
00000000
00000000
00000100
00000000
00000000
00000010
00000000
00000000
00000000
00000000
00000000
00001000
00000000
00000000
00000000
00000000
00000000
00000100
00000000
00000000
00010000
00000000
00000000
00000100
00000000
00000000
00010000
00000000
00000000
00001000
00000000
00000000
00000000
00100000
00000000
00000000
00000000
01000000
00000000
00000000
00000000
,  // measure 81
20000000
00000000
01000000
30000000
,  // measure 82
02000000
00000000
00010000
03000000
,  // measure 83
00020000
00000000
00001000
00030000
,  // measure 84
00002000
00000000
00000100
00003000
,  // measure 85
00000200
00000000
00000001
00000300
,  // measure 86
00000002
00000000
00001000
00000003
,  // measure 87
00002000
00000000
00010000
00003000
,  // measure 88
20020000
00000000
00000000
00000000
,  // measure 89
00000000
00000000
00000000
00000000
,  // measure 90
30030000
00000000
00000000
00000000
;

//---------------dance-double - ----------------
#NOTES:
     dance-double:
     :
     Medium:
     7:
     0.458,0.548,0.069,0.185,0.215: // measure 1
00000000
00000000
00000000
00000000
,  // measure 2
00000000
00000000
00000000
00000000
,  // measure 3
00000000
00000000
00000000
00000000
,  // measure 4
00000000
00000000
00000000
00000000
,  // measure 5
00000000
00000000
00000000
00000000
,  // measure 6
00000000
00000000
00000000
00000000
,  // measure 7
00000000
00000000
00000000
00000000
,  // measure 8
00000000
00000000
00000000
00000000
,  // measure 9
10000000
01000000
00000000
00100000
00000000
01000000
00000000
10000000
,  // measure 10
00000000
00100000
00000000
01000000
00000000
00010000
00000000
00100000
,  // measure 11
00001000
00010000
00000000
00000100
00000000
00001000
00000000
00000010
,  // measure 12
00000000
00000100
00000000
00000001
00000000
00000010
00000000
00000100
,  // measure 13
00001000
00000010
00000000
00010000
00000000
00001000
00000000
01000000
,  // measure 14
00000000
00010000
00000000
00100000
00000000
01000000
00000000
10000000
,  // measure 15
00100000
01000000
00000000
00010000
00000000
00100000
00000000
00001000
,  // measure 16
00010000
00000000
00000000
00001000
00000000
00000000
00022000
00033000
,  // measure 17
00010000
00000100
00000010
00000000
00000010
00000100
00001000
00000000
,  // measure 18
00000001
00000100
00000010
00000000
00000010
00001000
00000100
00000000
,  // measure 19
00010000
00001000
01000000
00000000
01000000
00100000
10000000
00000000
,  // measure 20
01000000
00100000
00001000
00000000
00001000
00010000
00000100
00000000
,  // measure 21
00001000
00000010
00000100
00000100
00000001
00000010
00000100
00000000
,  // measure 22
00010000
00001000
01000000
01000000
00100000
10000000
01000000
00000000
,  // measure 23
00100000
00010000
01000000
01000000
00001000
00010000
00000100
00001000
,  // measure 24
00000010
00000100
00000001
00000001
00001000
00000200
00000000
00000300
,  // measure 25
00010000
00000000
00011000
00000000
00001000
01000000
00010000
00000000
,  // measure 26
01000000
00000000
00100000
00000000
10000000
01000000
00100000
00000000
,  // measure 27
00010000
00000000
01000000
00000000
00001000
00010000
00000100
00000000
,  // measure 28
00001000
00000010
00000100
00000000
00000001
00000010
00000100
00000010
,  // measure 29
00000001
00000000
00001100
00000000
00010000
00001000
01000000
00000000
,  // measure 30
00010000
00000000
00100000
01000000
10000000
01000000
00100000
00000000
,  // measure 31
00010000
00000000
01000000
00001000
00010000
00000000
00010000
00000100
,  // measure 32
00001000
00000000
00001000
00000010
00000100
00000001
00000010
00000000
,  // measure 33
00000100
00000000
00011000
00000000
00100000
00010000
01000000
00000000
,  // measure 34
00100000
00000000
10000000
00000000
01000000
00100000
00001000
00000000
,  // measure 35
00010000
00000000
00000100
00000000
00000010
00000001
00000100
00000000
,  // measure 36
00001000
00000000
00010000
00100000
10000000
00100000
01000000
00000000
,  // measure 37
00010000
00000000
01100000
00000000
10000000
01000000
00100000
00000000
,  // measure 38
00001000
00000000
00010000
00000010
00000100
00001000
00000100
00000001
,  // measure 39
00001000
00000000
00000011
00000000
00000100
00010000
00001000
00000000
,  // measure 40
00001000
01000000
00010000
00000000
00010000
00100000
01000000
10000000
,  // measure 41
00010000
00000000
10000000
00000000
00010000
00000000
01000000
00000000
00001000
00000000
00010000
00000000
,  // measure 42
00000200
00000000
00000000
00000300
00000000
00000000
00000010
00000000
00000001
00000000
00001000
00000000
,  // measure 43
00000010
00000000
00000100
00000000
00000010
00000000
00010000
00000000
00001000
00000000
01000000
00000000
,  // measure 44
00200000
00000000
00000000
00300000
00000000
00000000
00000000
00000000
00000000
10000000
01000000
10000000
,  // measure 45
01000000
00000000
00100000
00000000
00001000
00000000
00010000
00000000
00000100
00000000
00000010
00000000
,  // measure 46
00000002
00000000
00000000
00000003
00000000
00000000
00001000
00000000
00000001
00000000
00000100
00000000
,  // measure 47
00000010
00000000
00010000
00000000
00001000
00000000
01000000
00000000
00100000
00000000
10000000
00000000
,  // measure 48
00020000
00000000
00000000
00030000
00000000
00000000
10000000
00000000
10000000
00000000
10010000
00000000
,  // measure 49
00010000
00000000
01000000
00000000
00001000
00000000
00010000
00000000
00000100
00000000
00000010
00000000
,  // measure 50
00000001
00000000
00000100
00000000
00000010
00000000
00000100
00000000
00000001
00000000
00000010
00000000
,  // measure 51
00000100
00000000
00010000
00000000
00001000
00000000
01000000
00000000
00100000
00000000
10000000
00000000
,  // measure 52
02000000
00000000
00000000
03000000
00000000
00000000
00000000
00000000
00000000
00100000
00001000
00100000
,  // measure 53
00001000
00000000
00010000
00000000
00000100
00000000
00000010
00000000
00000001
00000000
00000100
00000000
,  // measure 54
00000010
00000000
00010000
00000000
00001000
00000000
01000000
00000000
10000000
00000000
01000000
00000000
,  // measure 55
00100000
00000000
10000000
00000000
01000000
00000000
00010000
00000000
00001000
00000000
00000010
00000000
,  // measure 56
00000001
00001000
00010000
10000000
,  // measure 57
00020000
00000000
00000000
00000000
,  // measure 58
00230000
00000000
00000000
00000000
,  // measure 59
00302000
00000000
00000000
00000000
,  // measure 60
00023000
00000000
00000000
00000000
,  // measure 61
00030200
00000000
00000000
00000000
,  // measure 62
00000320
00000000
00000000
00000000
,  // measure 63
00000032
00000000
00000000
00000000
,  // measure 64
00000103
00000000
00000100
00000000
00000100
00000000
00000100
00000000
00000100
00000000
00000100
00000000
,  // measure 65
00000010
00010000
00001000
00000000
00001000
00010000
00000100
00000000
,  // measure 66
00010000
00000000
00001000
00000000
01000000
00010000
00100000
00000000
,  // measure 67
01000000
10000000
00100000
00000000
00100000
01000000
00001000
00000000
,  // measure 68
00010000
00000000
00000100
00000000
00000010
00000001
00000100
00000000
,  // measure 69
00001000
00010000
00100000
00000000
00100000
00010000
00001000
00000000
,  // measure 70
01000000
00010000
00100000
00001000
,  // measure 71
00010000
00000100
00000010
00000000
00000010
00000100
00010000
00000000
,  // measure 72
00001000
01000000
00100000
10000000
00010000
00000000
10010000
00000000
,  // measure 73
10000000
01000000
00100000
00000000
00100000
00001000
00010000
00000000
,  // measure 74
00010000
00000100
00000010
00000000
00000001
00000000
00000100
00000000
,  // measure 75
00000001
00000010
00000100
00000000
00000100
00010000
00001000
00000000
,  // measure 76
00001000
00100000
01000000
00000000
10000000
00000000
00100000
00000000
,  // measure 77
01000000
00001000
01000000
00001000
00010000
00000100
00010000
00000000
,  // measure 78
00000100
00000010
00000100
00000010
00000001
00000100
00000010
00000000
,  // measure 79
00001000
00000000
00000000
00000000
00001000
00000000
00000000
00000000
00001000
00000000
00000000
00000000
00000001
00000000
00000000
00000100
00000000
00000000
00000001
00000000
00000000
00000100
00000000
00000000
,  // measure 80
00000010
00000010
00010000
00001000
01000000
01000000
00010000
00100000
,  // measure 81
02000000
00000000
10000000
00000000
,  // measure 82
03200000
00000000
00010000
00000000
,  // measure 83
00302000
00000000
01000000
00000000
,  // measure 84
00023000
00000000
00000010
00000000
,  // measure 85
00030200
00000000
00001000
00000000
,  // measure 86
00000320
00000000
00001000
00000000
,  // measure 87
00000032
00000000
00000100
00000003
,  // measure 88
00002002
00000000
00000000
00000000
,  // measure 89
00000000
00000000
00000000
00000000
,  // measure 90
00003003
00000000
00000000
00000000
;

//---------------dance-double - ----------------
#NOTES:
     dance-double:
     :
     Easy:
     6:
     0.395,0.514,0.015,0.554,0.054: // measure 1
00000000
00000000
00000000
00000000
,  // measure 2
00000000
00000000
00000000
00000000
,  // measure 3
00000000
00000000
00000000
00000000
,  // measure 4
00000000
00000000
00000000
00000000
,  // measure 5
00000000
00000000
00000000
00000000
,  // measure 6
00000000
00000000
00000000
00000000
,  // measure 7
00000000
00000000
00000000
00000000
,  // measure 8
00000000
00000000
00000000
00000000
,  // measure 9
00010000
00001000
00010000
00000000
,  // measure 10
00001000
00000000
00000000
01000000
00000000
00000000
00002000
00000000
00003000
00000000
00000000
00000000
,  // measure 11
00010000
00000100
00001000
00000000
,  // measure 12
00000010
00000000
00000000
00000100
00000000
00000000
00000002
00000000
00000003
00000000
00000000
00000000
,  // measure 13
00001000
00000000
00000000
00000100
00000000
00000000
00020000
00000000
00030000
00000000
00000000
00000000
,  // measure 14
00001000
00000000
00000000
01000000
00000000
00000000
00020000
00000000
00030000
00000000
00000000
00000000
,  // measure 15
00100000
00000000
00000000
01000000
00000000
00000000
20000000
00000000
30000000
00000000
00000000
00000000
,  // measure 16
00010000
00000000
00000000
00000000
00000000
00000000
02000000
03000000
,  // measure 17
00100000
00000000
00100000
00000000
00100000
10000000
01000000
00000000
,  // measure 18
01000000
00000000
01000000
00000000
01000000
00100000
00001000
00000000
,  // measure 19
00001000
00000000
00001000
00000000
00001000
00010000
00000100
00000000
,  // measure 20
00000100
00000000
00000100
00000000
00000100
00000010
00000001
00000000
,  // measure 21
00001000
00000000
00000100
00000000
00010000
00001000
00010000
00000000
,  // measure 22
00001000
00000000
01000000
00000000
00010000
00100000
00010000
00000000
,  // measure 23
10000000
01000000
00100000
00001000
,  // measure 24
00010000
00000000
00000100
00000000
00000010
00000002
00000000
00000003
,  // measure 25
00001000
00000000
00000100
00000000
00010000
00001000
00010000
00000000
,  // measure 26
00001000
00100000
00010000
01000000
,  // measure 27
00100000
00000000
10000000
00000000
01000000
00100000
01000000
00000000
,  // measure 28
10000000
00100000
01000000
00010000
,  // measure 29
00100000
00000000
00001000
00000000
00010000
00000100
00010000
00000000
,  // measure 30
00000100
00001000
00000010
00000100
,  // measure 31
00000001
00000100
00001000
00010000
,  // measure 32
01000000
00000000
10000000
00000000
00100000
01000000
01000000
00000000
,  // measure 33
00010000
00000000
00100000
00000000
00001000
00010000
00001000
00000000
,  // measure 34
00010000
00000100
00000010
00000001
,  // measure 35
00000100
00000000
00000010
00000000
00001000
00000100
00001000
00000000
,  // measure 36
00000100
00010000
00001000
01000000
,  // measure 37
00100000
00000000
10000000
00000000
01000000
00100000
01000000
00000000
,  // measure 38
10000000
00100000
00010000
00100000
,  // measure 39
01000000
00000000
00001000
00000000
00010000
00000100
00010000
00000000
,  // measure 40
00000100
00000000
00001000
00000000
00000010
00000100
00000010
00000000
,  // measure 41
00002000
00000000
00003200
00000000
,  // measure 42
00020300
00000000
00032000
00000000
,  // measure 43
02003000
00000000
03200000
00000000
,  // measure 44
20300000
00000000
32000000
00000000
,  // measure 45
03100000
00000000
00100000
00000000
00100000
00000000
00001000
00000000
00001000
00000000
00001000
00000000
,  // measure 46
00010000
00000000
00000100
00000000
,  // measure 47
00001000
00000000
00001000
00000000
00001000
00000000
00000010
00000000
00000010
00000000
00000010
00000000
,  // measure 48
00000100
00000000
00000000
00000000
00000000
00000000
00000001
00000000
00000001
00000000
00000001
00000000
,  // measure 49
00001000
00000000
00000100
00000000
00010000
00001000
00010000
00000000
,  // measure 50
00001000
01000000
00100000
01000000
,  // measure 51
00010000
00100000
01000000
00000000
10000000
00000000
00100000
00000000
,  // measure 52
01000000
00001000
00010000
00000100
,  // measure 53
00000010
00000001
00000010
00000000
00000100
00000000
00010000
00000000
,  // measure 54
00001000
00100000
01000000
10000000
,  // measure 55
00010000
01000000
00100000
10000000
,  // measure 56
01000000
00000000
00010000
00000000
00001000
00000000
00000100
00000010
,  // measure 57
00000200
00000000
00000000
00000000
,  // measure 58
00000302
00000000
00000000
00000000
,  // measure 59
00002003
00000000
00000000
00000000
,  // measure 60
00003200
00000000
00000000
00000000
,  // measure 61
00020300
00000000
00000000
00000000
,  // measure 62
00032000
00000000
00000000
00000000
,  // measure 63
00203000
00000000
00000000
00000000
,  // measure 64
00310000
00000000
00010000
00000000
00010000
00000000
10000000
00000000
10000000
00000000
10000000
00000000
,  // measure 65
00020000
00130000
02000000
13000000
,  // measure 66
00200000
01300000
00002000
00023000
,  // measure 67
00030200
00000310
00000002
00000103
,  // measure 68
00000020
00001030
00000200
00020300
,  // measure 69
00032000
00103000
00020000
01030000
,  // measure 70
00200000
20300000
32000000
03200000
,  // measure 71
00320000
01030000
00002000
00013000
,  // measure 72
00000200
00001300
00000020
00000230
,  // measure 73
00000302
00000013
00000200
00010300
,  // measure 74
00002000
00103000
02000000
23000000
,  // measure 75
30200000
01300000
00002000
00013000
,  // measure 76
00000200
00000310
00000002
00000203
,  // measure 77
00002300
00013000
00200000
10300000
,  // measure 78
00020000
00230000
00302000
00023000
,  // measure 79
00030200
00001300
00000020
00000130
,  // measure 80
00002002
00000000
00000000
00003003
,  // measure 81
00000002
00000000
00000013
00000000
,  // measure 82
00000020
00000000
00001030
00000000
,  // measure 83
00002000
00000000
00013000
00000000
,  // measure 84
00020000
00000000
01030000
00000000
,  // measure 85
02000000
00000000
13000000
00000000
,  // measure 86
20000000
00000000
30100000
00000000
,  // measure 87
00200000
00000000
00310000
00000000
,  // measure 88
00022000
00000000
00000000
00000000
,  // measure 89
00000000
00000000
00000000
00000000
,  // measure 90
00033000
00000000
00000000
00000000
;
