#TITLE:PONPONPON;
#SUBTITLE:;
#ARTIST:きゃりーぱみゅぱみゅ;
#TITLETRANSLIT:;
#SUBTITLETRANSLIT:;
#ARTISTTRANSLIT:Kyary Pamyu Pamyu;
#GENRE:;
#CREDIT:;
#BANNER:[jubeat] - PONPONPON.png;
#BACKGROUND:[jubeat] - PONPONPON-bg.png;
#LYRICSPATH:;
#CDTITLE:;
#MUSIC:[jubeat] - PONPONPON.ogg;
#OFFSET:-1.059;
#SAMPLESTART:31.027;
#SAMPLELENGTH:15.000;
#SELECTABLE:YES;
#BPMS:0.000=128.000
;
#STOPS:
;
#BGCHANGES:;
#KEYSOUNDS:;
#ATTACKS:;

//---------------dance-single - ----------------
#NOTES:
     dance-single:
     :
     Hard:
     8:
     0.541,0.599,0.355,0.295,0.160,362.000,41.000,34.000,0.000,0.000,0.000,0.541,0.599,0.355,0.295,0.160,362.000,41.000,34.000,0.000,0.000,0.000:
0000
0000
0000
0000
,
0000
0000
0000
0000
,
0000
0000
0000
0000
,
0000
0000
0000
0000
,
2000
0000
0000
0000
,
3020
0000
0000
0000
,
0230
0000
0000
0000
,
0302
0000
0000
0000
,
2003
3000
0100
2000
0000
3020
0000
0230
,
0000
0001
0301
0020
0000
0031
0100
0010
,
2000
0000
0001
3002
0000
0023
0000
0230
,
0000
1300
0001
0200
0000
0310
1000
0100
,
0010
0001
0100
0010
0100
0002
0000
0023
,
0000
0000
0130
0000
1000
0000
0010
0100
0010
0000
0100
0000
0010
0000
1000
0000
,
0100
1000
0010
0100
0001
0020
0000
0032
,
0000
0000
1003
0000
0010
0000
0001
0000
0100
0000
1000
0001
1000
0000
0001
0000
,
0101
0000
2100
0000
0010
0010
3010
0000
,
0010
0100
0010
1000
0100
0001
0100
0000
,
1010
0000
0021
0000
0100
0100
0130
0000
,
0100
1000
0010
0001
0010
1000
0001
0000
,
0011
0000
0110
0000
1200
1000
1300
0000
,
1000
0010
0100
0010
1000
0100
0010
0000
,
0101
0000
0110
0000
1020
1000
1030
0000
,
0010
0100
0001
0010
0100
1000
0001
0000
,
1000
0000
0000
1000
0010
0000
0000
0010
0100
0000
0001
0010
0001
0000
0010
0000
,
0001
0000
0100
0000
1000
0000
0100
0000
0001
0000
0010
0000
0100
0000
0000
0100
,
1000
0000
0000
1000
0001
0000
0000
0001
0010
0000
0001
0100
0001
0000
0100
0000
,
0001
0010
1000
0010
0001
0100
0010
0000
,
1010
0000
1001
0000
0021
0001
0031
0000
,
0001
0000
0000
0001
0010
0000
0000
0010
0100
0000
0000
0100
1000
0000
0000
0000
,
1010
0000
1001
0000
0102
0100
0103
0000
,
0001
0000
0000
0001
0100
0000
0000
0100
0010
0000
0000
0010
1000
0000
0001
0000
,
1001
0001
0010
0100
1100
1000
0010
0100
,
0110
0100
0001
0010
0011
0001
0100
0001
,
1001
1000
0010
0100
0110
0100
0101
0001
,
1001
0000
1000
0000
0001
0000
0010
0000
0011
0000
0010
0100
1000
0000
0001
0000
,
1001
0001
0100
0010
1010
1000
0001
0100
,
0101
0001
0010
0100
1100
0100
0010
0001
,
0022
0033
0220
0330
,
1100
0000
1010
0000
0110
0100
0101
0000
,
0001
0100
1000
0100
0001
0010
1000
0010
,
0001
0100
1000
0010
0001
0000
1001
0001
,
0010
1000
0010
0001
0100
1000
0100
0001
,
0010
1000
0100
0001
1001
1000
1001
0000
,
0001
0010
0100
0010
0100
1000
0010
1000
,
0010
0001
1000
0100
0001
0000
1001
0000
,
1000
0010
0100
0010
0100
0001
0010
0001
,
0010
1000
0001
0100
1000
0001
1001
0000
,
1000
0000
0010
0100
0010
0000
0100
0001
0100
0000
0001
0010
0001
0000
0010
0100
,
1000
0000
0001
0000
0100
0000
0010
0000
2000
0000
0000
0000
3001
0000
0100
0001
,
0100
0000
0001
1000
0001
0000
1000
0010
1000
0000
0100
1000
0100
0000
0010
0001
,
1000
0000
0010
0000
1000
0000
0001
0000
0100
0001
0100
0001
0100
0000
0010
0100
,
0010
0000
1000
0001
1000
0000
0100
0010
0100
0000
1000
0001
1000
0000
0001
0100
,
0010
0000
1000
0000
0100
0000
0010
0000
0002
0000
0000
0000
0013
0000
0001
1000
,
0001
0000
0100
0010
0100
0000
0001
1000
0001
0000
0010
0100
0010
0000
0100
1000
,
0010
0100
0001
0010
0001
0100
0010
2000
,
0002
0000
0000
0000
,
0000
0000
0000
3003
,
2002
0000
0000
0000
,
0000
0000
0000
0000
,
0000
3003
0000
0000
0000
0000
0000
0000
;

//---------------dance-single - ----------------
#NOTES:
     dance-single:
     :
     Medium:
     7:
     0.337,0.417,0.217,0.156,0.000,229.000,25.000,18.000,0.000,0.000,0.000,0.337,0.417,0.217,0.156,0.000,229.000,25.000,18.000,0.000,0.000,0.000:
0000
0000
0000
0000
,
0000
0000
0000
0000
,
0000
0000
0000
0000
,
0000
0000
0000
0000
,
1000
0000
0000
0000
,
0001
0000
0000
0000
,
0010
0000
0000
0000
,
0100
0000
0000
0000
,
1000
0000
0010
0000
0100
0010
0000
0100
,
0000
0000
0000
0001
0000
0010
0001
0010
,
0100
0000
1000
0000
0010
0100
0000
0010
,
0000
0000
1000
0001
0000
0000
0010
0000
,
0001
0000
0100
0000
0010
1000
0000
0010
,
0000
0000
1000
0000
0001
1000
0001
0000
,
0010
0000
0100
0000
1000
0100
0000
1000
,
0000
0000
0010
0000
0100
0000
0001
1000
,
0001
1001
1000
1001
,
0001
0010
0100
1000
0010
0100
0001
0000
,
1000
1001
0001
1001
,
0001
0010
0100
0010
0001
0100
0010
0000
,
1000
1010
1000
1001
,
0001
0000
0010
0000
0100
1000
0001
0000
,
0100
0101
0001
1001
,
1000
0000
0100
0000
0010
0001
1000
0000
,
0001
0001
0010
0010
,
0100
0000
1000
0000
0010
0100
0001
0000
,
0010
0010
0001
0001
,
0100
0010
1000
0001
0010
0100
1000
0000
,
0001
0001
1000
1000
,
0010
0000
0100
0000
0001
1000
0001
0000
,
1000
1000
0001
0001
,
0010
0100
1000
0010
0100
0001
1000
0000
,
0001
0100
0120
1030
,
1200
0310
0012
1003
,
1020
1030
1100
0110
,
0012
0103
0120
0000
,
0130
0001
0012
0013
,
0210
1300
2010
3010
,
2002
3003
0220
0330
,
1001
0110
1001
1001
,
1000
0100
1000
0010
,
0100
0001
1000
0001
0010
0001
1000
0000
,
0010
0010
0100
0100
,
0001
0010
1000
0010
0001
0100
1000
0000
,
0100
0001
0010
0100
,
1000
0100
1000
0001
0100
0001
1000
0000
,
0010
0010
1000
1000
,
0010
0001
0010
1000
0100
0001
0100
0000
,
1000
1000
0010
0010
,
0100
0001
2000
3000
,
0001
1000
0100
0010
,
0001
0100
0010
0100
0002
0000
0003
0000
,
1000
0100
1000
0010
,
0100
0001
0020
0030
,
0001
0100
0010
1000
,
0100
1000
0010
1000
0010
0100
0001
1000
,
0002
0000
0000
0000
,
0000
0000
0000
0000
,
2000
0000
0000
0000
,
0000
0000
0000
0000
,
0000
3003
0000
0000
0000
0000
0000
0000
;

//---------------dance-single - ----------------
#NOTES:
     dance-single:
     :
     Easy:
     4:
     0.238,0.261,0.147,0.035,0.000,171.000,17.000,4.000,0.000,0.000,0.000,0.238,0.261,0.147,0.035,0.000,171.000,17.000,4.000,0.000,0.000,0.000:
0000
0000
0000
0000
,
0000
0000
0000
0000
,
0000
0000
0000
0000
,
0000
0000
0000
0000
,
0000
0000
0000
0000
,
0000
0000
0000
0000
,
0000
0000
0000
0000
,
0000
0000
0000
0000
,
1000
0010
0100
0100
,
0100
0000
0001
0010
,
0100
0010
0001
0001
,
0001
0000
1000
0010
,
0100
0010
1000
1000
,
1000
0000
0001
0001
,
0010
0001
0100
0000
,
0010
0100
0010
0000
,
1000
1000
0001
0001
,
0010
0001
1000
1000
,
0001
0001
0010
0010
,
0100
1000
0100
0010
,
0001
0001
0100
0100
,
0010
0100
0001
1000
,
0100
0100
1000
1000
,
0010
0100
0001
1000
,
0001
1000
0010
0100
,
0001
0001
0001
0001
,
0001
1000
0001
0010
,
0100
0100
0100
0100
,
0100
1000
0001
0100
,
0010
0010
0010
0010
,
0010
0100
0001
1000
,
0100
0100
0100
0100
,
1100
0000
1010
0000
,
0110
0000
0101
0000
,
1100
0000
0011
0000
,
2001
0001
0002
3003
,
1001
0000
0011
0000
,
1001
0000
1010
0000
,
1001
0000
1001
0000
,
1001
1001
1001
0000
,
0001
0010
0100
1000
,
0010
0001
0010
1000
,
0001
0001
1000
1000
,
0100
0001
0100
1000
,
0001
0001
0100
0100
,
0010
0100
0001
1000
,
0100
0100
1000
1000
,
0010
0100
0001
1000
,
0001
0100
0001
0010
,
0001
1000
0001
0000
,
1000
0010
1000
0100
,
1000
0001
1000
0000
,
0001
0010
0100
1000
,
0010
0100
0001
0000
,
0010
0001
0100
0001
,
1000
1000
0001
0001
,
2002
0000
0000
0000
,
0000
0000
0000
0000
,
0000
0000
0000
0000
,
0000
0000
0000
0000
,
0000
3003
0000
0000
0000
0000
0000
0000
;

//---------------dance-single - ----------------
#NOTES:
     dance-single:
     :
     Beginner:
     1:
     0.121,0.121,0.000,0.000,0.000,98.000,0.000,0.000,0.000,0.000,0.000,0.121,0.121,0.000,0.000,0.000,98.000,0.000,0.000,0.000,0.000,0.000:
0000
0000
0000
0000
,
0000
0000
0000
0000
,
0000
0000
0000
0000
,
0000
0000
0000
0000
,
0000
0000
0000
0000
,
0000
0000
0000
0000
,
0000
0000
0000
0000
,
0000
0000
0000
0000
,
1000
0000
0000
0000
,
0000
0000
0000
0000
,
0010
0000
0000
0000
,
0000
0000
0000
0000
,
0100
0000
0000
0000
,
0000
0000
0000
0000
,
0001
0000
0000
0000
,
0010
0010
0010
0000
,
0100
0000
0100
0000
,
1000
1000
1000
0000
,
0001
0000
0001
0000
,
0100
0100
0100
0000
,
0010
0000
0010
0000
,
1000
1000
1000
0000
,
0001
0000
0001
0000
,
0010
0010
0010
0000
,
0001
0000
0001
0000
,
0100
0000
0100
0000
,
0010
0000
0010
0000
,
1000
0000
1000
0000
,
0001
0000
0010
0000
,
0001
0000
0100
0000
,
0010
0000
0100
0000
,
0010
0000
1000
0000
,
0001
0000
0001
0000
,
0010
0000
0001
0000
,
0100
0000
0010
0000
,
1000
1000
1000
0000
,
0001
0000
0010
0000
,
0001
0000
0100
0000
,
0010
0000
0010
0000
,
0100
0100
0100
0000
,
0010
0000
1000
0000
,
0001
0001
0001
0000
,
0010
0000
0001
0000
,
1000
1000
1000
0000
,
0010
0000
0100
0000
,
0010
0010
0010
0000
,
0100
0000
0001
0000
,
0010
0010
0010
0000
,
0100
0000
0001
0000
,
0010
0000
0010
0000
,
0001
0000
0100
0000
,
0010
0000
0010
0000
,
0100
0000
0010
0000
,
1000
0000
1000
0000
,
0001
0000
0010
0000
,
0001
0000
1000
0000
,
0001
0000
0000
0000
;
