#TITLE:にんじゃりばんばん;
#SUBTITLE:;
#ARTIST:きゃりーぱみゅぱみゅ;
#TITLETRANSLIT:Nijari Ban Ban;
#SUBTITLETRANSLIT:;
#ARTISTTRANSLIT:Kyary Pamyu Pamyu;
#CREDIT:Lisek;
#BANNER:[jubeat] - Ninjari Ban Ban.png;
#BACKGROUND:[jubeat] - Ninjari Ban Ban-bg.png;
#LYRICSPATH:;
#CDTITLE:cdtitle.png;
#MUSIC:[jubeat] - Ninjari Ban Ban.ogg;
#OFFSET:-0.856;
#SAMPLESTART:14.400;
#SAMPLELENGTH:15.600;
#SELECTABLE:YES;
#BPMS:0.000=130.000;
#STOPS:;
#BGCHANGES:0.000=[jubeat] - Ninjari Ban Ban.avi=1.000=1=1=0,
284.000=[jubeat] - Ninjari Ban Ban-bg.png=1.000=1=0=1,
99999=-nosongbg-=1.000=0=0=0 // don't automatically add -songbackground-
;

//---------------dance-single - Lisek----------------
#NOTES:
     dance-single:
     Lisek:
     Hard:
     7:
     0.456,0.424,0.492,0.134,0.000:
0000
0000
0000
0000
,
0000
0000
0000
0000
,
0001
0000
0100
0000
0010
1000
0010
1000
,
0010
0000
0100
0000
0001
0010
0001
0010
,
0001
0100
1000
0100
,
0001
0010
1000
0010
,
0001
1000
0010
0100
0001
1000
0010
0100
,
0020
0030
0000
0000
,
1010
0000
0110
0000
0100
0001
1000
0000
,
1100
0000
0110
0000
0010
0001
1000
0000
,
1001
0000
0110
0000
1001
0000
0100
0010
,
1000
0100
0010
0001
2000
0000
3000
0000
,
0101
0000
0110
0000
0010
1000
0100
0000
,
0110
0000
1100
0000
1000
0001
0100
0000
,
0101
0000
1010
0000
1001
0000
0010
0100
,
0001
0010
0100
1000
0002
0000
0003
0000
,
1010
0000
0110
0000
1000
0100
0010
0000
,
0101
0000
0110
0000
0001
0010
0100
0000
,
1100
0000
0110
0000
0011
0000
1000
0001
,
0010
0100
0010
0001
2000
0000
3000
0000
,
1010
0000
0110
0000
1000
0100
0010
0000
,
0101
0000
0110
0000
0001
0010
0100
0000
,
1100
0000
0011
0000
1100
0000
0001
1000
,
0100
0010
0100
1000
0002
0000
0003
0000
,
1000
0010
0100
0010
1000
0100
0010
0000
,
0001
0010
0100
0010
0001
0100
0010
0000
,
1000
0010
0100
0010
1000
0100
1000
0000
,
0001
0100
0010
0100
0001
0010
0001
0000
,
1000
0100
0010
0100
1000
0100
0010
0000
,
0001
0010
0100
0010
0001
0010
0100
0000
,
1010
0000
1010
0000
1000
0010
0100
0000
,
0101
0101
0020
0030
,
1000
0100
1000
0000
0001
0010
0001
0000
,
1000
0100
0100
0000
1000
0000
0000
0000
,
0001
0100
0001
0000
1000
0010
1000
0000
,
0001
0100
0100
0000
0001
0000
0000
0000
,
1000
0100
1000
0000
0001
0100
0001
0000
,
1000
0100
0100
0000
1000
0100
1000
0000
,
0001
0010
0001
0000
1000
0010
1000
0000
,
0001
0010
0001
0100
0001
0010
0001
0000
,
1000
0000
0100
0010
0001
0000
0000
0000
,
0100
0010
1000
0100
0010
0000
0000
0000
,
0001
0100
0010
0100
0001
0000
0000
0000
,
1000
0100
1000
0000
0001
0100
0001
0000
,
1000
0100
0010
0001
,
1000
0001
0010
0100
,
1000
0010
0100
0001
,
2002
3003
0000
0000
,
1001
0000
0101
0000
0100
0010
1000
0000
,
1100
0000
0110
0000
0010
0001
1000
0000
,
1001
0000
0110
0000
1001
0000
0001
0010
,
0100
1000
0001
0010
0200
0000
0300
0000
,
0110
0000
0011
0000
0001
1000
0010
0000
,
0110
0000
1010
0000
1000
0010
0100
0000
,
0110
0000
1001
0000
0110
0000
1000
0100
,
0010
0001
1000
0100
0020
0000
0030
0000
,
0011
0000
0101
0000
1000
0100
0010
0000
,
1100
0000
1010
0000
0001
0010
0100
0000
,
0011
0000
1001
0000
1010
0000
1000
0001
,
0100
0010
0100
0001
2000
0000
3000
0000
,
1010
0000
1100
0000
1000
0100
0010
0000
,
0101
0000
0011
0000
0001
0010
0100
0000
,
0110
0000
0011
0000
1001
0000
1000
0001
,
0100
0010
0100
0001
2000
0000
3000
0000
,
0001
0010
0100
1000
0010
0100
0001
0000
,
1000
0100
0010
0001
1000
0010
0100
0000
,
0110
0000
1010
0000
1000
0010
0100
0000
,
0110
0101
0002
0000
,
2003
0000
3020
0000
,
0230
0000
0301
0000
,
2002
0000
0000
0000
,
3003
0000
0000
0000
;

//---------------dance-single - Lisek----------------
#NOTES:
     dance-single:
     Lisek:
     Beginner:
     1:
     0.064,0.075,0.000,0.119,0.000:
0000
0000
0000
0000
,
0000
0000
0000
0000
,
0000
0000
0000
0000
,
0000
0000
0000
0000
,
0000
0000
0000
0000
,
0000
0000
0000
0000
,
0000
0000
0000
0000
,
0000
0000
0000
0000
,
1000
0000
0000
0000
,
0001
0000
0000
0000
,
0200
0000
0000
0000
,
0300
0000
0000
0000
,
0001
0000
0000
0000
,
1000
0000
0000
0000
,
0020
0000
0000
0000
,
0030
0000
0000
0000
,
1000
0000
0000
0000
,
0100
0000
0000
0000
,
2000
0000
0000
0000
,
3000
0000
0000
0000
,
0001
0000
0000
0000
,
0100
0000
0000
0000
,
0002
0000
0000
0000
,
0003
0000
0000
0000
,
1000
0000
0000
0000
,
0001
0000
0000
0000
,
0100
0000
0000
0000
,
0010
0000
0000
0000
,
1000
0000
0000
0000
,
0001
0000
0000
0000
,
0100
0000
0000
0000
,
0010
0000
0000
0000
,
2000
0000
0000
0000
,
0000
0000
0000
0000
,
3200
0000
0000
0000
,
0000
0000
0000
0000
,
0320
0000
0000
0000
,
0000
0000
0000
0000
,
0032
0000
0000
0000
,
0000
0000
0000
0000
,
2003
0000
0000
0000
,
0000
0000
0000
0000
,
3002
0000
0000
0000
,
0000
0000
0000
0000
,
0203
0000
0000
0000
,
0000
0000
0000
0000
,
0320
0000
0000
0000
,
0030
0000
0000
0000
,
1000
0000
0000
0000
,
0001
0000
0000
0000
,
2000
0000
0000
0000
,
3000
0000
0000
0000
,
0010
0000
0000
0000
,
0100
0000
0000
0000
,
0020
0000
0000
0000
,
0030
0000
0000
0000
,
0100
0000
0000
0000
,
0001
0000
0000
0000
,
0200
0000
0000
0000
,
0300
0000
0000
0000
,
0001
0000
0000
0000
,
1000
0000
0000
0000
,
0002
0000
0000
0000
,
0003
0000
0000
0000
,
1000
0000
0000
0000
,
0010
0000
0000
0000
,
0100
0000
0000
0000
,
0001
0000
0000
0000
;

//---------------dance-single - Lisek----------------
#NOTES:
     dance-single:
     Lisek:
     Easy:
     2:
     0.137,0.185,0.015,0.037,0.000:
0000
0000
0000
0000
,
0000
0000
0000
0000
,
0000
0000
0000
0000
,
0000
0000
0000
0000
,
0001
0001
0000
0000
,
1000
1000
0000
0000
,
2002
0000
0000
0000
,
3003
0000
0000
0000
,
1000
0000
0010
0000
,
0100
0000
0010
0000
,
1000
1000
1000
0000
,
0000
0000
0000
0000
,
0001
0000
0010
0000
,
0001
0000
0100
0000
,
0010
0010
0010
0000
,
0000
0000
0000
0000
,
1000
0000
0001
0000
,
0010
0000
0001
0000
,
0100
0100
0100
0000
,
0000
0000
0000
0000
,
0001
0000
1000
0000
,
0010
0000
1000
0000
,
0001
0001
0001
0000
,
0000
0000
0000
0000
,
1000
0000
0100
0000
,
0010
0000
0001
0000
,
1000
0000
0100
0000
,
0010
0000
0001
0000
,
0001
0000
0010
0000
,
0100
0000
1000
0000
,
0001
0001
0000
0000
,
1000
1000
0000
0000
,
0001
0000
0100
0000
,
0010
0000
1000
0000
,
0001
0000
0010
0000
,
0100
0000
1000
0000
,
0001
0000
0100
0000
,
0010
0000
1000
0000
,
0001
0000
0010
0000
,
0100
0000
1000
0000
,
0001
0000
0100
0000
,
0001
0000
1000
0000
,
0010
0000
0100
0000
,
0010
0000
1000
0000
,
0001
0001
0001
0000
,
1000
1000
1000
0000
,
0010
0010
0010
0000
,
1001
0000
0000
0000
,
1000
0000
0001
0000
,
0100
0000
0010
0000
,
0100
0100
0100
0000
,
0000
0000
0000
0000
,
0001
0000
1000
0000
,
0010
0000
0100
0000
,
0010
0010
0010
0000
,
0000
0000
0000
0000
,
1000
0000
0100
0000
,
0010
0000
0001
0000
,
1000
1000
1000
0000
,
0000
0000
0000
0000
,
0001
0000
0100
0000
,
0010
0000
1000
0000
,
0001
0001
0001
0000
,
0000
0000
0000
0000
,
1000
0000
0100
0000
,
0010
0000
0001
0000
,
1000
0000
0100
0000
,
0010
0000
0002
0000
,
0000
0000
2003
0000
,
0000
0000
3010
0000
,
0020
0000
0000
0000
,
0030
0000
0000
0000
;

//---------------dance-single - Lisek----------------
#NOTES:
     dance-single:
     Lisek:
     Medium:
     5:
     0.305,0.344,0.261,0.268,0.000:
0000
0000
0000
0000
,
0000
0000
0000
0000
,
0000
0000
0000
0000
,
0000
0000
0000
0000
,
0010
0010
0000
0000
,
0100
0100
0000
0000
,
2002
0000
0000
0000
,
3003
0000
0000
0000
,
1000
0010
1000
1000
,
0001
0100
0001
0001
,
1001
1001
1001
1000
,
0001
0100
0110
0000
,
0001
0010
0001
0001
,
1000
0010
1000
1000
,
0110
0110
0110
0100
,
0001
0100
0101
0000
,
0100
0010
0100
0100
,
0001
1000
0001
0001
,
1001
1001
1001
0001
,
1000
0010
1010
0000
,
1000
0010
1000
1000
,
0010
0100
0001
0001
,
0110
0110
0110
0010
,
0100
0001
0101
0000
,
0001
1000
0010
1000
,
0001
0100
0001
0010
,
0001
1000
0010
1000
,
0001
0100
0010
0200
,
0310
1000
0010
0100
,
0010
1000
0100
1000
,
0010
0100
0010
1000
,
0010
0100
0020
0000
,
2030
3000
0200
0300
,
0020
0030
0002
0003
,
2000
3000
0002
0003
,
0200
0300
0020
0030
,
2000
3000
0200
0300
,
2000
3000
0002
0003
,
0200
0300
0020
0030
,
0200
0302
2003
3200
,
0320
0030
0002
0003
,
2000
3000
0020
0030
,
0200
0300
0002
0003
,
0020
0030
0002
0003
,
1000
0010
0100
0010
,
1000
0001
0010
0100
,
0010
0001
1000
0010
,
1001
0000
0000
0000
,
1000
0100
1000
1000
,
0001
0100
0001
0001
,
0011
0011
0011
0010
,
0100
1000
1100
0000
,
1000
0100
1000
1000
,
0001
0010
0001
0001
,
1010
1010
1010
0100
,
0010
0001
0011
0000
,
0001
1000
0001
0001
,
0010
0100
0010
0010
,
0110
0110
0110
0100
,
0010
0001
0101
0000
,
0001
1000
0010
0010
,
0100
0001
1000
1000
,
1001
1001
1001
0001
,
1000
0010
1001
0000
,
1000
0100
1000
0010
,
0100
0010
1000
0001
,
0010
0001
0100
0010
,
1000
0010
0200
0000
,
0320
0000
2030
0000
,
3002
0000
0103
0000
,
0220
0000
0000
0000
,
0330
0000
0000
0000
;

//---------------dance-single - Lisek----------------
#NOTES:
     dance-single:
     Lisek:
     Challenge:
     9:
     0.608,0.715,0.574,0.067,0.276: // measure 1
0000
0000
0000
0000
,  // measure 2
0000
0000
0000
0000
,  // measure 3
0000
0000
0000
0000
,  // measure 4
0000
0000
0000
0000
,  // measure 5
1100
0000
1100
0000
1000
0010
0100
0001
,  // measure 6
0011
0000
0011
0000
0001
0100
0010
1000
,  // measure 7
0100
0010
0001
0100
0010
1000
0001
0100
0010
1000
0001
0100
,  // measure 8
0020
0000
0000
0030
0000
0000
0000
0000
,  // measure 9
1010
0000
0000
0000
0101
0000
0001
0000
0100
0000
0010
1000
0100
0000
0010
0000
,  // measure 10
0110
0000
0000
0000
0011
0000
0010
0000
0001
0000
1000
0100
0010
0000
0001
0000
,  // measure 11
0011
0000
0110
0000
1100
0000
1000
0010
,  // measure 12
0001
0000
0010
0000
1000
0000
0100
0000
0010
0000
0100
1000
0100
0000
1000
0000
,  // measure 13
1010
0000
0000
0000
0110
0000
0100
0000
0001
0000
0010
0001
1000
0000
0010
0000
,  // measure 14
1010
0000
0000
0000
0110
0000
0010
0000
0100
0000
0001
1000
0010
0000
1000
0000
,  // measure 15
1100
0000
0110
0000
0011
0000
0001
0100
,  // measure 16
1000
0100
0001
0010
1000
0010
0011
0000
,  // measure 17
1001
0000
0000
0000
1010
0000
0010
0000
0100
0000
0001
0100
0010
0000
1000
0000
,  // measure 18
1100
0000
0000
0000
0110
0000
0010
0000
0100
0000
1000
0001
0010
0000
0001
0000
,  // measure 19
0011
0000
0101
0000
0110
0000
0010
1000
,  // measure 20
0010
0000
0001
0000
0010
0000
1000
0000
0100
0000
0001
0100
1000
0000
0010
0000
,  // measure 21
1010
0000
0000
0000
1100
0000
1000
0000
0001
0000
0100
0010
1000
0000
0100
0000
,  // measure 22
0110
0000
0000
0000
0011
0000
0001
0000
0100
0000
0010
1000
0001
0000
0010
0000
,  // measure 23
0110
0000
1100
0000
1001
0000
0100
0001
,  // measure 24
0100
1000
0100
0001
0200
0000
0300
0000
,  // measure 25
0001
0000
0100
0000
0010
0100
0010
1000
0100
0000
0010
0000
0001
0100
0010
0100
,  // measure 26
1000
0000
0100
0000
0010
1000
0100
0001
0100
0000
0010
0000
0001
0100
0010
1000
,  // measure 27
0100
0000
0010
0000
0100
1000
0010
0100
1000
0000
0100
0000
0010
1000
0100
0010
,  // measure 28
0001
0000
0000
0000
0000
0000
0100
0000
0000
0000
0000
0000
0010
0000
0000
0100
0000
0000
0001
0000
0000
0010
0000
0000
0001
0000
0000
1000
0000
0000
0100
0000
0000
1000
0000
0000
0010
0000
0100
0000
0001
0000
1000
0000
0000
0000
0000
0000
,  // measure 29
0001
0000
0100
0000
0001
0100
1000
0100
0010
0000
0100
0000
0010
1000
0100
0010
,  // measure 30
0100
0000
0010
0000
0001
0100
0010
1000
0100
0000
0010
0000
0100
1000
0010
0100
,  // measure 31
1000
0000
0100
0000
0010
1000
0100
0010
0100
0000
1000
0000
0001
0010
0100
0010
,  // measure 32
0001
0000
0100
0000
0010
1000
0100
0010
0200
0000
0000
0000
0000
0000
0300
0000
,  // measure 33
1000
0010
M001
0000
001M
1000
01M0
0000
,  // measure 34
0M01
0100
100M
0000
M010
0100
00M1
0000
,  // measure 35
010M
1000
01M0
0000
0M01
0010
100M
0000
,  // measure 36
M010
0001
10M0
0000
M010
0100
00M1
0000
,  // measure 37
100M
0100
M001
0000
100M
0010
M001
0000
,  // measure 38
0M01
0010
100M
0000
M001
0100
100M
0000
,  // measure 39
M010
0100
00M1
0000
100M
0010
M100
0000
,  // measure 40
0M01
0010
010M
1000
0100
0010
0001
1000
,  // measure 41
0010
0100
0010
0000
0100
0001
1000
0000
,  // measure 42
1000
0100
0001
0100
0010
0001
1000
0000
,  // measure 43
0001
0100
1000
0100
0010
1000
0100
0000
,  // measure 44
1000
0100
0001
0000
1000
0010
0001
0000
,  // measure 45
0101
0110
1010
1100
,  // measure 46
1010
0110
0101
0110
,  // measure 47
1010
1100
0110
0011
,  // measure 48
1001
0000
0000
0000
,  // measure 49
0101
0000
0000
0000
0110
0000
0010
0000
1000
0000
0100
1000
0010
0000
0100
0000
,  // measure 50
0110
0000
0000
0000
0101
0000
0001
0000
1000
0000
0100
0010
0001
0000
0100
0000
,  // measure 51
0110
0000
1010
0000
0101
0000
0001
0010
,  // measure 52
1000
0000
0010
0000
0001
0000
0100
0000
1000
0000
0100
0010
0100
0000
0001
0000
,  // measure 53
0101
0000
0000
0000
1001
0000
1000
0000
0010
0000
0100
0010
1000
0000
0010
0000
,  // measure 54
0110
0000
0000
0000
0101
0000
0001
0000
0010
0000
0001
0100
0010
0000
0100
0000
,  // measure 55
0101
0000
0110
0000
1010
0000
1000
0100
,  // measure 56
0001
0100
1000
0010
0100
0001
0101
0000
,  // measure 57
1001
0000
0000
0000
1010
0000
1000
0000
0100
0000
0010
0001
0010
0000
0001
0000
,  // measure 58
0011
0000
0000
0000
0101
0000
0001
0000
0010
0000
0100
1000
0100
0000
1000
0000
,  // measure 59
1010
0000
0110
0000
1001
0000
0001
0010
,  // measure 60
0001
0000
0100
0000
1000
0000
0100
0000
0001
0000
1000
0100
1000
0000
0010
0000
,  // measure 61
0110
0000
0000
0000
1001
0000
0001
0000
1000
0000
0010
0100
0001
0000
1000
0000
,  // measure 62
1001
0000
0000
0000
0110
0000
0100
0000
0010
0000
1000
0100
0010
0000
0001
0000
,  // measure 63
0101
0000
0110
0000
1010
0000
1000
0010
,  // measure 64
1000
0100
0001
0100
1000
0001
1001
0000
,  // measure 65
0001
0000
1000
0000
0010
0100
0001
0010
0100
0000
1000
0000
0100
0010
0001
1000
,  // measure 66
0100
0000
1000
0000
0010
0100
0001
1000
0010
0000
0100
0000
0001
0010
0001
1000
,  // measure 67
0010
0000
0100
0000
0001
0100
1000
0100
0010
0000
1000
0000
0100
0010
0001
0010
,  // measure 68
1000
0000
0010
0000
0001
0100
1000
0100
0020
0000
0000
0000
0000
0000
0000
0000
,  // measure 69
0230
0000
2300
0000
,  // measure 70
3200
0000
0301
0000
,  // measure 71
2002
0000
0000
0000
,  // measure 72
3003
0000
0000
0000
;
