#TITLE:Mynarco;
#SUBTITLE:;
#ARTIST:positive MAD-crew;
#TITLETRANSLIT:;
#SUBTITLETRANSLIT:;
#ARTISTTRANSLIT:;
#GENRE:;
#CREDIT:;
#BANNER:[jubeat] - Mynarco.png;
#BACKGROUND:[jubeat] - Mynarco-bg.png;
#LYRICSPATH:;
#CDTITLE:CDTitle.png;
#MUSIC:[jubeat] - Mynarco.mp3;
#OFFSET:-0.811;
#SAMPLESTART:32.603;
#SAMPLELENGTH:16.000;
#SELECTABLE:YES;
#BPMS:0.000=181.000
;
#STOPS:
;
#BGCHANGES:;
#KEYSOUNDS:;
#ATTACKS:;

//---------------dance-single - ----------------
#NOTES:
     dance-single:
     :
     Hard:
     8:
     0.642,0.582,0.420,0.523,0.000,380.000,45.000,56.000,0.000,0.000,0.000,0.642,0.582,0.420,0.523,0.000,380.000,45.000,56.000,0.000,0.000,0.000: // measure 0
0000
0000
0000
0000
,  // measure 1
0000
0000
0000
0000
,  // measure 2
0000
0000
0000
0000
,  // measure 3
0000
0000
0000
0000
,  // measure 4
0000
0000
0000
0000
,  // measure 5
0000
0000
0000
0000
,  // measure 6
0000
0000
0000
0000
,  // measure 7
0000
0000
0000
0000
,  // measure 8
1001
0000
0001
0100
0000
0100
0010
0000
,  // measure 9
1010
0000
1000
0100
0000
0100
0010
0000
,  // measure 10
0011
0000
0001
1000
0000
1000
0100
0000
,  // measure 11
1000
1000
1000
1000
0100
0010
0001
0000
,  // measure 12
0011
0000
0010
0100
0000
0100
1000
0000
,  // measure 13
1010
0000
0010
0100
0000
0100
0001
0000
,  // measure 14
1001
0000
1000
0010
0000
0010
0100
0000
,  // measure 15
0001
1000
0001
1000
0010
0100
0010
0100
,  // measure 16
0001
0000
1000
0001
0000
1000
0100
0000
,  // measure 17
1000
0010
0000
0100
0010
0000
1000
0000
,  // measure 18
0101
0000
0001
0010
0000
0010
0100
0000
,  // measure 19
1000
0100
0010
0001
0010
0100
1000
0010
,  // measure 20
0100
0000
0001
1000
0000
0001
0100
0000
,  // measure 21
0001
0000
0100
0010
0000
0100
0001
0000
,  // measure 22
1100
0000
1000
0001
0000
0010
0100
0000
,  // measure 23
2000
0000
0002
3003
,  // measure 24
0102
1000
0203
0302
,  // measure 25
0023
0100
0130
0110
,  // measure 26
2100
0001
3020
2030
,  // measure 27
3010
1000
0010
1000
0001
1000
0001
1000
,  // measure 28
0002
0100
2003
3200
,  // measure 29
0320
0001
0100
0032
,  // measure 30
0203
0010
0302
0010
,  // measure 31
2003
3001
0110
1001
,  // measure 32
2010
0001
3200
2300
,  // measure 33
3020
0100
0130
0110
,  // measure 34
0102
1000
0023
0032
,  // measure 35
0103
0001
0100
0001
1000
0001
1000
0001
,  // measure 36
2000
0010
3002
0023
,  // measure 37
0230
1000
0320
0032
,  // measure 38
2003
0010
3002
0010
,  // measure 39
0203
0310
1010
0101
,  // measure 40
1000
0100
0010
0010
0001
0100
0010
0010
,  // measure 41
0100
0010
1000
1000
0001
0010
0001
0100
,  // measure 42
0010
1000
0100
1000
0001
0010
0100
1000
,  // measure 43
0001
0000
0000
0010
,  // measure 44
1001
0000
1000
0100
0010
0100
0001
0000
,  // measure 45
0001
0100
0010
0100
1000
0000
1000
0010
,  // measure 46
0100
0010
0001
0000
0001
0010
0100
0010
,  // measure 47
1000
0000
1000
0010
0100
0001
1000
0000
,  // measure 48
1001
0000
0001
0100
0010
0100
1000
0000
,  // measure 49
1000
0100
0010
0100
0001
0000
0001
0010
,  // measure 50
0100
0010
1000
0000
1000
0010
0100
0010
,  // measure 51
0001
0000
1000
0100
0010
0001
1000
0000
,  // measure 52
1010
0000
0010
0100
0001
1000
1100
0000
,  // measure 53
0100
1000
0001
1000
1010
0000
1000
0010
,  // measure 54
0100
0001
0011
0000
0010
0001
1000
0001
,  // measure 55
0101
0000
0001
0100
1000
0010
0001
0000
,  // measure 56
1001
0000
1000
0100
0001
0100
1001
0000
,  // measure 57
0001
0100
1000
0100
1001
0000
1000
0010
,  // measure 58
0001
0010
1001
0000
0001
0010
1000
0010
,  // measure 59
1001
0000
1000
0100
0001
0010
1000
0000
,  // measure 60
0001
0000
0000
1000
0000
0001
0010
0100
,  // measure 61
0001
0100
1000
0100
0010
0001
1000
0010
,  // measure 62
0120
1000
0230
0302
,  // measure 63
2003
0010
0001
3100
,  // measure 64
1100
1100
1001
0101
,  // measure 65
0001
0100
0001
0100
0010
1000
0010
1000
,  // measure 66
0200
0320
0032
2003
,  // measure 67
3020
0100
0130
0110
,  // measure 68
0102
1003
2100
3001
,  // measure 69
1000
0001
1000
0001
0010
0100
0010
0100
,  // measure 70
2000
0010
3002
2003
,  // measure 71
3200
0010
0310
0110
,  // measure 72
0011
0011
1001
1010
,  // measure 73
1000
0010
1000
0010
0100
0001
0100
0001
,  // measure 74
0020
0032
0203
0320
,  // measure 75
2030
0001
3200
0310
,  // measure 76
0012
1003
2010
3001
,  // measure 77
1000
0001
1000
0001
0010
0100
1000
0100
;

//---------------dance-single - ----------------
#NOTES:
     dance-single:
     :
     Medium:
     6:
     0.462,0.581,0.374,0.364,0.000,267.000,40.000,39.000,0.000,0.000,0.000,0.462,0.581,0.374,0.364,0.000,267.000,40.000,39.000,0.000,0.000,0.000:
0000
0000
0000
0000
,
0000
0000
0000
0000
,
0000
0000
0000
0000
,
0000
0000
0000
0000
,
0000
0000
0000
0000
,
0000
0000
0000
0000
,
0000
0000
0000
0000
,
0000
0000
0000
0000
,
1001
0000
0000
0001
0000
0000
0100
0000
,
0010
0000
1000
0100
0000
0000
1000
0000
,
0001
0000
0000
0010
0000
0000
0100
0000
,
2000
0000
0000
0001
0000
0000
3001
0000
,
0010
0000
0000
0001
0000
0000
1000
0000
,
0010
0000
0000
0100
0000
0000
0001
0000
,
1000
0000
0000
0100
0000
0000
0010
0000
,
0002
0000
0000
1000
0000
0000
1003
0000
,
0110
0000
0000
0010
0000
0000
1000
0000
,
0100
0000
1000
0001
0000
0000
0010
0000
,
0100
0000
1000
0100
0000
0000
0010
0000
,
0002
0000
0000
0100
0000
0000
1003
0000
,
0110
0000
0000
0100
0000
0000
0001
0000
,
1000
0000
0001
0100
0000
0000
0010
0000
,
1000
0000
0000
0001
0000
0000
0100
0000
,
0020
0000
0200
0330
,
1002
0000
1000
1003
,
0100
0100
0100
1100
,
0102
0000
0100
0203
,
0320
0000
0000
0030
,
2010
0000
0010
3010
,
0100
0100
0100
0101
,
2100
0000
3002
0000
,
0203
0000
0010
0310
,
2001
0000
0010
0010
,
3001
0001
0001
0110
,
1002
0000
0010
0023
,
0230
0000
0000
0300
,
2100
0000
0001
3002
,
0023
0000
0100
0130
,
2002
3003
0220
0330
,
0202
0303
1010
0101
,
1000
0010
1000
0001
,
0010
0001
1000
0001
,
0010
0100
1000
0001
,
0110
0000
0000
0000
,
1001
0000
1000
0000
0010
0100
0010
0000
,
1000
0000
0100
0010
0100
0000
1000
0000
,
0001
0100
0001
0000
1000
0000
0100
0001
,
0100
0000
1000
0001
1000
0001
1000
0000
,
1001
0000
0001
0000
0010
0100
0010
0000
,
0001
0000
0100
0010
0100
0000
0001
0000
,
0010
1000
0010
0000
0001
0000
0100
1000
,
0100
0000
0001
1000
0001
1000
0001
0000
,
0101
1001
0101
1001
,
1000
0010
1000
0010
1000
0000
0110
0000
,
1010
0000
0110
0000
0010
0100
0010
0100
,
0010
0110
0101
0110
,
1010
0000
1000
0010
1000
0010
1000
0000
,
1000
0001
1000
0001
1000
0000
0001
1000
,
0001
1000
0001
0000
0001
0010
0001
0010
,
0001
0100
0010
1001
,
0100
0000
0000
0100
0000
0000
0100
0000
,
0100
0100
0100
0100
,
1002
1000
0010
0010
,
2003
0000
0010
3001
,
0100
0100
1000
0001
,
0100
0010
0100
0010
0100
0010
0100
0000
,
0020
1000
1000
0130
,
0200
0010
0010
0001
,
0302
0000
0023
0000
,
0230
0000
1300
0001
,
2001
0001
0010
0010
,
3001
0001
0100
0110
,
0101
1001
1100
1001
,
0001
1000
0001
1000
0001
1000
0001
1000
,
0020
1000
0100
0100
,
2030
0000
0010
0010
,
3002
0000
0203
0000
,
0320
0000
1030
0001
;

//---------------dance-single - ----------------
#NOTES:
     dance-single:
     :
     Easy:
     4:
     0.342,0.363,0.093,0.364,0.000,207.000,10.000,39.000,0.000,0.000,0.000,0.342,0.363,0.093,0.364,0.000,207.000,10.000,39.000,0.000,0.000,0.000:
0000
0000
0000
0000
,
0000
0000
0000
0000
,
0000
0000
0000
0000
,
0000
0000
0000
0000
,
0000
0000
0000
0000
,
0000
0000
0000
0000
,
0000
0000
0000
0000
,
0000
0000
0000
0000
,
1000
1000
0010
0100
,
0001
0001
0001
0000
,
0001
0001
0100
0010
,
1000
1000
1000
0000
,
0100
1000
0001
0000
,
0100
0001
1000
0000
,
0100
1000
0001
1000
,
0020
0000
0030
0000
,
1000
0001
0010
0010
,
0001
1000
0100
0000
,
1000
0001
0100
0010
,
1000
1000
1000
0000
,
0001
1000
0100
0000
,
1000
0001
0100
0000
,
0010
0100
0010
0100
,
0002
0000
2003
0000
,
3020
0000
0100
0100
,
0230
0000
0000
0301
,
2000
0000
0100
0100
,
3200
0000
0000
0300
,
2000
0000
0001
0001
,
3002
0000
0000
0010
,
0023
0000
0230
0000
,
2300
0000
3001
1000
,
0020
0000
1000
1000
,
2030
0000
0000
3001
,
0002
0000
0100
0100
,
0203
0000
0000
0300
,
0020
0000
0100
0100
,
0230
0000
0001
0001
,
0302
0000
0023
0000
,
0230
0000
1300
1000
,
1000
0100
0001
0000
,
0001
0100
1000
0000
,
0010
0100
0100
0010
,
1001
0000
0000
0000
,
0102
0000
1000
1003
,
0010
0100
0010
0000
,
0100
0001
1000
0100
,
0010
0100
1000
0001
,
2001
0000
0010
3010
,
0100
0001
0100
0000
,
0001
0010
0001
0100
,
0001
0010
0100
1000
,
0001
1000
0100
1000
,
1100
1001
1010
0000
,
1000
0001
0100
0001
,
0101
1001
0011
0000
,
1000
0001
0100
0001
,
1000
0100
1000
0010
,
0100
0010
1000
0100
,
1000
0001
0010
0100
,
2002
0000
3003
0000
,
1000
1000
1000
1000
,
0020
0000
1000
1000
,
2030
0000
0000
3001
,
0001
0001
0010
0100
,
2000
0000
0000
3000
,
0001
0001
1000
0100
,
0020
0000
0000
0031
,
0200
0000
0302
0000
,
2003
0000
0100
3100
,
2000
0000
0010
0010
,
3020
0000
0000
0130
,
0001
1000
0001
1000
,
0200
0000
0000
0300
,
1000
0001
0010
0100
,
2000
0000
3010
0100
,
0002
0000
2003
0000
,
3020
0000
0100
0130
;

//---------------dance-single - ----------------
#NOTES:
     dance-single:
     :
     Beginner:
     2:
     0.131,0.290,0.093,0.196,0.000,67.000,10.000,21.000,0.000,0.000,0.000,0.131,0.290,0.093,0.196,0.000,67.000,10.000,21.000,0.000,0.000,0.000:
0000
0000
0000
0000
,
0000
0000
0000
0000
,
0000
0000
0000
0000
,
0000
0000
0000
0000
,
0000
0000
0000
0000
,
0000
0000
0000
0000
,
0000
0000
0000
0000
,
0000
0000
0000
0000
,
1000
0000
0000
0000
,
0000
0000
0000
0000
,
1000
0000
0000
0000
,
0000
0000
0000
0000
,
0001
0000
0000
0000
,
0000
0000
0000
0000
,
0001
0000
0000
0000
,
0000
0000
0000
0000
,
0010
0000
0000
0000
,
0000
0000
0000
0000
,
0010
0000
0000
0000
,
0000
0000
0000
0000
,
0100
0000
0000
0000
,
0000
0000
0000
0000
,
0100
0000
0000
0000
,
0000
0000
0000
0000
,
1001
0000
0000
0000
,
0000
0000
0000
0000
,
0100
0000
0000
0000
,
0100
0000
0000
0000
,
1001
0000
0000
0000
,
0000
0000
0000
0000
,
0010
0000
0000
0000
,
0010
0000
0000
0000
,
1001
0000
0000
0000
,
0000
0000
0000
0000
,
1000
0000
0000
0000
,
0001
0000
0000
0000
,
1001
0000
0000
0000
,
0000
0000
0000
0000
,
0001
0000
0000
0000
,
1000
0000
0000
0000
,
0001
0000
0001
0000
,
0001
0000
0000
0000
,
0100
0000
0100
0000
,
0100
0000
0000
0000
,
0002
0003
0000
0000
,
0002
0003
0000
0000
,
2000
3000
0000
0000
,
2000
3000
0000
0000
,
0200
0300
0000
0000
,
0200
0300
0000
0000
,
0020
0030
0000
0000
,
0020
0030
0000
0000
,
2002
3003
0000
0000
,
0220
0330
0000
0000
,
2002
3003
0000
0000
,
0200
0300
0000
0000
,
0220
0330
0000
0000
,
2002
3003
0000
0000
,
0220
0330
0000
0000
,
0010
0000
0000
0000
,
0010
0000
0000
0000
,
0000
0000
0000
0000
,
0001
0000
1000
0000
,
0001
0000
0000
0000
,
0100
0000
0100
0000
,
0100
0000
0000
0000
,
1000
0000
0001
0000
,
1000
0000
0000
0000
,
0010
0000
0010
0000
,
0010
0000
0000
0000
,
0100
0000
0010
0000
,
0100
0000
0000
0000
,
0001
0000
0001
0000
,
0001
0000
0000
0000
,
0010
0000
0100
0000
,
0010
0000
0000
0000
,
1000
0000
0000
0000
,
1000
0000
1000
0000
;
