#TITLE:Joyful;
#SUBTITLE:;
#ARTIST:♪♪♪♪♪;
#TITLETRANSLIT:;
#SUBTITLETRANSLIT:;
#ARTISTTRANSLIT:;
#GENRE:Pop-Rock;
#CREDIT:;
#BANNER:[jubeat] - Joyful.png;
#BACKGROUND:[jubeat] - Joyful-bg.png;
#LYRICSPATH:;
#CDTITLE:;
#MUSIC:[jubeat] - Joyful.mp3;
#OFFSET:-0.483022;
#SAMPLESTART:60.259972;
#SAMPLELENGTH:15.000000;
#SELECTABLE:YES;
#BPMS:0.000000=159.000000
;
#STOPS:
;
#BGCHANGES:;
#KEYSOUNDS:;
#ATTACKS:;

//---------------dance-single - ----------------
#NOTES:
     dance-single:
     :
     Hard:
     9:
     0.707179,0.635902,0.440240,0.078265,0.185879,453.000000,45.000000,8.000000,0.000000,0.000000,0.000000,0.707179,0.635902,0.440240,0.078265,0.185879,453.000000,45.000000,8.000000,0.000000,0.000000,0.000000:
0000
0000
0000
0000
,
0000
0000
0000
2000
,
3100
1000
0100
1000
0010
1000
0010
0100
,
0001
0000
0010
0000
0001
0000
0010
0000
0100
1000
0100
1000
0001
0100
0001
0100
,
0010
0000
1000
0000
0001
0000
0000
1000
0001
0010
0100
0000
0010
0000
0000
0100
,
1000
0000
0010
0000
0100
0000
0000
0100
0001
0010
0200
0000
0000
0000
0000
0000
,
1300
0000
1100
0000
1000
0000
0000
0001
1000
0010
0100
0000
0010
0000
0000
0100
,
0010
0000
1000
0001
0010
0000
0000
0001
0010
0000
0100
2000
0000
0000
0000
0000
,
3001
0001
1000
0010
0100
0100
0001
0010
,
0100
0100
0010
0100
0000
0110
0100
0100
,
1000
1000
0001
1000
0100
0100
1000
0010
,
0010
0001
0010
0100
0100
0001
0001
1000
,
0100
0100
1000
0001
1000
1000
0001
0100
,
0001
0001
0010
0100
0000
0110
0100
0100
,
1000
1000
0001
1000
0100
0100
1000
0010
,
0010
0000
0001
0000
0001
0000
0010
0000
0010
0100
0010
0000
0100
0000
0001
0000
,
1000
0000
0100
1000
0100
1000
0001
0100
,
0010
0100
0001
0010
0000
0110
0000
0100
,
1000
0000
0001
1000
0001
0000
0010
0100
,
0010
0010
0001
0100
0000
0110
0000
0010
,
1000
0000
0001
1000
0020
0000
0130
0010
,
1000
0000
0100
0001
0100
0001
1000
0000
0010
0000
0100
1000
0100
1000
0001
0000
,
1001
0000
0000
0001
1001
0000
0000
0100
,
1001
0000
0110
0000
1001
0001
0010
0100
,
1100
0000
0010
0100
0101
0000
0100
0010
,
1010
0000
0100
0010
0001
0001
1000
0010
,
0000
1010
1000
0100
0010
0001
0010
0100
,
1000
1000
0001
0100
0000
0101
0000
0001
,
1010
0000
1000
0100
0011
0000
0001
0010
,
1100
0000
1000
0010
0100
0100
0010
2000
,
0000
3001
1000
0000
0100
0100
0010
0001
,
1000
0000
1000
0000
0010
0000
1010
0000
0000
0000
1001
0000
0001
1000
0001
0000
,
0010
0000
0010
0100
1000
0010
0100
0010
,
1000
0001
0010
0100
0000
0110
0000
0100
,
1000
1000
0001
1000
0010
0001
1000
0100
,
0110
0000
0010
1000
0000
1001
0000
0001
,
0010
0010
0100
0010
0001
1000
0010
0001
,
0011
0000
0000
0000
0010
0000
1010
0000
1000
0001
1000
0001
0010
0100
0010
0000
,
0110
0000
0000
0100
0110
0000
0000
1000
,
0110
0000
0000
0000
1001
0000
0000
0000
0110
0000
0010
0000
0001
0100
0001
0000
,
0101
0000
0001
0010
0011
0000
1000
0100
,
1100
0000
1000
0010
0100
0100
0010
1000
,
0000
0001
0010
0100
1000
0100
0010
0001
,
1000
1000
0010
1010
0000
1001
0000
0000
,
1010
0000
1000
0100
0101
0000
1000
0010
,
0011
0000
0001
0100
1000
1000
0001
0020
,
0000
0130
0010
0000
1000
1000
0001
1000
,
0100
0000
0100
0000
0010
0000
0001
0000
0000
0000
0010
0001
0100
0010
0000
0000
,
0100
0010
1000
0010
0001
0001
0010
0100
,
0000
0000
0001
0000
0100
0000
0010
0000
1000
0000
0001
0000
1000
0100
0010
0001
,
0100
0010
0001
0010
1000
1000
0010
0100
,
0000
0000
0001
0000
0000
0000
1000
0000
0001
1000
0000
0000
1001
0000
0000
0000
,
0010
0100
0001
0100
1000
1000
0100
0010
,
0000
0000
1000
0000
0000
0000
0001
0000
1000
0000
0100
0000
0010
0000
0100
0010
,
0100
0000
0100
1000
0000
1000
0001
0000
0100
0000
0100
0001
0000
0001
1000
0000
,
0200
0000
0000
0000
0000
0000
0000
0000
0000
0000
0000
0300
1001
0000
0000
0000
,
1000
1000
0010
0100
0010
0010
1000
0001
,
0010
0010
0100
0010
0000
0011
0010
0010
,
0110
0100
1000
0001
0100
0100
0001
0010
,
0010
1000
1000
0010
0100
1000
1000
0001
,
0101
0100
0010
1000
0001
0001
1000
0001
,
0100
0100
0001
0010
0000
0110
0100
1000
,
1100
1000
0001
0100
0001
0001
0100
0010
,
0010
0000
0001
0000
0001
0000
0010
0000
0100
0001
0100
0000
0001
0100
0010
1000
,
0200
0000
0000
0000
,
0300
0000
0000
0000
;

//---------------dance-single - ----------------
#NOTES:
     dance-single:
     :
     Easy:
     3:
     0.248770,0.317951,0.322843,0.039132,0.000000,141.000000,33.000000,4.000000,0.000000,0.000000,0.000000,0.248770,0.317951,0.322843,0.039132,0.000000,141.000000,33.000000,4.000000,0.000000,0.000000,0.000000:
0000
0000
0000
0000
,
0000
0000
0000
0000
,
1000
0000
1000
0000
,
0001
0000
0001
0000
,
0011
0000
0000
0000
,
0000
0000
0000
0000
0000
1000
0000
0000
,
1010
0000
0000
0000
,
0000
0000
0000
0000
0000
0001
0000
0000
,
0101
0000
1001
0000
,
1001
0000
0110
0000
,
1100
0000
1001
0000
,
0110
0000
0110
0000
,
0011
0000
1001
0000
,
1001
0000
0110
0000
,
1010
0000
1001
0000
,
0110
0000
0110
0000
,
0000
0001
0000
0001
,
0010
0100
0010
0000
,
0000
0100
0000
0100
,
1000
0010
1000
0000
,
0000
0001
0000
0001
,
0010
0100
0010
0000
,
0110
0000
0110
0000
,
0110
0110
0110
0000
,
0100
0000
1000
0000
,
0100
0000
1000
1000
,
0001
0100
0010
1000
,
0001
0000
0001
0000
,
1000
0100
0010
0001
,
1000
0100
0010
0001
,
1000
0000
1000
0000
,
0001
0000
0001
0000
,
0000
0100
0000
0100
,
0001
0010
0001
0000
,
0000
0010
0000
0010
,
0100
0000
0100
0000
,
0000
1000
0000
1000
,
0010
0100
0010
0000
,
0110
0000
0110
0000
,
0110
0110
0110
0000
,
0100
0000
0001
0000
,
0100
0000
0001
0001
,
1000
0010
0100
0001
,
1000
0000
1000
0000
,
0001
0010
0100
1000
,
0001
0010
0100
1000
,
0001
0000
0001
0000
,
1000
0000
1000
0000
,
0010
0000
0010
0000
,
0010
0000
0010
0000
,
0100
0000
0100
0000
,
0100
0000
0100
0000
,
0001
0000
0001
0000
,
0001
0000
0001
0000
,
1000
0000
1000
0000
,
2002
0000
0000
3003
,
1000
0000
1000
0000
,
0100
0000
0100
0000
,
0110
0000
0010
0000
,
0001
0000
0001
0000
,
1001
0000
1000
0000
,
0010
0000
0010
0000
,
0110
0000
0100
0000
,
0001
0000
0001
0000
,
2002
0000
0000
0000
,
3003
0000
0000
0000
;

//---------------dance-single - ----------------
#NOTES:
     dance-single:
     :
     Beginner:
     1:
     0.107614,0.190771,0.127180,0.058699,0.000000,58.000000,13.000000,6.000000,0.000000,0.000000,0.000000,0.107614,0.190771,0.127180,0.058699,0.000000,58.000000,13.000000,6.000000,0.000000,0.000000,0.000000:
0000
0000
0000
0000
,
0000
0000
0000
0000
,
0000
0000
0000
0000
,
0000
0000
0000
0000
,
1001
0000
0000
0000
,
0000
0000
0000
0000
,
1001
0000
0000
0000
,
0000
0000
0000
0000
,
1000
0000
1000
0000
,
1000
0000
0000
0000
,
1000
0000
1000
0000
,
1000
0000
0000
0000
,
0001
0000
0001
0000
,
0001
0000
0000
0000
,
0001
0000
0001
0000
,
0001
0000
0000
0000
,
0010
0000
0000
0000
,
0000
0000
0000
0000
,
0010
0000
0000
0000
,
0000
0000
0000
0000
,
0100
0000
0000
0000
,
0000
0000
0000
0000
,
0110
0000
0000
0000
,
0110
0000
0110
0000
,
0100
0000
0000
0000
,
0100
0000
0000
0000
,
2000
0000
0000
0000
,
0000
0000
0000
0000
,
3001
0000
0000
0000
,
0001
0000
0000
0000
,
0020
0000
0000
0000
,
0000
0000
0000
0000
,
0130
0000
0000
0000
,
0100
0000
0000
0000
,
1000
0000
0000
0000
,
1000
0000
0000
0000
,
0001
0000
0000
0000
,
0001
0000
0000
0000
,
1001
0000
0000
0000
,
1001
0000
1001
0000
,
1000
0000
0000
0000
,
1000
0000
0000
0000
,
0020
0000
0000
0000
,
0000
0000
0000
0000
,
0130
0000
0000
0000
,
0100
0000
0000
0000
,
0002
0000
0000
0000
,
0000
0000
0000
0000
,
1003
0000
1000
0000
,
1000
0000
0000
0000
,
0001
0000
0001
0000
,
0001
0000
0000
0000
,
0010
0000
0010
0000
,
0010
0000
0000
0000
,
0100
0000
0100
0000
,
0100
0000
0000
0000
,
0110
0000
0000
0000
,
0000
0000
0000
0000
,
1001
0000
0000
0000
,
0000
0000
0000
0000
,
0110
0000
0000
0000
,
0000
0000
0000
0000
,
1001
0000
0000
0000
,
0000
0000
0000
0000
,
2002
0000
0000
0000
,
3003
0000
0000
0000
;

//---------------dance-single - ----------------
#NOTES:
     dance-single:
     :
     Medium:
     6:
     0.452818,0.445131,0.254361,0.107614,0.009783,287.000000,26.000000,11.000000,0.000000,0.000000,0.000000,0.452818,0.445131,0.254361,0.107614,0.009783,287.000000,26.000000,11.000000,0.000000,0.000000,0.000000:
// measure 0
0000
0000
0000
0000
,  // measure 1
0000
0000
0000
0000
,  // measure 2
0010
0000
1000
0001
1000
0000
0010
0000
,  // measure 3
0100
0000
0001
1000
0001
0000
0010
0000
,  // measure 4
0100
0100
0000
0000
1000
0000
1000
0000
,  // measure 5
0001
0000
0001
0000
0000
0101
0000
0000
,  // measure 6
0100
0100
0000
0000
0001
0000
0001
0000
,  // measure 7
1000
0000
1000
0000
0000
1010
0000
0000
,  // measure 8
1000
0001
0000
0000
1000
0001
0000
0000
,  // measure 9
0010
0100
0000
0010
0000
0100
0000
0000
,  // measure 10
1000
0100
0000
0000
1000
0100
0000
0010
,  // measure 11
0010
0001
0000
0010
0000
0100
0000
0000
,  // measure 12
1000
0001
0000
0000
1000
0001
0000
0000
,  // measure 13
0010
0100
0000
0010
0000
0100
0000
0000
,  // measure 14
0010
0001
0000
0000
0010
0001
0000
0100
,  // measure 15
0100
0010
0000
1000
0000
0001
0000
0000
,  // measure 16
0000
0000
1000
0000
0100
1000
0010
0000
,  // measure 17
0100
0010
0100
0010
0000
0110
0000
0000
,  // measure 18
0100
0000
0001
0000
0010
0000
0100
0010
,  // measure 19
0001
1000
0001
1000
0000
1010
0000
0000
,  // measure 20
1000
0000
0001
1000
0010
0000
0100
0010
,  // measure 21
1000
0100
1000
0100
0000
1000
0001
0010
,  // measure 22
0100
0000
0000
0010
0100
0000
0000
0010
,  // measure 23
0110
0110
0110
0100
,  // measure 24
1000
0000
0100
1000
0010
0000
0100
0001
,  // measure 25
0010
0000
0100
1000
0001
0100
0010
2000
,  // measure 26
0000
3002
0000
0000
0000
0000
0000
0000
,  // measure 27
1003
1000
0000
1001
0000
0110
0000
0000
,  // measure 28
0010
0000
1000
0100
0010
0000
0001
0100
,  // measure 29
0010
0000
1000
0010
0100
0001
1000
0200
,  // measure 30
0000
0320
0000
0000
0000
0000
0000
0000
,  // measure 31
0031
0001
0000
0101
0000
1001
0000
0000
,  // measure 32
1000
0000
1000
0000
1000
0001
1000
0000
,  // measure 33
0001
0000
0001
0000
0001
0010
0001
0010
,  // measure 34
0100
0000
0100
0000
0100
1000
0100
0000
,  // measure 35
1000
0000
1000
0000
1000
0001
0010
0100
,  // measure 36
0010
0000
0010
0000
0010
0001
0010
0000
,  // measure 37
0011
0000
0000
0101
0000
0000
0110
0000
,  // measure 38
1001
0000
0000
1000
0001
0000
0000
0100
,  // measure 39
0110
0110
0110
0010
,  // measure 40
1000
0000
0010
1000
0100
0000
1000
0100
,  // measure 41
0010
0000
0100
0010
0001
0100
0010
2000
,  // measure 42
0000
3002
0000
0000
0000
0000
0000
0000
,  // measure 43
1003
1000
0000
1001
0000
0110
0000
0000
,  // measure 44
1000
0000
0100
1000
0010
0000
0100
0010
,  // measure 45
1000
0000
0001
1000
0100
0010
0100
0020
,  // measure 46
0000
0230
0000
0000
0000
0000
0000
0000
,  // measure 47
1300
1000
0000
1100
0000
1001
0000
0000
,  // measure 48
0001
0100
0001
0000
1000
0100
1000
0000
,  // measure 49
0001
0010
0001
0010
0100
0000
0110
0000
,  // measure 50
0010
0001
0010
0000
0100
1000
0100
0000
,  // measure 51
1000
0010
0100
0010
1000
0000
1001
0000
,  // measure 52
0001
0010
0100
0000
0010
0100
1000
0000
,  // measure 53
0001
1000
0010
0100
0010
0000
1000
0000
,  // measure 54
0001
0000
0000
0010
0000
0000
0100
0000
1000
0000
0000
0010
0000
0000
0100
0000
,  // measure 55
0002
0000
0000
1003
,  // measure 56
0001
1000
0000
0000
0001
1000
0000
0000
,  // measure 57
0010
0100
0000
0010
0000
0100
0000
0000
,  // measure 58
0001
0100
0000
0001
0010
0000
0000
0100
,  // measure 59
0100
1000
0000
0010
0000
1010
0000
0000
,  // measure 60
1000
0001
0000
0000
1000
0001
0000
0000
,  // measure 61
0010
0100
0000
0010
0000
0100
0000
0000
,  // measure 62
1000
0100
0000
0000
0001
0100
0000
0010
,  // measure 63
0010
0001
0000
0100
0000
0010
0000
0000
,  // measure 64
0220
0000
0000
0000
,  // measure 65
0330
0000
0000
0000
;
