#TITLE:JOMANDA;
#SUBTITLE:;
#ARTIST:DJ YOSHITAKA;
#TITLETRANSLIT:;
#SUBTITLETRANSLIT:;
#ARTISTTRANSLIT:;
#CREDIT:;
#BANNER:[jubeat] - JOMANDA.png;
#BACKGROUND:[jubeat] - JOMANDA-bg.png;
#LYRICSPATH:;
#CDTITLE:;
#MUSIC:[jubeat] - JOMANDA.mp3;
#OFFSET:-1.655;
#SAMPLESTART:61.849;
#SAMPLELENGTH:15.000;
#SELECTABLE:YES;
#BPMS:0.000=195.000,127.000=160.000,131.000=140.000,133.000=120.000,135.000=90.000,139.500=95.000,139.750=100.000,140.000=110.000,141.000=120.000,143.000=130.000,145.000=140.000,147.000=150.000,149.000=170.000,151.000=180.000,151.500=190.000,154.000=210.000,157.000=220.000,158.000=240.000,159.000=250.000,163.000=270.000,167.000=300.000,186.000=195.000,319.000=390.000,320.000=195.000;
#STOPS:62.000=0.300
,185.000=0.200
,253.500=0.010
,286.500=0.920
,319.000=0.160
;
#BGCHANGES:;

//---------------dance-single - ----------------
#NOTES:
     dance-single:
     :
     Easy:
     5:
     0.319,0.471,0.129,0.015,0.008:
0000
0000
0000
0000
,
0000
0000
0000
0000
,
0000
0000
0000
0000
,
0000
0000
0000
0000
,
1000
0000
0000
0000
0001
0000
0000
1000
,
0000
0001
0000
1000
0000
0000
0000
0000
,
0001
0000
0010
0000
,
0001
0000
0010
0000
,
0100
0000
0000
0000
1000
0000
0000
0100
,
0000
0010
0000
0001
0000
0000
0000
0000
,
1000
0000
0000
0000
0010
0000
0000
0100
,
0000
0010
0000
0100
0000
0000
0000
0000
,
0001
0000
0100
0000
,
0001
0000
0100
0000
,
0001
0000
0010
0000
,
0100
0000
0000
1000
0100
0000
1000
0000
,
0100
1000
0100
0010
,
0001
0010
0001
1000
,
0100
0010
0001
1000
,
0100
0010
0001
1000
,
0010
1000
0010
0100
,
0001
0100
0001
0100
,
0010
0100
0010
1000
,
0010
1000
0010
0100
,
0001
0100
0001
0010
,
0001
0010
0001
0010
,
0100
1000
0001
0010
,
0100
1000
0100
1000
,
0100
0010
0001
0010
,
0001
0010
0100
1000
,
0001
0010
0100
1000
,
0001
0010
0100
1100
,
0000
1000
0000
1010
,
0000
0110
0000
0101
,
0001
0000
0000
1000
1100
0000
1100
0000
,
0100
0000
0000
1000
1010
0000
0110
0000
,
0010
0000
0000
0010
0110
0000
1001
0000
,
1000
0000
0000
0001
0011
0000
0101
0000
,
0100
0000
0000
0001
0100
0000
0011
0000
,
0010
0000
0000
0001
0010
0000
1100
0000
,
0100
0000
0000
1000
0100
0000
1010
0000
,
0010
0000
0000
1000
0001
0000
2002
0000
,
0000
0000
0000
0000
,
0000
0000
0000
0000
,
0000
0000
0000
0000
,
0000
0000
0000
0000
,
0000
0000
3003
0000
1000
0000
0000
0010
,
0000
1000
0000
0010
,
0000
0100
0000
0001
,
0000
1000
0000
0010
,
0000
0100
0000
0001
,
0000
1000
0000
0100
,
0000
1000
0000
0001
,
0000
0010
0000
0100
,
0000
1000
0000
0001
,
0000
0100
0000
0010
,
0000
1000
0000
0100
,
0000
0010
0000
0001
,
0000
0010
0000
0100
,
0000
1000
0000
0001
,
0000
0010
0000
0100
,
0000
1000
0000
0001
,
0000
0000
0100
0000
0010
0000
0000
1000
,
0000
0010
1000
0100
,
0010
0001
1000
0100
,
1000
0100
0010
0001
,
0010
0001
0010
0100
,
0010
0001
0010
0100
,
1000
0100
0010
0100
,
1000
0100
1000
0100
,
0010
0000
0000
0000
0001
0000
0100
0000
0000
0000
0010
0000
0000
1000
0000
0000
,
0100
0000
0000
0010
0000
0000
0001
0000
1000
0000
0001
0000
1000
0000
0000
0000
,
0000
0000
0000
0010
,
0000
0000
0000
0100
,
0000
0000
0000
0001
,
0000
0000
0000
0010
,
0000
0000
0000
0100
,
0000
0000
0000
1000
,
0000
0000
0000
0001
,
0000
0010
0000
0000
0100
0000
1000
0000
,
0100
1000
0100
0010
,
0001
1000
0100
1000
,
0100
0010
0001
0010
,
0001
1000
0100
0010
,
0001
1000
0010
1000
,
0010
0100
0001
0100
,
0001
0000
0010
0000
0100
1000
0000
0010
,
0000
0100
0010
1000
,
0100
0010
0001
1000
,
0100
1000
1000
0010
,
0010
1000
1000
0100
,
0100
0010
0010
0001
,
0001
0010
0100
1000
,
0001
0010
0100
1000
,
0001
0000
0100
0000
0001
0010
0000
0000
,
0100
0000
0000
0010
0001
0000
0011
0000
;

//---------------dance-single - ----------------
#NOTES:
     dance-single:
     :
     Medium:
     7:
     0.452,0.544,0.204,0.068,0.057:
0000
0000
0000
0000
,
0000
0000
0000
0000
,
0000
0000
0000
0000
,
0000
0000
0000
0000
,
1000
0000
0100
0000
0010
0000
0000
0010
,
0000
0100
0000
1000
0000
0001
0000
0000
,
1000
0100
1000
0001
,
0010
0001
0010
0100
,
1000
0000
0001
0000
1000
0000
0000
0010
,
0000
1000
0000
0001
0000
0100
0000
0000
,
0010
0000
1000
0000
0010
0000
0000
1000
,
0000
0001
0000
1000
0000
0001
0000
0000
,
1000
0100
0010
0001
,
1001
1000
0100
0010
,
1001
0100
1001
0010
,
0001
0000
0000
0010
0000
0000
0100
0000
1000
0000
0000
0000
1000
0000
0100
0000
,
0010
0000
0010
0100
1000
0000
1000
0001
,
0010
0000
0010
0001
0100
0000
0100
0010
,
1000
0000
1000
0001
1000
0000
0001
1000
,
0001
0000
0001
0010
0100
0000
0100
0010
,
0001
0000
0010
0100
0010
0000
0100
0010
,
0100
0000
0100
1000
0100
0000
1000
0100
,
1000
0000
0100
0010
0001
0000
0001
0010
,
0100
0000
0001
1000
0001
0000
1001
0000
,
1000
1000
0100
0100
,
1000
1000
0010
0010
,
0100
0100
0001
0001
,
0010
0010
0100
0100
,
1000
1000
0010
0010
,
0100
0000
0100
0000
0001
0000
0001
0010
,
0001
0000
0010
0000
0100
0000
1000
0000
0100
0000
1000
0000
0100
0000
0000
0010
,
0000
0000
0001
0000
0000
0010
0000
0000
0100
0000
0000
0000
1010
0000
0000
0000
,
0000
0110
0000
0101
,
0000
0110
0000
1001
,
1000
0000
0001
1000
1001
0000
1100
0000
,
1000
0000
0010
0100
0110
0000
0101
0000
,
0001
0000
1000
0010
1010
0000
1001
0000
,
0001
0000
1000
0100
1100
0000
0110
0000
,
0100
0000
1000
0001
1000
0000
0101
0000
,
0001
0000
1000
0100
1000
0000
1001
0000
,
1000
1100
0100
0110
,
0010
0011
0001
2002
,
0000
0000
0000
0000
,
0000
0000
0000
0000
,
0000
0000
0000
0000
,
0000
0000
0000
0000
,
0000
0000
0000
0000
0000
3003
0000
0000
1000
0000
0000
0100
0000
0000
0010
0000
,
0000
0001
0000
0000
0010
0000
0001
0000
0010
0000
0000
0000
0100
0000
0000
0000
,
1000
0001
0010
0100
,
1000
0000
0100
0010
0100
0000
1000
0000
,
0001
0000
0001
1000
0001
0000
1000
0000
,
0001
0000
0010
0001
0100
0000
0100
0000
,
0001
0000
0010
0100
1000
0000
1000
0000
,
0010
0000
1000
0010
0100
0000
0010
0000
,
0100
0000
0100
0010
0001
0000
0001
0000
,
0010
0000
1000
0010
0100
0000
0001
0000
,
0100
0000
0010
1000
0001
0000
0010
0000
,
0001
0000
0010
0001
0100
0000
0010
0000
,
0100
0000
0010
0100
0010
0000
0100
0000
,
0001
0000
1000
0100
0010
0000
0100
0000
,
0010
0000
1000
0010
0100
0000
0010
0000
,
1000
0000
0010
0100
0001
0000
0010
0000
,
0100
0000
0000
0000
1000
0000
0000
0001
0000
0000
0010
0000
0000
0100
0000
0000
,
1000
0000
1010
0000
1000
0100
0000
0100
,
0010
0000
0010
0001
0000
0001
0100
0000
,
0100
0010
0000
0010
0100
0000
0100
0001
,
0000
0001
1000
0000
1000
0010
0000
0010
,
0100
0000
0100
0001
0000
0001
1000
0000
,
1000
0001
0000
1000
0001
0000
0100
0001
,
0000
0100
0001
0000
0010
0001
0000
0010
,
0001
0000
0000
0000
0001
0000
0010
0000
0000
0000
0000
0000
0010
0000
0000
0100
,
0000
0000
1000
0000
0000
0100
0000
0000
0010
0000
0011
0000
2000
0000
0000
0000
,
0000
0000
0000
3200
,
0000
0000
0000
0320
,
0000
0000
0000
0032
,
0000
0000
0000
0023
,
0000
0000
0000
0230
,
0000
0000
0000
2300
,
0000
0000
0000
0000
0000
0000
0000
0000
0000
0000
0000
0000
3001
0000
0000
0010
,
0000
0000
0100
0000
0000
1000
0000
0000
0001
0000
0000
0000
1001
0000
0000
0000
,
1000
0100
1000
0100
,
0010
0001
0010
0001
,
1000
0100
0010
0001
,
1000
0100
0010
0001
,
0001
0010
0001
0010
,
0100
1000
0100
1000
,
0001
0000
0000
0000
0010
0000
0000
0000
0100
0000
0000
1000
0000
0000
0001
0000
,
0000
0100
0000
0000
0010
0000
1000
0000
1010
0000
0000
0000
1000
0000
0000
0000
,
0100
0010
0100
1000
,
0100
0010
0001
0010
,
0100
1000
0100
0010
,
0001
0010
0100
1000
,
0100
1000
0100
0010
,
0001
0010
0001
0010
,
0100
0000
0010
0000
0001
0010
0000
0100
,
0000
1000
0000
0000
0001
0000
0000
0010
0000
0000
0100
0000
1000
0000
0000
0000
;

//---------------dance-single - ----------------
#NOTES:
     dance-single:
     :
     Hard:
     10:
     0.638,0.725,0.295,0.030,0.276:
0000
0000
0000
0000
,
0000
0000
0000
0000
,
0000
0000
0000
0000
,
0000
0000
0000
0000
,
1001
0000
1000
0000
0100
0000
0010
0100
,
0000
1000
0000
0100
0000
0010
0001
0010
,
0000
1000
0100
0010
,
0001
1000
0010
0100
,
0001
0000
0010
0000
0100
0000
1000
0010
,
0000
0010
0000
0100
0010
1000
0010
0100
,
0001
0000
1000
0000
0010
0000
0100
0001
,
0000
0001
0000
1000
0000
0100
0010
0000
,
0011
0010
0001
1000
,
1010
0010
0100
0001
,
1001
1000
1100
0100
,
0110
0000
0000
0000
1010
0000
0000
0000
0110
0000
0000
0000
0101
0000
0000
0000
0000
0000
1000
0000
0000
0100
0000
0000
,
1000
0100
0010
0001
,
0010
0000
0100
0000
1000
0010
1000
0010
,
1000
0010
1000
0001
,
0010
0000
0100
0000
1000
0010
1000
0000
,
0010
0100
0001
1000
,
0001
0000
0010
0000
0100
1000
0010
0000
,
1000
1000
0010
0100
,
0001
0010
0100
1001
,
0001
0001
0010
0010
,
0100
0100
1000
1000
,
0100
0100
1000
1000
,
0010
0000
0010
0000
0100
0000
0001
1000
,
0100
1000
0100
0010
0001
1000
0100
0010
,
0001
0100
0001
0010
0100
1000
0100
1000
,
0010
0000
0100
0000
0010
0000
1000
0000
0001
0000
1000
0000
1001
0000
0000
1010
,
0000
0000
0110
0000
0000
0011
0000
0000
0101
0000
0000
0000
1001
0000
0000
0000
,
0000
0110
0000
1001
,
0000
0000
0101
0000
0000
0000
1010
1000
,
0100
1000
0010
0100
0110
0001
0010
0100
,
1100
0100
1000
0010
1000
0100
1010
0100
,
1000
0100
0010
0001
1000
0010
1010
0001
,
1000
0100
1000
0010
1001
0000
1000
0100
,
1000
0010
1000
0001
1000
0000
0001
0010
,
0001
0100
0001
1000
0001
0000
1000
0100
,
0010
0001
1000
0100
0010
0001
1000
0100
,
0010
0001
1000
0100
0010
0001
2002
0000
,
0000
0000
0000
0000
,
0000
0000
0000
0000
,
0000
0000
0000
0000
,
0000
0000
0000
0000
,
0000
0000
0000
0000
3003
0000
0000
0000
1000
0000
0000
1100
0000
0000
0100
0000
,
0000
0110
0000
0000
0010
0000
0100
0000
1000
0000
0000
0100
0000
0000
0010
0000
,
1000
0000
0000
0100
0000
0000
0010
0000
1000
0000
0000
0001
0000
0000
0010
0000
,
0001
0000
0000
0010
0000
0000
0100
0000
1000
0000
0000
0001
0000
0000
0100
0000
,
0001
0000
0000
0010
0000
0000
0100
0000
1000
0000
0000
0010
0000
0000
1000
0000
,
0001
0000
0000
1000
0000
0000
0001
0000
0100
0000
0000
0010
0000
0000
0100
0000
,
0001
0000
0000
0100
0000
0000
0010
0000
1000
0000
0000
0100
0000
0000
0010
0000
,
0001
0000
0000
0100
0000
0000
0010
0000
0100
0000
0000
0001
0000
0000
0010
0000
,
0100
0000
0000
0010
0000
0000
0001
0000
1000
0000
0000
0100
0000
0000
0010
0000
,
0001
0000
0000
0010
0000
0000
0100
0000
1000
0000
0000
0001
0000
0000
0010
0000
,
0100
0000
0000
1000
0000
0000
0001
0000
0010
0000
0000
0001
0000
0000
1000
0000
,
0100
0000
0000
0010
0000
0000
0100
0000
1000
0000
0000
0001
0000
0000
0010
0000
,
0100
0000
0000
1000
0000
0000
0001
0000
0010
0000
0000
0100
0000
0000
1000
0000
,
0001
0000
0000
0100
0000
0000
0010
0000
1000
0000
0000
0010
0000
0000
0100
0000
,
0001
0000
0000
0100
0000
0000
0010
0000
0100
0000
0000
0001
0000
0000
0010
0000
,
0100
0000
0000
1000
0000
0000
0010
0000
0100
0000
0000
0010
0000
0000
1000
0000
,
0100
0000
0000
0010
0000
0000
0100
0000
0010
0000
0000
0100
0000
0000
1000
0000
,
0010
0000
0000
0100
0000
0000
0010
0000
1000
0000
0100
0000
1000
0000
0100
0000
,
0010
0001
0010
0001
0010
0100
1000
0001
,
0010
0100
1000
0000
1000
0100
1000
0001
,
0010
0001
0010
0100
0010
0100
1000
0001
,
0010
0100
1000
0000
0010
0100
0001
1000
,
0100
0010
0001
1000
0010
0100
0010
0100
,
0001
0100
0010
0100
0010
1000
0001
0010
,
0100
0000
1000
0000
0100
0000
0000
1100
0000
0000
0101
0000
0000
1010
0000
0000
,
1001
0000
0000
1100
0000
0000
2000
0000
0002
0000
0000
3003
1000
0000
0000
0000
,
0001
1000
0000
0000
0001
0100
0000
0000
0001
0010
0000
0000
0100
1000
0000
0000
,
1000
0100
0000
0000
0100
0010
0000
0000
0010
0001
0000
0000
0001
1000
0000
0000
,
1000
0010
0000
0000
0010
0100
0000
0000
0100
0001
0000
0000
0001
0010
0000
0000
,
0010
0100
0000
0000
0100
1000
0000
0000
0100
1000
0000
0000
1000
0100
0000
0000
,
1000
0100
0000
0000
0100
0010
0000
0000
0100
0010
0000
0000
0010
0001
0000
0000
,
0010
0001
0000
0000
0001
0010
0000
0000
0010
0001
0000
0000
0001
0100
0000
0000
,
0100
0010
0000
0000
0010
0100
0000
0000
0100
0010
0000
0000
1010
0000
0000
0101
,
0000
0000
0110
0000
0000
1010
0000
0000
1000
0000
0100
0000
1000
0000
0000
0000
,
1000
0100
1000
0100
0010
0001
0010
0001
,
0010
0100
1000
0100
1000
0001
0010
0001
,
0010
0100
1000
0100
1000
0010
0100
0001
,
1000
0100
0010
0001
1000
0100
0010
0001
,
1000
0100
1000
0001
0010
0001
1000
0100
,
1000
0010
0100
0010
1000
0001
1000
0010
,
0100
0000
0001
0000
1000
0000
0100
0000
0010
0000
0001
0000
0000
0010
0000
0000
,
0100
0000
0000
0010
0000
0000
0100
0000
0000
1000
0000
0000
1010
0000
1000
0000
,
0001
0010
0100
1000
0100
0010
0001
0010
,
0100
1000
0100
0010
0001
0010
0100
0010
,
0001
0010
0100
1000
0100
0010
0100
1000
,
0100
1000
0100
0010
0001
0010
0001
0010
,
0100
0010
0001
0010
0100
0010
0100
0010
,
0100
1000
0100
1000
0100
1000
0100
0010
,
0001
0010
0001
1000
0100
0010
0000
1000
,
0100
1000
0100
0000
0100
0010
1001
0000
;

//---------------dance-single - ----------------
#NOTES:
     dance-single:
     :
     Beginner:
     2:
     0.120,0.290,0.083,0.008,0.000: // measure 1
0000
0000
0000
0000
,  // measure 2
0000
0000
0000
0000
,  // measure 3
0000
0000
0000
0000
,  // measure 4
0000
0000
0000
0000
,  // measure 5
1000
0000
0000
0000
0000
0000
0000
0001
,  // measure 6
0000
0000
0000
0000
,  // measure 7
0000
1000
0000
0000
,  // measure 8
0001
0000
0000
0000
,  // measure 9
0100
0000
0000
0000
0000
0000
0000
0010
,  // measure 10
0000
0000
0000
0000
,  // measure 11
1000
0000
0000
0000
0000
0000
0000
0001
,  // measure 12
0000
0000
0000
0000
,  // measure 13
1000
0000
0000
0000
,  // measure 14
0100
0000
0000
0000
,  // measure 15
0010
0000
0000
0000
,  // measure 16
0001
0000
1000
1000
,  // measure 17
0000
0000
0000
0000
,  // measure 18
0000
0000
0000
0100
,  // measure 19
0000
0000
0000
0000
,  // measure 20
0000
0000
0000
0010
,  // measure 21
0000
0000
0000
0000
,  // measure 22
0000
0000
0000
0001
,  // measure 23
0000
0000
0000
0000
,  // measure 24
0000
0000
0000
1000
,  // measure 25
0000
0000
0000
0000
,  // measure 26
0000
0000
0000
0100
,  // measure 27
0000
0000
0000
0000
,  // measure 28
0000
0000
0000
1000
,  // measure 29
0000
0000
0000
0100
,  // measure 30
0000
0000
0000
0010
,  // measure 31
0000
0000
0000
0001
,  // measure 32
0000
0000
0000
1010
,  // measure 33
0000
0110
0000
0101
,  // measure 34
0000
0011
0000
1001
,  // measure 35
0000
0000
1100
1010
,  // measure 36
0000
0000
1100
0110
,  // measure 37
0000
0000
1000
0001
,  // measure 38
0000
0000
0001
0100
,  // measure 39
0000
0000
0010
1000
,  // measure 40
0000
0000
1000
0100
,  // measure 41
0000
0000
0100
0010
,  // measure 42
0000
0000
0010
0002
,  // measure 43
0000
0000
0000
0000
,  // measure 44
0000
0000
0000
0000
,  // measure 45
0000
0000
0000
0000
,  // measure 46
0000
0000
0000
0000
,  // measure 47
0000
0003
1000
0000
,  // measure 48
0000
0000
0100
0000
,  // measure 49
0000
0000
1000
0000
,  // measure 50
0000
0000
0100
0000
,  // measure 51
0000
0000
0010
0000
,  // measure 52
0000
0000
0001
0000
,  // measure 53
0000
0000
0010
0000
,  // measure 54
0000
0000
0100
0000
,  // measure 55
0000
0000
1000
0000
,  // measure 56
0000
0000
0001
0000
,  // measure 57
0000
0000
0010
0000
,  // measure 58
0000
0000
0100
0000
,  // measure 59
0000
0000
1000
0000
,  // measure 60
0000
0000
0100
0000
,  // measure 61
0000
0000
1000
0000
,  // measure 62
0000
0000
0010
0000
,  // measure 63
0000
0000
0100
0000
,  // measure 64
0000
0000
0000
0000
0100
0000
0000
0100
,  // measure 65
0000
0000
0000
0000
,  // measure 66
0000
0000
0000
0000
1000
0000
0000
0100
,  // measure 67
0000
0000
0000
0000
,  // measure 68
0000
0000
0000
0000
1000
0000
0000
0010
,  // measure 69
0000
0000
0000
0000
,  // measure 70
0000
0000
0000
0000
0100
0000
0000
0001
,  // measure 71
0000
0000
0000
0000
1000
0000
0000
0001
,  // measure 72
0000
1000
0100
1000
,  // measure 73
0000
0000
0000
0010
,  // measure 74
0000
0000
0000
0100
,  // measure 75
0000
0000
0000
0001
,  // measure 76
0000
0000
0000
0100
,  // measure 77
0000
0000
0000
0010
,  // measure 78
0000
0000
0000
1000
,  // measure 79
0000
0000
0000
0100
,  // measure 80
0000
0000
0000
0010
,  // measure 81
0001
0000
0000
0100
,  // measure 82
0000
0000
0000
0010
,  // measure 83
0000
0000
0000
1000
,  // measure 84
0000
0000
0000
0010
,  // measure 85
0000
0000
0000
0100
,  // measure 86
0000
0000
0000
0010
,  // measure 87
0000
0000
0000
0100
,  // measure 88
0000
0000
0000
1001
,  // measure 89
0000
0000
0000
0010
,  // measure 90
0000
0000
0000
0100
,  // measure 91
0000
0000
0000
0001
,  // measure 92
0000
0000
0000
0100
,  // measure 93
0000
0000
0000
0010
,  // measure 94
0000
0000
0000
1000
,  // measure 95
0000
0000
0000
0100
,  // measure 96
0000
0000
0000
1001
;
