#TITLE:GAIA;
#SUBTITLE:;
#ARTIST:猫叉L.E.D.Master+;
#TITLETRANSLIT:;
#SUBTITLETRANSLIT:;
#ARTISTTRANSLIT:NekomataL.E.D.Master+;
#GENRE:Speed Dance;
#CREDIT:Frozen_Heat/Azn_Punk_07/GuardianFrozen;
#MENUCOLOR:#510feb;
#METERTYPE:DDR;
#BANNER:[jubeat] - GAIA.png;
#BACKGROUND:[jubeat] - GAIA-bg.png;
#LYRICSPATH:;
#CDTITLE:cdtitle.png;
#MUSIC:[jubeat] - GAIA.mp3;
#OFFSET:-1.514;
#SAMPLESTART:56.160;
#SAMPLELENGTH:21.333;
#SELECTABLE:YES;
#LISTSORT:;
#BPMS:0.000=180.000,138.000=90.000,139.000=180.000,152.000=90.000,153.000=180.000;
#STOPS:145.000=0.167
,145.500=0.167
;
#BGCHANGES:;
#ATTACKS:;

//---------------dance-single - ----------------
#NOTES:
     dance-single:
     :
     Hard:
     10:
     0.842,1.000,0.159,0.111,0.975: // measure 1
0000
0000
0000
0000
,  // measure 2
0000
0000
0000
0000
,  // measure 3
0000
0000
0000
0000
,  // measure 4
0000
0000
0000
0000
,  // measure 5
0000
0000
0000
0000
,  // measure 6
1100
0000
0000
0000
0000
0000
0000
0101
,  // measure 7
0000
0000
0000
0000
0000
0000
0000
0010
,  // measure 8
1001
0000
0000
0000
0000
0000
0000
0110
,  // measure 9
0000
0000
0000
0110
0000
0000
0000
0000
,  // measure 10
0001
0001
0100
0010
,  // measure 11
1000
0100
0001
0100
,  // measure 12
1000
1000
0010
0100
,  // measure 13
0001
0010
1000
0010
,  // measure 14
0100
1000
0010
0000
0100
0000
0001
0000
,  // measure 15
0010
0001
1000
0000
0010
0000
0100
0000
,  // measure 16
0001
1000
0100
0000
0010
0001
1000
0000
,  // measure 17
0001
0100
1000
0100
0001
0010
1000
0000
,  // measure 18
0001
0000
0000
0010
0001
0000
0100
0000
0001
0000
1000
0000
0010
0100
0010
0000
,  // measure 19
1000
0000
0000
0100
1000
0000
0010
0000
0100
0001
0010
0000
0100
0000
0000
0000
,  // measure 20
1000
0000
0000
0010
0100
0000
0010
0000
1000
0000
0001
0000
1000
0001
1000
0000
,  // measure 21
0010
0000
0000
0100
0001
0000
1000
0000
0100
0000
0100
0000
0010
0000
0010
0000
,  // measure 22
0001
0000
0000
0000
1001
0000
1001
0000
0000
0000
0010
0000
0110
0000
0000
1000
,  // measure 23
0001
0100
0001
1000
0010
0100
0001
1000
,  // measure 24
0100
0000
0000
0010
0100
0000
1000
0000
0001
0000
1000
0000
0010
0100
0010
0000
,  // measure 25
1000
0000
0000
0001
0010
0000
0000
1000
0010
0000
0100
0000
0110
0000
0000
0000
,  // measure 26
1000
0000
1000
0000
0000
0000
1000
0000
0001
0000
0001
0100
0000
0100
0001
0000
,  // measure 27
0010
0000
0010
0001
0000
0001
1000
0000
0010
0000
0010
0100
0000
0100
0001
0000
,  // measure 28
1000
0000
0100
0010
0000
0001
0000
1000
0000
0001
0000
0100
0000
0010
0000
1000
,  // measure 29
0010
0100
0010
0000
0100
0000
0001
0000
1000
0001
0000
0010
0000
0001
0000
0100
,  // measure 30
0001
0000
0001
0000
0000
0000
0001
0000
1000
0000
1000
0100
0000
0100
1000
0000
,  // measure 31
0010
0000
0010
1000
0000
1000
0001
0000
0010
0000
0010
0100
0000
0100
1000
0000
,  // measure 32
0001
0000
0100
0010
0000
1000
0000
0001
0000
1000
0000
0100
0000
0010
0000
0001
,  // measure 33
0010
0100
0010
0000
0100
0000
1000
0000
0001
1000
0000
0010
0000
1000
0000
0100
,  // measure 34
1000
0000
1000
0000
0000
0001
0100
0000
0010
0000
1000
0100
0000
0100
0010
0000
,  // measure 35
0001
0000
0001
1000
0000
1000
0001
0000
1000
0100
0010
0001
1000
0000
0010
0100
,  // measure 36
0010
0000
1000
0001
0010
0000
0100
1000
0100
0000
0010
0001
0100
0010
0100
0001
,  // measure 37
1000
0000
0001
0000
0011
0000
1100
0000
0001
0000
0001
0000
0000
1000
0001
0000
,  // measure 38
0100
0000
0010
1000
0000
1000
0001
0000
0010
0000
0010
0001
0000
0001
0100
0000
,  // measure 39
0001
0000
0010
0000
0100
0000
1000
0000
0000
0000
0000
0000
0001
0000
0000
0000
0000
0000
0001
0000
0000
0100
0000
0000
0010
0000
0000
0000
0000
0000
0010
0000
0000
1000
0000
0000
0100
0000
0000
0000
0000
0000
0100
0000
0000
0010
0000
0000
,  // measure 40
0001
1000
0100
0000
1000
0001
1000
0010
1000
0000
0001
0010
0100
0000
0100
0010
,  // measure 41
0001
0000
0001
1000
0001
0010
0100
1000
0100
0000
0001
0010
0100
1000
0100
0000
,  // measure 42
0001
0010
0100
1000
0100
0000
0001
0010
0100
1000
0100
0000
0001
0010
0100
1000
,  // measure 43
0100
0010
0001
0000
1000
0010
0100
0001
0100
0000
1000
0010
0100
0001
0100
0000
,  // measure 44
1000
0100
0010
0100
1000
0010
0100
0001
0010
0100
0010
0001
1000
0010
0100
0001
,  // measure 45
1000
0010
0100
0001
1000
0100
0010
0001
0010
0000
1000
0100
0010
0001
0010
0000
,  // measure 46
1000
0100
0010
0001
0010
0000
1000
0100
0010
0001
0010
0000
1000
0100
0010
0001
,  // measure 47
0010
0100
1000
0000
0001
0100
0010
1000
0010
0000
0001
0100
0010
1000
0010
0000
,  // measure 48
0001
0010
0100
0010
0001
0100
0010
1000
0100
0010
0100
1000
0001
0100
0010
1000
,  // measure 49
0001
0100
0010
1000
0002
0000
0000
0000
0000
0000
0200
0000
0000
0000
0000
0000
,  // measure 50
0000
0000
0003
0000
0000
0300
0000
0000
,  // measure 51
0000
0000
2000
0000
0000
0200
0000
0000
,  // measure 52
0000
0000
3000
0000
0000
0300
0000
0000
,  // measure 53
0000
0010
0201
0000
0000
0010
0000
0000
,  // measure 54
0000
0000
0001
0000
0000
0310
0000
0000
,  // measure 55
0000
0000
1020
0000
0000
0100
0000
0000
,  // measure 56
0000
0000
0000
0000
0000
0000
0000
0000
0000
0000
0000
0000
1030
0100
1000
0000
,  // measure 57
0001
0100
0001
0000
1000
0010
0100
0010
1000
0000
1000
0100
0010
0100
1000
0000
,  // measure 58
1000
0001
0100
0001
1000
0000
1000
0001
0010
0001
1000
0000
1000
0100
0010
0001
,  // measure 59
1000
0100
0010
0000
0001
0010
0100
0010
0001
0000
0001
0100
0010
0100
0001
0000
,  // measure 60
0001
1000
0100
1000
0001
0000
0001
1000
0010
1000
0001
0000
0001
0100
0010
1000
,  // measure 61
0001
0100
0010
0000
1000
0100
0010
0001
0100
0000
0100
0001
0010
0100
1000
0000
,  // measure 62
1000
0010
0100
0001
0010
0000
0010
0001
0100
0010
1000
0001
0010
0100
1000
0001
,  // measure 63
0100
0010
1000
0000
0001
0000
0001
0000
0010
0000
0010
0000
0100
0000
0100
0000
,  // measure 64
1000
0000
1000
0000
0001
1000
0001
1000
0100
0010
0100
0010
0001
0010
0100
1000
,  // measure 65
0001
0010
0100
1000
0001
0000
0001
1000
0001
0000
0100
0010
0100
0000
0001
1000
,  // measure 66
0000
1000
0100
0000
0010
0000
0001
0100
0000
0100
0010
0000
0000
0000
1000
0001
,  // measure 67
1000
0100
0010
0000
0000
0000
0001
0010
0100
0000
1000
0010
0000
0010
1000
0000
,  // measure 68
1000
0001
0000
0001
0100
0000
0100
0010
0100
0000
0001
0000
0000
0000
1000
0100
,  // measure 69
0010
0100
1000
0000
0001
0000
1000
0010
1000
0100
0000
0100
1000
0001
0100
0000
,  // measure 70
0100
0010
0000
0010
1000
0000
1000
0100
0000
0100
1000
0000
0000
0000
0001
0010
,  // measure 71
0100
0010
0001
1000
0000
0000
1100
0000
0000
1010
0000
0000
0110
0000
0000
0101
,  // measure 72
0000
0000
1001
0000
0000
0011
0000
0000
0101
0000
0100
0000
0001
1000
0001
1000
,  // measure 73
0001
1000
0001
0000
1000
0000
0010
1000
0010
0100
0001
0000
0001
0100
0010
1000
,  // measure 74
0001
0000
0010
0100
0010
0001
1000
0000
0001
0000
1000
0010
0100
0000
0010
0000
,  // measure 75
1000
0100
0010
0000
0001
0000
0010
1000
0010
0100
1000
0000
1000
0100
0010
0001
,  // measure 76
1000
0000
0010
0100
0010
1000
0001
0000
1000
0000
0001
0010
0100
0000
0010
0000
,  // measure 77
0001
0100
0010
0000
1000
0000
0100
1000
0100
0010
0001
0000
0001
0010
0100
1000
,  // measure 78
0001
0000
0100
0010
0100
0001
1000
0000
0001
0000
1000
0100
0010
0000
0100
0000
,  // measure 79
1000
0010
0100
0000
0001
0000
0001
0000
0100
0000
0100
0000
0010
0000
0010
0000
,  // measure 80
1000
0000
1000
0000
0001
1000
0001
1000
0100
0000
0100
0010
0001
0100
0010
1000
,  // measure 81
0001
0100
0002
0000
0000
2000
0000
0000
,  // measure 82
0000
0000
3003
0000
0000
0000
0000
0000
0000
0000
0000
0000
0100
0010
0100
0010
,  // measure 83
0100
0010
0100
0010
0200
0000
0000
0000
0000
0000
0020
0000
0000
0000
0000
0000
,  // measure 84
0000
0000
0330
0000
0000
0000
0000
0000
0000
0000
0000
0000
1000
0001
1000
0001
,  // measure 85
1000
0001
1000
0000
2000
0000
0000
0000
0000
0000
0002
0000
0000
0000
0000
0000
,  // measure 86
0000
0000
0000
0000
,  // measure 87
3003
0000
0020
0000
0000
0200
0000
0000
,  // measure 88
0330
0000
0000
0000
0000
0000
0000
0000
0000
0000
0000
0000
0001
0000
0000
0100
0000
0000
0001
0000
0000
0100
0000
0000
0001
0000
0000
0100
0000
0000
0001
0000
0000
0000
0000
0000
1000
0000
0000
0000
0100
0000
0000
0000
1000
0000
0000
0000
,  // measure 89
0001
0000
0000
0000
;

//---------------dance-single - ----------------
#NOTES:
     dance-single:
     :
     Medium:
     9:
     0.617,0.813,0.024,0.215,0.251: // measure 1
0000
0000
0000
0000
,  // measure 2
0000
0000
0000
0000
,  // measure 3
0000
0000
0000
0000
,  // measure 4
0000
0000
0000
0000
,  // measure 5
0000
0000
0000
0000
,  // measure 6
1000
0000
0001
0000
0100
0000
0000
0001
,  // measure 7
0000
1000
0000
0100
0000
0100
0000
0100
,  // measure 8
0010
0000
0001
0000
1000
0000
0000
0010
,  // measure 9
0000
0010
0000
0100
0000
0100
0000
0000
,  // measure 10
0001
0010
0001
0100
,  // measure 11
0001
0001
0010
0010
,  // measure 12
0100
1000
0010
0100
,  // measure 13
0010
0010
1000
1000
,  // measure 14
0001
0000
0100
0000
0010
0100
0001
0000
,  // measure 15
0010
0000
0100
0000
1000
0010
0100
0000
,  // measure 16
0010
0000
1000
0000
0100
0010
0001
0000
,  // measure 17
0100
0010
1000
0100
0010
0001
1000
0000
,  // measure 18
0001
0000
0001
0010
0001
0100
0010
0000
,  // measure 19
0010
0000
0010
1000
0100
0010
0001
0000
,  // measure 20
1000
0000
1000
0010
0100
0001
0010
0000
,  // measure 21
0010
0100
1000
0100
0010
0001
1000
0001
,  // measure 22
0100
0000
0110
0000
0001
0010
0100
0000
,  // measure 23
1000
0010
0100
0010
1000
0100
0010
0001
,  // measure 24
0100
0000
0001
0010
0100
1000
0001
0000
,  // measure 25
0001
0100
0010
1000
0010
0100
0001
1000
,  // measure 26
0100
0000
0100
0000
0000
0000
1000
0000
0001
0000
0000
0100
0000
0000
0001
0000
,  // measure 27
1000
0000
0000
0100
0000
0000
1000
0000
0001
0000
0000
0010
0000
0000
0100
0000
,  // measure 28
1000
0000
0000
1000
0010
0000
0000
0010
0100
0000
0000
0100
0001
0000
0000
0001
,  // measure 29
1000
0000
0100
1000
0000
1000
0001
0000
0100
0000
0001
0010
0000
0010
0100
0000
,  // measure 30
0010
0000
0010
0000
0000
0000
0001
0000
1000
0000
0000
0010
0000
0000
1000
0000
,  // measure 31
0001
0000
0000
0010
0000
0000
0001
0000
1000
0000
0000
0100
0000
0000
0010
0000
,  // measure 32
0001
0000
0000
0001
0100
0000
0000
0100
0010
0000
0000
0010
1000
0000
0000
1000
,  // measure 33
0001
0000
0010
0001
0000
0001
1000
0000
0010
0000
1000
0100
0000
0100
0010
0000
,  // measure 34
0001
0000
0001
0000
0000
0000
1000
0000
0001
0000
0001
1000
0000
1000
0001
0000
,  // measure 35
0100
0000
0010
0100
0000
0100
0010
0000
2000
3200
0320
0032
1003
0000
1000
0000
,  // measure 36
0000
0001
0100
0001
0010
0001
1000
0010
,  // measure 37
0100
0000
0000
0000
0001
0000
0000
0000
2000
3000
0000
0000
0002
0003
0000
0000
0010
0000
0000
0000
0010
0000
0000
0000
0000
0000
0000
0000
0100
0000
0000
0000
,  // measure 38
0100
1000
0010
1000
0100
0010
0001
1000
,  // measure 39
0002
0023
0230
2300
3000
0000
1000
0000
0000
1000
0000
0000
0000
0000
0000
0010
0000
0000
0100
0000
0000
0001
0000
0000
,  // measure 40
1000
0100
0010
0001
0100
0001
1000
1000
,  // measure 41
0001
0001
0100
0000
0001
0100
0000
0001
,  // measure 42
0100
0000
0010
1000
0100
1000
0010
0100
,  // measure 43
0001
1000
0100
0000
1000
0100
0000
1000
,  // measure 44
0100
0000
1000
0010
0100
0010
1000
0100
,  // measure 45
0010
0001
0100
0000
0001
0010
0000
0001
,  // measure 46
0100
0000
0010
1000
0001
0100
0010
0100
,  // measure 47
0001
1000
0010
0000
1000
0100
0000
1000
,  // measure 48
0010
0000
0100
0001
1000
0100
0010
0001
,  // measure 49
1000
0010
0200
0000
0000
0020
0000
0000
,  // measure 50
0000
0000
0030
0000
0000
0300
0000
0000
,  // measure 51
0000
0000
0002
0000
0000
2000
0000
0000
,  // measure 52
0000
0000
3000
0000
0000
0003
0000
0000
,  // measure 53
0000
0100
0020
0000
0000
0200
0000
0000
,  // measure 54
0000
0000
0300
0000
0000
0030
0000
0000
,  // measure 55
0000
0000
2000
0000
0000
0002
0000
0000
,  // measure 56
0000
0000
0000
3003
,  // measure 57
0000
0000
1000
0100
0010
0001
0100
0010
,  // measure 58
1000
0100
0010
0001
0100
0010
1000
0010
,  // measure 59
0100
0001
1000
0010
0100
0001
0010
0100
,  // measure 60
1000
0010
0100
0001
0010
0100
1000
0010
,  // measure 61
0100
0001
1000
0100
0001
1000
0010
0001
,  // measure 62
1000
0100
0001
1000
0010
0001
0100
0010
,  // measure 63
1000
0001
1000
0010
0001
1000
0100
0001
,  // measure 64
1000
0010
0001
1000
0100
0001
1000
0100
,  // measure 65
0010
0000
0001
0000
1000
0000
0010
0000
0100
0000
0000
0010
1000
0000
0100
0000
,  // measure 66
0010
0000
0000
0001
0100
0000
0010
0000
0001
0000
0000
0010
0100
0000
0001
0000
,  // measure 67
1000
0000
0100
0000
0010
0000
0001
0000
0100
0000
0000
0010
0001
0000
0010
0000
,  // measure 68
1000
0000
0000
0100
0010
0000
0100
0000
1000
0000
0100
0000
0010
0000
0001
0000
,  // measure 69
1000
0001
1000
0000
0001
0000
0100
0000
0010
0000
0000
1000
0100
0000
0010
0000
,  // measure 70
0100
0000
0000
0010
0001
0000
0100
0000
1000
0000
0000
0100
0010
0000
1000
0000
,  // measure 71
0001
0010
0001
1000
0000
0000
0001
0000
0000
0100
0000
0000
0001
0000
0000
1000
,  // measure 72
0000
0000
0100
0000
0000
0010
0000
0000
0001
0000
1000
0000
0001
1000
0001
1000
,  // measure 73
0001
1000
0001
0000
0100
0000
0001
1000
0001
0000
0010
0000
0001
0000
0010
0100
,  // measure 74
1000
0000
0010
0000
0100
0001
0100
0000
0010
0000
1000
0001
1000
0000
0100
0010
,  // measure 75
0100
0000
1000
0000
0010
0000
1000
0001
1000
0000
0100
0000
1000
0000
0100
0010
,  // measure 76
0001
0000
0100
0000
0010
1000
0010
0000
0100
0000
0001
1000
0001
0000
0010
0100
,  // measure 77
0010
0000
0001
0000
0100
0000
0001
1000
0001
0000
1000
0000
1000
0000
0010
0000
,  // measure 78
0010
0000
0100
0001
0100
0000
0010
1000
0001
0000
0010
0000
0100
0010
0001
0000
,  // measure 79
1000
0001
0010
0010
0100
0100
1000
1000
,  // measure 80
0001
0000
0001
0000
1000
0010
1000
0000
0001
0000
1000
0000
0001
0010
0001
0000
,  // measure 81
1000
0001
0200
0000
0000
0020
0000
0000
,  // measure 82
0000
0000
0000
0330
,  // measure 83
0000
0000
0002
0000
0000
2000
0000
0000
,  // measure 84
0000
0000
0000
3003
,  // measure 85
0000
0010
0020
0000
0000
0200
0000
0000
,  // measure 86
0000
0000
0000
0000
,  // measure 87
0330
0000
1001
0000
0000
2002
0000
0000
,  // measure 88
3003
0000
0001
0010
0100
1000
0100
0010
,  // measure 89
0002
0000
0000
0000
0000
0000
0000
0003
;

//---------------dance-single - ----------------
#NOTES:
     dance-single:
     :
     Beginner:
     4:
     0.274,0.420,0.111,0.199,0.000: // measure 1
0000
0000
0000
0000
,  // measure 2
0000
0000
0000
0000
,  // measure 3
0000
0000
0000
0000
,  // measure 4
0000
0000
0000
0000
,  // measure 5
0000
0000
0000
0000
,  // measure 6
1000
0000
0000
0000
,  // measure 7
0000
0000
0000
0000
,  // measure 8
0001
0000
0000
0000
,  // measure 9
0000
0000
0000
0000
,  // measure 10
1000
1000
1000
0000
,  // measure 11
0001
0001
0001
0000
,  // measure 12
0010
0010
0010
0000
,  // measure 13
0100
0100
0100
0000
,  // measure 14
1000
0010
0100
0000
,  // measure 15
0001
0010
0100
0000
,  // measure 16
1000
0001
1000
0000
,  // measure 17
0010
0100
0010
0100
,  // measure 18
0001
0001
0010
0000
,  // measure 19
0100
0100
0000
0000
,  // measure 20
1000
1000
0010
0000
,  // measure 21
0100
0100
0000
0000
,  // measure 22
0000
1001
0000
0000
,  // measure 23
1000
1000
0000
0000
,  // measure 24
0001
0001
0100
0000
,  // measure 25
0010
0010
0000
0000
,  // measure 26
1000
1000
0100
0010
,  // measure 27
0010
0000
0010
0100
,  // measure 28
1000
0000
1000
0100
,  // measure 29
0010
0100
1000
1000
,  // measure 30
0001
0001
0100
0010
,  // measure 31
0010
0000
0010
0100
,  // measure 32
0001
0000
0001
0100
,  // measure 33
0010
0100
0001
1000
,  // measure 34
1001
0000
0010
0100
,  // measure 35
0010
0000
0110
1001
,  // measure 36
0000
1000
0001
1000
,  // measure 37
0000
1001
0110
0000
,  // measure 38
0010
0100
0010
0000
,  // measure 39
0110
1001
0000
0001
,  // measure 40
1000
0001
1000
1000
,  // measure 41
0001
0000
2000
0000
0000
3000
0000
0000
,  // measure 42
0010
0000
2000
0000
0000
3000
0000
0000
,  // measure 43
1000
0000
0002
0000
0000
0003
0000
0000
,  // measure 44
0010
0000
0002
0000
0000
0003
0000
0000
,  // measure 45
0000
0000
0220
0000
0000
0330
0000
0000
,  // measure 46
1000
0001
0000
0000
,  // measure 47
0000
0000
2002
0000
0000
3003
0000
0000
,  // measure 48
0010
0100
0000
0000
,  // measure 49
0000
0000
0001
0000
0000
0001
0000
0000
,  // measure 50
0000
0000
0000
0000
,  // measure 51
0000
0000
1000
0000
0000
1000
0000
0000
,  // measure 52
0000
0000
0000
0000
,  // measure 53
0000
0000
0010
0000
0000
0010
0000
0000
,  // measure 54
0000
0000
0000
0000
,  // measure 55
0000
0000
0100
0000
0000
0100
0000
0000
,  // measure 56
0000
0000
0000
0000
,  // measure 57
0000
0001
0001
0010
,  // measure 58
0000
0010
0010
0100
,  // measure 59
0000
0100
0100
1000
,  // measure 60
0000
1000
1000
0010
,  // measure 61
0000
0010
0010
0100
,  // measure 62
0001
1000
1000
0001
,  // measure 63
0010
0100
0100
0010
,  // measure 64
0001
1000
0001
1000
,  // measure 65
0001
2000
0100
3100
,  // measure 66
0000
0010
0000
0001
,  // measure 67
0000
0200
0010
0310
,  // measure 68
0000
0001
1000
0001
,  // measure 69
0000
0002
0100
0103
,  // measure 70
0000
0010
0000
1000
,  // measure 71
0000
0020
0130
0200
,  // measure 72
0310
0020
0130
0200
,  // measure 73
0310
1000
0100
0001
,  // measure 74
0100
1000
0001
1000
,  // measure 75
0000
0001
0100
1000
,  // measure 76
0100
0001
1000
0001
,  // measure 77
0000
1000
0010
0001
,  // measure 78
0000
0001
0010
1000
,  // measure 79
0000
0001
0010
1000
,  // measure 80
0010
0001
1000
0001
,  // measure 81
1000
0000
2002
0000
0000
3003
0000
0000
,  // measure 82
0000
0000
0000
0000
,  // measure 83
0000
0000
0220
0000
0000
0330
0000
0000
,  // measure 84
0000
0000
0000
0000
,  // measure 85
0000
0000
0220
0000
0000
0330
0000
0000
,  // measure 86
0000
0000
0000
0000
,  // measure 87
0000
0000
2002
0000
0000
3003
0000
0000
,  // measure 88
0000
0020
0000
0200
,  // measure 89
0330
0000
0000
0000
;

//---------------dance-single - ----------------
#NOTES:
     dance-single:
     :
     Easy:
     7:
     0.410,0.565,0.111,0.064,0.012: // measure 1
0000
0000
0000
0000
,  // measure 2
0000
0000
0000
0000
,  // measure 3
0000
0000
0000
0000
,  // measure 4
0000
0000
0000
0000
,  // measure 5
0000
0000
0000
0000
,  // measure 6
1000
0000
1000
0000
0100
0000
0000
0010
,  // measure 7
0000
0010
0000
0001
0000
0000
0000
0000
,  // measure 8
0001
0000
0001
0000
0100
0000
0000
0010
,  // measure 9
0000
0010
0000
1000
0000
0000
0000
0000
,  // measure 10
1000
0100
1000
0000
,  // measure 11
0001
0100
0001
0000
,  // measure 12
0010
0100
0010
0100
,  // measure 13
1000
0001
1000
0001
,  // measure 14
1000
0010
1000
0000
,  // measure 15
0001
0010
0001
0000
,  // measure 16
1000
1000
0001
0001
,  // measure 17
0100
0010
0110
0000
,  // measure 18
0010
1000
0010
0000
0100
0000
0100
0000
,  // measure 19
0001
0010
0001
0000
1000
0000
1000
0000
,  // measure 20
0100
0010
0100
0000
1000
0000
1000
0000
,  // measure 21
0001
0010
0100
0000
1000
0010
0100
0000
,  // measure 22
0000
0000
0110
0000
1000
0001
1000
0000
,  // measure 23
0001
0100
0010
0000
1000
0000
1000
0000
,  // measure 24
0001
1000
0001
0000
0010
0000
0010
0000
,  // measure 25
0100
1000
0100
0000
0010
0001
0010
0000
,  // measure 26
0100
1000
0000
1000
0001
0000
0001
0000
,  // measure 27
0100
0010
0000
0010
1000
0000
1000
0000
,  // measure 28
0001
0100
0001
0000
0100
0010
0100
0000
,  // measure 29
0010
0000
0010
1000
0100
0000
0010
0001
,  // measure 30
0100
0001
0000
0001
1000
0000
1000
0000
,  // measure 31
0100
0010
0000
0010
0001
0000
0001
0000
,  // measure 32
1000
0100
1000
0000
0100
0010
0100
0000
,  // measure 33
0010
0000
0010
0001
0100
0000
0010
1000
,  // measure 34
0001
0000
1001
0000
0001
0100
0010
0000
,  // measure 35
1000
0100
0010
0000
0200
0320
0031
0000
,  // measure 36
0001
1000
0001
0000
1000
0001
1000
0000
,  // measure 37
0010
0000
0000
0000
0000
0000
0000
0000
0200
0300
0000
0000
0020
0030
0000
0000
1000
0000
0000
0000
0000
0000
0000
0000
1000
0000
0000
0000
0100
0000
0000
0000
,  // measure 38
0010
0000
0100
0010
0001
0000
0010
0100
,  // measure 39
2000
3002
0103
0010
0100
0000
0001
1000
,  // measure 40
0001
0010
0100
1000
,  // measure 41
0001
0000
1000
0000
0000
0100
0000
0000
,  // measure 42
1000
0000
0001
0000
0000
0100
0000
0000
,  // measure 43
0010
0000
1000
0000
0000
0010
0000
0000
,  // measure 44
0100
0000
0001
0000
0000
0001
0000
0000
,  // measure 45
1000
0000
0001
0000
0000
0010
0000
0000
,  // measure 46
0001
0000
0100
0000
0000
0010
0000
0000
,  // measure 47
1000
0000
0001
0000
0000
0010
0000
0000
,  // measure 48
0100
0000
0010
0000
0000
0010
0000
0000
,  // measure 49
0001
0000
1000
0000
0000
1000
0000
0000
,  // measure 50
0000
0000
0000
0000
,  // measure 51
0000
0000
0001
0000
0000
0001
0000
0000
,  // measure 52
0000
0000
0000
0000
,  // measure 53
0000
0000
0010
0000
0000
0010
0000
0000
,  // measure 54
0000
0000
0000
0000
,  // measure 55
0000
0000
0100
0000
0000
0100
0000
0000
,  // measure 56
0000
0000
0000
0000
,  // measure 57
0000
0001
0010
0100
,  // measure 58
0010
0001
0100
1000
,  // measure 59
0100
0001
0010
0100
,  // measure 60
0010
0001
0001
0100
,  // measure 61
0100
1000
0100
0010
,  // measure 62
0010
1000
0010
0001
,  // measure 63
0010
1000
0100
0010
,  // measure 64
0010
0000
0001
0000
1000
0000
0001
1000
,  // measure 65
0001
0000
1001
0000
0110
0000
1000
0010
,  // measure 66
0100
0000
0010
0000
1010
0000
1000
0001
,  // measure 67
0100
0000
0001
0000
0101
0000
0100
0001
,  // measure 68
0010
0000
0100
0010
0001
0000
1000
0010
,  // measure 69
0100
0010
1000
0000
1100
0000
1000
0010
,  // measure 70
0100
0000
0001
0000
0011
0000
0001
0010
,  // measure 71
0100
0000
0000
0000
0010
0000
0100
0000
0000
0010
0000
0000
0100
0000
0000
0010
,  // measure 72
0000
0000
0001
0000
1000
0000
0000
0001
0000
0000
1000
0000
0001
0000
0000
0000
,  // measure 73
0001
0000
1000
0010
0100
0000
0100
0001
,  // measure 74
0010
0000
0001
0010
0100
0000
0100
1000
,  // measure 75
0001
0000
1000
0010
0100
0000
0001
1000
,  // measure 76
0100
0000
1000
0001
0010
0100
1000
0010
,  // measure 77
0100
0001
1000
0100
1000
0000
0001
0100
,  // measure 78
0001
0000
1000
0010
0100
0000
0001
0010
,  // measure 79
0001
0000
1000
0010
0100
0001
1000
0100
,  // measure 80
0010
0001
1000
0001
1000
0001
1000
0001
,  // measure 81
1000
0001
1000
0000
0000
1001
0000
0000
,  // measure 82
0000
0000
0000
0000
,  // measure 83
0000
0000
0001
0000
0000
1001
0000
0000
,  // measure 84
0000
0000
0000
0000
,  // measure 85
0000
0000
0010
0000
0000
0110
0000
0000
,  // measure 86
0000
0000
0000
0000
,  // measure 87
0000
0000
0100
0000
0000
0110
0000
0000
,  // measure 88
0000
1000
0001
1000
,  // measure 89
2002
0000
0000
3003
;
