#TITLE:Welcome To The Show;
#SUBTITLE:;
#ARTIST:Tanith & Dark Evil;
#TITLETRANSLIT:;
#SUBTITLETRANSLIT:;
#ARTISTTRANSLIT:;
#GENRE:;
#CREDIT:xRGTMx & Blinded_No_More;
#BANNER:[ZIv Academy] - Welcome To The Show.png;
#BACKGROUND:[ZIv Academy] - Welcome To The Show-bg.png;
#LYRICSPATH:;
#CDTITLE:cdtitle.png;
#MUSIC:[ZIv Academy] - Welcome To The Show.mp3;
#OFFSET:-0.074;
#SAMPLESTART:53.360;
#SAMPLELENGTH:17.220;
#SELECTABLE:YES;
#BPMS:0.000=153.000
;
#STOPS:
;
#BGCHANGES:;
#KEYSOUNDS:;
#ATTACKS:;

//---------------dance-single - Blinded_No_More----------------
#NOTES:
     dance-single:
     Blinded_No_More:
     Hard:
     8:
     0.613,0.544,0.645,0.174,0.215,339.000,63.000,17.000,0.000,0.000,0.000,0.613,0.544,0.645,0.174,0.215,339.000,63.000,17.000,0.000,0.000,0.000: // measure 0
0000
0000
0000
0000
,  // measure 1
0000
0000
0000
0000
,  // measure 2
0000
0000
0000
0000
,  // measure 3
0000
0000
0000
0000
,  // measure 4
2000
0000
0000
0010
0000
0000
0010
0000
0000
0010
0000
0000
3010
0000
0100
0000
,  // measure 5
0002
0000
0000
1000
0000
0000
1000
0000
0000
1000
0000
0000
1003
0000
0100
0000
,  // measure 6
0010
0000
0000
0010
0000
0000
0001
0000
0100
0000
0000
0100
0000
0000
0010
0000
,  // measure 7
1000
0000
0000
1000
0000
0000
0100
0000
0001
0000
0000
0001
0000
0000
0100
0000
,  // measure 8
2002
0000
0000
0000
,  // measure 9
3003
0000
0000
0000
,  // measure 10
1000
0000
0000
1010
0000
0000
0110
0000
0000
0100
0001
0000
1000
0000
0100
0000
,  // measure 11
0010
0000
0000
0011
0000
0000
0101
0000
0000
0100
0010
0000
1000
0000
0001
0000
,  // measure 12
0010
0000
0000
0110
0000
0000
1100
0000
0000
1000
0010
0000
0100
0000
0001
0000
,  // measure 13
0010
0000
0000
1100
0000
0000
1000
0000
0001
0000
0100
0000
1000
0000
0100
0000
,  // measure 14
0001
0000
0000
0101
0000
0000
0110
0000
0000
0010
1000
0000
0001
0000
0010
0000
,  // measure 15
0100
0000
0000
1100
0000
0000
1010
0000
0000
0010
0100
0000
0001
0000
1000
0000
,  // measure 16
0100
0000
0000
0110
0000
0000
0011
0000
0000
0001
0100
0000
0010
0000
1000
0000
,  // measure 17
1100
0000
0000
0011
0000
0000
0001
0000
1000
0000
0010
0000
0001
0000
0010
0000
,  // measure 18
1000
0100
0010
0001
0010
0100
1000
0000
,  // measure 19
0001
0100
0010
1000
0010
0100
0001
0000
,  // measure 20
1100
1100
0101
0101
,  // measure 21
1000
0100
0001
0100
1000
1000
0001
0001
,  // measure 22
1000
0010
0100
0001
1000
0100
0010
0000
,  // measure 23
0001
0010
0100
1000
0001
0100
0010
0000
,  // measure 24
1010
1010
0011
0011
,  // measure 25
1000
0010
0001
0010
1000
0100
0001
0100
,  // measure 26
1001
0000
1000
0010
0100
0001
0010
0200
,  // measure 27
1000
0300
0010
0001
0100
0010
1000
0001
,  // measure 28
0000
1100
0000
1000
0001
0100
1000
0100
,  // measure 29
0101
0000
0000
1010
0000
1001
1001
1001
,  // measure 30
1000
0001
0101
0000
0001
1000
1100
0000
,  // measure 31
1000
0010
0001
0010
0100
0001
1001
0000
,  // measure 32
1100
0000
0000
0011
0000
1010
0000
0101
,  // measure 33
0000
0000
0000
1001
0000
0220
0000
0330
,  // measure 34
1000
0010
0001
0010
0100
0000
0101
0000
,  // measure 35
1000
0100
0001
0100
0010
0001
1001
0000
,  // measure 36
1000
0010
0001
0010
0100
0001
1000
0100
,  // measure 37
0020
0000
0001
0001
0000
0100
0130
0000
,  // measure 38
0010
0001
0000
0000
0001
0100
0000
0000
0100
0010
0000
0000
0010
1000
0000
0000
,  // measure 39
0002
0000
0100
0100
0000
1000
1003
0000
,  // measure 40
2200
0000
3300
0202
0000
0303
1000
0001
,  // measure 41
0000
1000
0010
0100
0101
0001
1100
0000
,  // measure 42
0001
0100
1000
0100
0010
0000
1010
0000
,  // measure 43
0001
0010
1000
0010
0100
1000
1001
0000
,  // measure 44
0001
0100
1000
0100
0010
1000
0001
0010
,  // measure 45
0200
0000
1000
1000
0000
0010
0310
0001
,  // measure 46
1000
0000
0010
0100
0000
0010
0100
0000
0002
0000
0000
0000
1003
0000
0001
0000
,  // measure 47
1000
0100
0001
0010
2000
0000
3001
1000
,  // measure 48
0000
0010
0001
0010
0100
0001
1000
0100
,  // measure 49
0000
0010
0001
1000
0010
0010
0100
0100
,  // measure 50
0001
0000
0000
0101
0000
0000
0110
0000
0000
0010
1000
0000
0001
0000
0010
0000
,  // measure 51
0100
0000
0000
1100
0000
0000
1010
0000
0000
0010
0100
0000
0001
0000
1000
0000
,  // measure 52
0100
0000
0000
0110
0000
0000
0011
0000
0000
0001
0100
0000
0010
0000
1000
0000
,  // measure 53
0100
0000
0000
0011
0000
0000
0001
0000
1000
0000
0010
0000
0001
0000
0010
0000
,  // measure 54
1000
0000
0000
1010
0000
0000
0110
0000
0000
0100
0001
0000
1000
0000
0100
0000
,  // measure 55
0010
0000
0000
0011
0000
0000
0101
0000
0000
0100
0010
0000
1000
0000
0001
0000
,  // measure 56
0010
0000
0000
0110
0000
0000
1100
0000
0000
1000
0010
0000
0100
0000
0001
0000
,  // measure 57
0011
0000
0000
1100
0000
0000
1000
0000
0001
0000
0100
0000
1000
0000
0100
0000
,  // measure 58
0002
0000
0000
0000
,  // measure 59
0003
0000
0000
0000
;

//---------------dance-single - Blinded_No_More----------------
#NOTES:
     dance-single:
     Blinded_No_More:
     Medium:
     6:
     0.471,0.483,0.297,0.266,0.000,267.000,29.000,26.000,0.000,0.000,0.000,0.471,0.483,0.297,0.266,0.000,267.000,29.000,26.000,0.000,0.000,0.000: // measure 0
0000
0000
0000
0000
,  // measure 1
0000
0000
0000
0000
,  // measure 2
0000
0000
0000
0000
,  // measure 3
0000
0000
0000
0000
,  // measure 4
2000
0000
0000
0001
0000
0000
3001
0000
,  // measure 5
0200
0000
0000
0010
0000
0000
0310
0000
,  // measure 6
1000
0000
0000
1000
0001
0000
0000
0001
,  // measure 7
0200
0320
2030
3001
,  // measure 8
2002
0000
0000
0000
,  // measure 9
3003
0000
0000
0000
,  // measure 10
1000
0000
0010
0000
0100
0000
0001
1000
,  // measure 11
0001
0000
0010
0000
0100
0000
1000
0001
,  // measure 12
1000
0000
0010
0000
0100
0000
0001
1000
,  // measure 13
0001
0101
1000
1100
,  // measure 14
1000
0000
0010
0000
0100
0000
0001
0010
,  // measure 15
0001
0000
0100
0000
0010
0000
1000
0010
,  // measure 16
1000
0000
0100
0000
0010
0000
0001
1000
,  // measure 17
0001
0000
0101
0000
1000
0010
0100
0001
,  // measure 18
1000
0000
0010
0000
0100
0100
0100
0000
,  // measure 19
0001
0000
0010
0000
0100
0100
0100
0000
,  // measure 20
1100
1100
0101
0101
,  // measure 21
1000
0001
1000
0001
1000
0001
1000
0000
,  // measure 22
0001
0000
0100
0000
0010
0010
0010
0000
,  // measure 23
1000
0000
0100
0000
0010
0010
0010
0000
,  // measure 24
0011
0011
1010
1010
,  // measure 25
0001
1000
0001
1000
0001
1000
0001
1000
,  // measure 26
0001
0000
0100
0000
0010
1000
0010
1000
,  // measure 27
0100
0000
0010
0000
0001
0100
0001
0100
,  // measure 28
0001
0010
0100
1000
,  // measure 29
1100
0000
0000
0102
0000
1000
1003
0000
,  // measure 30
0001
0010
0001
0000
0001
1000
0001
0000
,  // measure 31
0001
0100
0001
0100
0001
1000
0001
0000
,  // measure 32
0011
0000
0000
0110
0000
0110
0000
0220
,  // measure 33
0000
0330
0000
1001
0000
2002
0000
3003
,  // measure 34
1000
0010
1000
0010
0100
0000
0101
0000
,  // measure 35
0001
0010
0001
0010
0100
0000
1100
0000
,  // measure 36
1000
0010
0100
0000
0001
0010
0100
0000
,  // measure 37
2000
0000
0000
0002
0000
3003
1001
0000
,  // measure 38
2000
3020
0230
0302
,  // measure 39
2003
0000
0100
0100
0000
0001
3001
0000
,  // measure 40
2000
0000
0000
3020
0000
0000
0100
0130
,  // measure 41
0000
0010
0100
0001
1000
0001
1000
0000
,  // measure 42
0001
0100
0001
0100
0010
0000
1010
0000
,  // measure 43
1000
0100
1000
0100
0010
0000
0011
0000
,  // measure 44
0001
0100
0010
0000
1000
0100
0010
0000
,  // measure 45
0002
0000
0000
2000
0000
3003
1001
0000
,  // measure 46
1000
0010
0001
0010
2000
0000
3001
0000
,  // measure 47
1000
0100
0001
0100
2000
0000
3001
0000
,  // measure 48
1000
0010
1000
0010
0100
0001
0100
0001
,  // measure 49
1000
0100
1000
0100
0010
0001
0010
0001
,  // measure 50
1000
0000
0010
0000
0100
0000
0001
1000
,  // measure 51
0001
0000
0010
0000
0100
0000
1000
0001
,  // measure 52
1000
0000
0010
0000
0100
0000
0001
1000
,  // measure 53
0001
0101
1000
1100
,  // measure 54
1000
0000
0010
0000
0100
0000
0001
0010
,  // measure 55
0001
0000
0100
0000
0010
0000
1000
0010
,  // measure 56
1000
0000
0100
0000
0010
0000
0001
1000
,  // measure 57
0001
0000
0101
0000
1000
0010
0100
0001
,  // measure 58
2000
0000
0000
0000
,  // measure 59
3000
0000
0000
0000
;

//---------------dance-single - xRGTMx----------------
#NOTES:
     dance-single:
     xRGTMx:
     Challenge:
     9:
     0.619,0.624,0.533,0.256,0.236,346.000,52.000,25.000,88.000,0.000,0.000,0.619,0.624,0.533,0.256,0.236,346.000,52.000,25.000,88.000,0.000,0.000: // measure 0
0000
0000
0000
0000
,  // measure 1
0000
0000
0000
0000
,  // measure 2
0000
0000
0000
0000
,  // measure 3
0000
0000
0000
0000
,  // measure 4
0001
0000
0000
0001
0000
0000
0001
0000
0000
0010
0000
0000
0010
0000
0010
0000
,  // measure 5
1000
0000
0000
1000
0000
0000
1000
0000
0000
0100
0000
0000
0100
0000
0100
0000
,  // measure 6
0001
0000
0000
0001
0000
0000
0010
0000
1000
0000
0000
1000
0000
0000
0100
0000
,  // measure 7
0001
0000
0000
0010
0000
0000
1000
0000
0100
0000
0000
0001
0000
0000
0010
0000
,  // measure 8
2002
0000
0000
0000
,  // measure 9
3003
0000
MMMM
0000
,  // measure 10
1010
0000
0000
0100
0000
0000
0002
0000
0000
0000
0013
0000
0100
0000
1000
0000
,  // measure 11
0001
0000
0000
0100
0000
0000
2000
0000
0000
3100
0001
0000
0010
0000
0100
0000
,  // measure 12
1100
0000
0000
0010
0000
0000
0002
0000
0000
0000
0103
0000
0010
0000
1000
0000
,  // measure 13
0001
0000
0000
0010
0000
0000
1000
0000
0010
0000
0001
0000
0100
0000
1000
0000
,  // measure 14
1200
0000
0000
0302
0000
0000
2003
0000
0000
0000
3001
0000
0010
0000
1000
0000
,  // measure 15
1020
0000
0000
0032
0000
0000
2003
0000
0000
3010
0100
0000
0001
0000
1000
0000
,  // measure 16
1100
0000
0000
0110
0000
0000
1001
0000
0000
0001
0100
0000
0010
0000
1000
0000
,  // measure 17
0011
0000
0000
0110
0000
0000
1100
0000
1010
0000
0100
0000
0001
0000
1000
0000
,  // measure 18
0001
0010
1000
0010
0001
0010
0100
0000
,  // measure 19
1000
0010
0001
0100
0001
0010
1000
0000
,  // measure 20
1100
MMMM
0101
MMMM
1010
MMMM
0011
MMMM
,  // measure 21
1001
0000
1000
0000
0010
0000
0100
0001
0010
0000
0100
0000
1000
0001
0000
0001
,  // measure 22
1000
0010
0001
0010
1000
0010
0100
0000
,  // measure 23
0001
0010
1000
0100
1000
0010
0001
0000
,  // measure 24
0101
MMMM
1100
MMMM
0011
MMMM
1010
MMMM
,  // measure 25
2002
0000
3003
MMMM
,  // measure 26
0100
1000
0100
0001
0100
1000
0100
0001
,  // measure 27
0100
0010
0100
1000
0100
0010
0100
0001
,  // measure 28
0100
1000
0100
0001
0100
1000
0100
0010
,  // measure 29
0110
0000
MMMM
1001
MMMM
1001
MMMM
0000
,  // measure 30
0010
1000
0010
0001
0010
1000
0010
0001
,  // measure 31
0010
0100
0010
1000
0010
0100
0010
0001
,  // measure 32
0110
0000
MMMM
1100
MMMM
0101
MMMM
2002
,  // measure 33
0000
0000
0000
3000
0000
0003
0000
0000
,  // measure 34
1001
0000
1000
0000
0100
0000
0001
0000
0100
0000
1000
0010
0100
0000
0001
0000
,  // measure 35
0010
0000
1000
0000
0010
0000
0001
0100
0010
0000
1000
0000
1001
0000
0000
0000
,  // measure 36
1000
0100
1000
0001
0100
0010
0001
0010
,  // measure 37
1001
0000
1000
1100
MMMM
0001
0101
0000
,  // measure 38
0001
0000
0000
0001
0010
0000
0000
0010
1000
0000
0000
1000
0100
0000
0000
0100
,  // measure 39
0001
0000
0010
0200
0000
1000
0000
0301
,  // measure 40
0100
1000
0010
0100
0001
0010
0100
1000
,  // measure 41
0001
0000
0100
0010
0100
0000
0001
0000
1100
0000
MMMM
0000
0101
0000
MMMM
0000
,  // measure 42
1001
0000
0001
0000
0100
0000
1000
0000
0100
0000
0001
0010
0100
0000
1000
0000
,  // measure 43
0010
0000
0001
0000
0010
0000
1000
0100
0010
0000
0001
0000
1001
0000
0000
0000
,  // measure 44
0001
0100
0001
1000
0100
0010
1000
0010
,  // measure 45
1001
0000
0001
1100
MMMM
1000
0101
0000
,  // measure 46
0001
0000
0010
0000
0100
0000
1000
0001
0100
0000
0010
0000
1000
0100
0010
0000
,  // measure 47
0100
0000
1000
0000
0010
0000
0100
0001
1000
0000
0100
0000
0010
0001
0100
0000
,  // measure 48
0010
0010
1000
0001
0010
0010
0001
1000
,  // measure 49
0010
0100
0001
0010
0001
0000
MMMM
0000
,  // measure 50
0101
0000
0000
0010
0000
0000
2000
0000
0000
0000
3100
0000
0010
0000
0001
0000
,  // measure 51
1000
0000
0000
0010
0000
0000
0002
0000
0000
0013
1000
0000
0100
0000
0010
0000
,  // measure 52
0011
0000
0000
0100
0000
0000
2000
0000
0000
0000
3010
0000
0100
0000
0001
0000
,  // measure 53
1000
0000
0000
0100
0000
0000
0001
0000
0100
0000
1000
0000
0010
0000
0001
0000
,  // measure 54
0021
0000
0000
2030
0000
0000
3002
0000
0000
0000
1003
0000
0100
0000
0001
0000
,  // measure 55
0201
0000
0000
2300
0000
0000
3002
0000
0000
0103
0010
0000
1000
0000
0001
0000
,  // measure 56
0011
0000
0000
0110
0000
0000
1001
0000
0000
1000
0010
0000
0100
0000
0001
0000
,  // measure 57
1100
0000
0000
0110
0000
0000
0011
0000
0101
0000
0010
0000
1000
0000
0001
0000
,  // measure 58
MMMM
0000
0000
0000
;

//---------------dance-single - xRGTMx----------------
#NOTES:
     dance-single:
     xRGTMx:
     Easy:
     4:
     0.348,0.475,0.297,0.195,0.000,190.000,29.000,19.000,0.000,0.000,0.000,0.348,0.475,0.297,0.195,0.000,190.000,29.000,19.000,0.000,0.000,0.000: // measure 0
0000
0000
0000
0000
,  // measure 1
0000
0000
0000
0000
,  // measure 2
0000
0000
0000
0000
,  // measure 3
0000
0000
0000
0000
,  // measure 4
0010
0000
0000
0010
,  // measure 5
1000
0000
0000
1000
,  // measure 6
0100
0000
0010
0000
,  // measure 7
0001
0001
1000
1000
,  // measure 8
2002
0000
0000
0000
,  // measure 9
3003
0000
0000
0000
,  // measure 10
1000
0010
0010
0100
,  // measure 11
0001
0010
0010
0100
,  // measure 12
1000
0010
0001
0010
,  // measure 13
1000
0100
0110
1001
,  // measure 14
0001
0010
0010
0100
,  // measure 15
1000
0010
0010
0100
,  // measure 16
0001
0010
1000
0100
,  // measure 17
1001
0000
1001
0110
,  // measure 18
1001
1000
0100
0000
,  // measure 19
1000
0001
0100
0000
,  // measure 20
0020
1030
0020
0031
,  // measure 21
0010
0100
0110
1001
,  // measure 22
1001
0001
0100
0000
,  // measure 23
0001
1000
0100
0000
,  // measure 24
0020
1030
0020
0031
,  // measure 25
0220
0000
0330
0000
,  // measure 26
1000
0100
0010
0001
,  // measure 27
0100
1000
0100
0001
,  // measure 28
1000
0100
0010
0001
,  // measure 29
0200
0000
0000
0010
0000
0310
0000
0000
,  // measure 30
0001
0010
0100
1000
,  // measure 31
0001
0100
1000
0100
,  // measure 32
0001
0000
0000
0010
0000
0100
0000
1001
,  // measure 33
0000
0000
0000
0010
0000
0010
0000
0000
,  // measure 34
1000
0010
0001
1001
,  // measure 35
1000
0100
0001
1001
,  // measure 36
1000
0010
0001
0010
,  // measure 37
1000
0000
0110
1001
,  // measure 38
2000
3200
0320
0032
,  // measure 39
2003
3020
0230
0302
,  // measure 40
0013
0010
0100
0100
,  // measure 41
2002
3003
0110
1001
,  // measure 42
0001
0010
1000
1001
,  // measure 43
0001
0100
1000
1001
,  // measure 44
0001
0010
1000
0010
,  // measure 45
0001
0000
0110
1001
,  // measure 46
0001
0100
0010
1000
,  // measure 47
0100
0010
0100
1000
,  // measure 48
0010
0010
0100
0100
,  // measure 49
0001
0000
1000
0000
0001
1000
0001
0000
,  // measure 50
1000
0100
0100
0010
,  // measure 51
0001
0100
0100
0010
,  // measure 52
1000
0100
0001
0100
,  // measure 53
1000
0010
0110
1001
,  // measure 54
0001
0100
0100
0010
,  // measure 55
1000
0100
0100
0010
,  // measure 56
0001
0100
1000
0010
,  // measure 57
1001
0000
1001
0110
,  // measure 58
1001
0000
0000
0000
;
