#TITLE:Vegas Baby;
#SUBTITLE:;
#ARTIST:Blue Stahli;
#TITLETRANSLIT:;
#SUBTITLETRANSLIT:;
#ARTISTTRANSLIT:;
#CREDIT:AeronPeryton vs. Dossar;
#BANNER:vegasbaby-bn.png;
#BACKGROUND:vegasbaby-bg.png;
#LYRICSPATH:;
#CDTITLE:;
#MUSIC:Vegas Baby.mp3;
#OFFSET:-0.400;
#SAMPLESTART:61.340;
#SAMPLELENGTH:13.260;
#SELECTABLE:YES;
#BPMS:0.000=126.000;
#STOPS:;
#BGCHANGES:;

//---------------dance-single - ----------------
#NOTES:
     dance-single:
     :
     Hard:
     9:
     0.699,0.708,0.256,0.186,0.802: // measure 1
0000
0000
0000
0000
,  // measure 2
0000
0000
0000
0000
,  // measure 3
1000
0010
0100
0001
0000
1000
0100
0000
0010
0001
1000
0000
0010
0000
0100
0000
,  // measure 4
0001
0000
1000
0100
0000
0010
0001
0000
1000
0010
0100
0001
1000
0000
0010
0000
,  // measure 5
2002
0000
0000
0000
3003
1000
0001
0010
,  // measure 6
0200
0000
0000
0000
0000
0000
2300
0000
0000
0000
0000
0000
3001
0100
0001
0100
0000
0000
0010
0000
0000
1000
0000
0000
,  // measure 7
0220
0000
0000
0000
0330
1000
0001
0100
,  // measure 8
0001
0010
0001
1000
0100
1000
0001
0100
0001
1000
0010
1000
0002
0000
0000
0000
,  // measure 9
1003
0010
0100
0001
0000
0010
0100
0000
1000
0001
0100
0000
0010
0000
0100
0000
,  // measure 10
0001
0000
1000
0100
0000
0010
0001
0000
1000
0010
0100
0000
0001
0000
1000
0000
,  // measure 11
0001
0010
0100
1000
0000
0001
0100
0000
0010
1000
0001
0000
0010
0000
0100
0000
,  // measure 12
1000
0010
1000
0001
0010
0001
1000
0100
1000
0001
0100
0001
2000
0000
3002
0000
,  // measure 13
1003
0100
0010
0001
0000
0010
0100
0000
1000
0001
0100
0000
0010
0000
1000
0000
,  // measure 14
0001
0000
0010
0100
0000
1000
0001
0000
0100
0010
1000
0000
0001
0000
0100
0000
,  // measure 15
0010
1000
0001
0010
0000
0100
0010
0000
0001
1000
0010
0000
0100
0000
0001
0000
,  // measure 16
1100
0000
0000
0110
0000
0000
0011
0000
0000
0110
0000
0000
1100
0000
1001
0000
,  // measure 17
0101
0000
0000
0100
0010
0000
0000
0010
1000
0000
0000
1000
0001
0000
0000
0001
,  // measure 18
0010
0000
0000
0010
0100
0000
0000
0100
1000
0000
0000
1000
0001
0000
0000
0001
,  // measure 19
0100
0000
0000
0100
0010
0000
0000
0010
1000
0000
0000
1000
0001
0000
0000
0001
,  // measure 20
1000
0010
0000
1000
0001
0000
0010
0000
0001
1000
0000
0001
0100
0000
0010
0000
,  // measure 21
1000
0000
0000
1000
0001
0000
0000
0001
0100
0000
0000
0100
0010
0000
0000
0010
,  // measure 22
1000
0000
0000
1000
0001
0000
0000
0001
0010
0000
0000
0010
0100
0000
0000
0100
,  // measure 23
1000
0000
0000
1000
0001
0000
0000
0001
0100
0000
0000
0100
0001
0000
0000
0001
,  // measure 24
1000
0100
0000
0010
0001
0000
1000
0010
0100
0001
1000
0100
0010
0001
1000
0010
,  // measure 25
0100
0000
0001
0000
1000
0000
0001
0100
0000
0010
1000
0000
0001
0000
1000
0000
,  // measure 26
0100
0000
0010
0000
0001
0000
1000
0100
0000
0010
0001
0000
1000
0000
0010
0000
,  // measure 27
0100
0000
0001
0000
1000
0000
0001
0010
0000
0100
1000
0000
0001
0000
0100
0000
,  // measure 28
0010
0000
1000
0000
0001
0000
0010
0100
1000
0001
0100
0010
1000
0001
0010
0100
,  // measure 29
1000
0000
0001
0000
0100
0000
0010
1000
0000
0001
0010
0000
0100
0000
1000
0000
,  // measure 30
0001
0000
0100
0000
0010
0000
1000
0001
0000
0010
0100
0000
1000
0000
0010
0000
,  // measure 31
2002
0000
0000
0000
3003
0001
0100
0010
,  // measure 32
2000
0000
0000
0000
0000
0000
3002
0000
0000
0000
0000
0000
1003
0010
1000
0010
0000
0000
0200
0000
0000
0000
0000
0000
,  // measure 33
0301
1000
0100
0010
0000
0100
1000
0000
0001
0100
0010
0000
1000
0000
0001
0000
,  // measure 34
0010
0000
0100
0010
0000
0100
1000
0000
0001
0100
0010
0000
1000
0000
0001
0000
,  // measure 35
1000
0100
0010
0001
0000
1000
0010
0000
0100
0001
1000
0000
0010
0000
0100
0000
,  // measure 36
0001
1000
0001
0010
0100
0010
0001
1000
0001
0100
0010
0100
0002
0000
2003
0000
,  // measure 37
3100
0010
0001
1000
0000
0010
0100
0000
0001
1000
0100
0000
0010
0000
0100
0000
,  // measure 38
1000
0000
0001
0100
0000
0010
1000
0000
0001
0010
0100
0000
1000
0000
0001
0000
,  // measure 39
0100
0010
1000
0001
0000
1000
0100
0000
0010
0001
1000
0000
0010
0000
0100
0000
,  // measure 40
1001
0000
0000
0101
0000
0000
1001
0000
0000
0011
0000
0000
0110
0000
0011
0000
,  // measure 41
1001
0000
0000
1010
0000
0000
0110
0000
0000
0101
0000
0000
1001
0000
0101
0000
,  // measure 42
1000
0100
1000
0001
0100
0001
1000
0010
1000
0001
0010
0001
1000
0100
0010
0001
,  // measure 43
1000
0000
0000
0000
;

//---------------dance-single - ----------------
#NOTES:
     dance-single:
     :
     Medium:
     7:
     0.510,0.610,0.081,0.465,0.308:
0000
0000
0000
0000
,
0000
0000
0000
0000
,
1000
0000
0000
0001
0000
0000
0010
0000
0100
0000
1000
0000
0001
0000
0100
0000
,
0010
0000
0000
1000
0000
0000
0001
0000
0100
0000
0010
0000
1000
0000
0001
0000
,
0220
0000
0000
0000
0330
1000
0100
0010
,
0002
0000
0023
0000
0130
0100
1000
0001
,
0220
0000
0000
0000
0330
1000
0001
0100
,
0010
0000
0000
1000
0000
0000
0001
0000
0000
0100
0000
0000
2002
0000
3003
0000
,
1000
0000
0000
0010
0000
0000
0100
0000
0001
0000
1000
0000
0100
0000
0010
0000
,
0001
0000
0000
1000
0000
0000
0010
0000
0100
0000
0001
0000
1000
0000
0100
0000
,
0010
0000
0000
0100
0000
0000
1000
0000
0001
0000
0100
0000
0010
0000
1000
0000
,
0001
0000
0000
1000
0000
0000
0100
0000
0000
0010
0000
0000
0022
0000
0033
0000
,
0001
0000
0000
0010
0000
0000
0100
0000
1000
0000
0001
0000
0100
0000
0010
0000
,
1000
0000
0000
0001
0000
0000
0100
0000
0010
0000
1000
0000
0001
0000
0010
0000
,
0100
0000
0000
1000
0000
0000
0100
0000
0010
0000
0001
0000
1000
0000
0010
0000
,
2000
0000
0000
3020
0000
0000
0230
0000
0000
0320
0000
0000
2030
0000
3002
0000
,
0013
0000
0000
0010
0100
0000
0000
0000
1000
0000
0100
0000
1000
0000
0000
0000
,
0001
0000
0000
0001
0100
0000
0000
0000
0001
0000
1000
0000
0001
0000
0000
0000
,
0010
0000
0000
0010
0100
0000
0000
0000
1000
0000
0001
0000
1000
0000
0000
0000
,
0010
0100
0000
0010
0100
0000
0000
0000
0010
0000
1000
0000
0010
0000
0000
0000
,
0100
0000
0000
0100
0001
0000
0000
0000
1000
0000
0100
0000
1000
0000
0000
0000
,
0001
0000
0000
0001
1000
0000
0000
0000
0100
0000
0010
0000
0100
0000
0000
0000
,
1000
0000
0000
1000
0001
0000
0000
0000
0100
0000
0010
0000
0100
0000
0000
0000
,
0001
1000
0000
0001
1000
0000
0000
0000
0001
0000
0001
0000
1000
0000
1000
0000
,
0010
0000
0000
0010
0100
0000
0000
0010
0000
0000
1000
0000
0001
0000
0000
0000
,
1000
0000
0000
1000
0010
0000
0000
0100
0000
0000
0001
0000
1000
0000
0000
0000
,
0100
0000
0000
0100
0010
0000
0000
0001
0000
0000
0010
0000
0100
0000
0000
0000
,
1000
0000
0000
1000
0001
0000
0000
0100
0000
0000
0010
0000
1000
0000
0000
0000
,
0001
0000
0000
0001
0010
0000
0000
0100
0000
0000
0010
0000
0001
0000
0000
0000
,
1000
0000
0000
1000
0010
0000
0000
0100
0000
0000
0001
0000
1000
0000
0000
0000
,
2002
0000
0000
0000
3003
0001
0100
0010
,
2000
0000
3200
0000
0310
0010
2002
3003
,
1000
0000
0000
1000
0100
0000
0010
0000
0001
0000
0010
0000
0100
0000
1000
0000
,
0001
0000
0000
0001
0100
0000
0010
0000
1000
0000
0001
0000
0010
0000
0100
0000
,
1000
0000
0000
1000
0100
0000
0010
0000
0100
0000
1000
0000
0001
0000
0100
0000
,
0002
0000
0000
0203
0000
0000
0320
0000
0000
2030
0000
0000
3002
0000
0023
0000
,
0130
0000
0000
0100
1000
0000
0001
0000
0100
0000
0010
0000
1000
0000
0001
0000
,
0010
0000
0000
0010
0001
0000
1000
0000
0010
0000
0100
0000
0001
0000
1000
0000
,
0100
0000
0000
0100
1000
0000
0001
0000
0100
0000
0010
0000
1000
0000
0001
0000
,
2000
0000
0000
3200
0000
0000
0320
0000
0000
0230
0000
0000
2300
0000
3002
0000
,
0203
0000
0000
0320
0000
0000
2030
0000
0000
3200
0000
0000
0320
0000
0032
0000
,
1003
0000
1000
0100
0000
0100
0010
0000
0010
0001
0000
0001
1000
0100
1000
0000
,
1001
0000
0000
0000
;

//---------------dance-single - ----------------
#NOTES:
     dance-single:
     :
     Easy:
     4:
     0.261,0.317,0.105,0.070,0.000:
0000
0000
0000
0000
,
0000
0000
0000
0000
,
1000
0000
0000
0000
,
0001
0100
0010
1000
,
2002
0000
3003
1000
,
0001
0001
0100
0010
,
0220
0000
0330
0100
,
0100
0000
0000
1001
,
1000
0010
0100
0001
,
1000
0100
1000
0001
,
0100
0010
1000
0001
,
0010
0100
1000
1001
,
0001
0100
0010
1000
,
0001
1000
0100
0010
,
0100
1000
0001
0100
,
0001
0001
1000
1000
,
1001
0000
1000
0100
,
1000
0000
0001
0100
,
0001
0000
1000
0010
,
1000
1000
0001
0001
,
0100
0000
0010
1000
,
0010
0000
0100
0001
,
0100
0000
0001
1000
,
0001
0001
1000
1000
,
0010
0000
0100
0001
,
0100
0000
0001
1000
,
0001
0000
1000
0100
,
1000
1000
0001
0001
,
0100
0000
0001
1000
,
0001
0000
0100
0010
,
0220
0000
0330
0100
,
0010
0010
0100
0110
,
0010
1000
0001
0100
,
0001
0001
1000
1000
,
0010
0100
0001
1000
,
0010
0010
1000
1001
,
0001
0100
0010
1000
,
0001
0001
0010
0010
,
0100
1000
0001
0100
,
0010
0010
1000
1000
,
0001
0001
1000
1000
,
0001
1000
0001
1000
0001
1000
0001
0000
,
1001
0000
0000
0000
;

//---------------dance-single - ----------------
#NOTES:
     dance-single:
     :
     Beginner:
     2:
     0.166,0.268,0.105,0.000,0.000:
0000
0000
0000
0000
,
0000
0000
0000
0000
,
1000
0000
0000
0000
,
0001
0000
0001
0000
,
1001
0000
0000
0000
,
1000
1000
1000
0000
,
0001
0000
0100
0100
,
0100
0000
0000
0001
,
1001
0000
1000
0000
,
0001
0000
0001
0000
,
0100
0000
0100
0000
,
0010
0000
0010
0110
,
0100
0000
0100
0000
,
0010
0000
0010
0000
,
1000
0000
1000
0000
,
0001
0000
0000
0000
,
1001
0000
1000
0000
,
0100
0000
0100
0000
,
0010
0000
0010
0000
,
0001
0000
0001
0000
,
1000
0000
1000
0000
,
0010
0000
0010
0000
,
0100
0000
0100
0000
,
0001
0000
0001
0000
,
1000
0000
1000
0000
,
0100
0000
0100
0000
,
0010
0000
0010
0000
,
0100
0000
0100
0000
,
1000
0000
1000
0000
,
0001
0000
0001
0000
,
1001
0000
0000
0000
,
1000
1000
1000
1001
,
0001
0000
0001
0000
,
0100
0100
0100
0000
,
0010
0000
0010
0000
,
1000
0000
1000
1001
,
0001
0000
0001
0000
,
0100
0100
0100
0000
,
0010
0000
0010
0000
,
1000
1000
1000
1000
,
0001
0001
0001
0001
,
0100
0100
0100
0110
,
0110
0000
0000
0000
;
