#TITLE:Ten Desires;
#SUBTITLE:;
#ARTIST:Poplica*;
#TITLETRANSLIT:;
#SUBTITLETRANSLIT:;
#ARTISTTRANSLIT:;
#CREDIT:Lisek + Scarz;
#BANNER:[ZIv Academy] - Ten Desires.png;
#BACKGROUND:[ZIv Academy] - Ten Desires-bg.png;
#LYRICSPATH:;
#CDTITLE:cdtitle.png;
#MUSIC:[ZIv Academy] - Ten Desires.ogg;
#OFFSET:-0.060;
#SAMPLESTART:6.917;
#SAMPLELENGTH:13.600;
#SELECTABLE:YES;
#BPMS:0.000=140.000;
#STOPS:;
#BGCHANGES:;

//---------------dance-single - ----------------
#NOTES:
     dance-single:
     Lisek:
     Hard:
     9:
     0.582,0.692,0.289,0.289,0.269: // measure 1
0000
0000
0000
0000
,  // measure 2
0000
0000
0000
0000
,  // measure 3
0000
0000
0000
0000
,  // measure 4
0000
0000
0000
0000
,  // measure 5
1000
0100
0001
0100
1000
0100
1000
0100
,  // measure 6
0001
0100
1000
0010
0100
0100
0010
0010
,  // measure 7
0100
1000
0100
0001
0100
0010
0100
1000
,  // measure 8
0100
0001
0100
0010
1000
1000
0100
0100
,  // measure 9
0110
0001
0010
0100
0010
0001
0100
0010
,  // measure 10
0100
0001
0010
0100
0010
0010
0100
0100
,  // measure 11
1000
0000
0100
0000
1000
0000
0010
0000
0100
0001
0100
0010
0100
0001
0100
0010
,  // measure 12
0200
0000
0000
0000
0010
0000
0000
0300
,  // measure 13
0001
0000
0010
0000
0001
0000
0100
0000
0010
1000
0000
0100
0000
0000
0000
0000
,  // measure 14
0010
0000
0100
0000
1000
0000
0010
0000
0100
0010
0000
1000
0000
0100
0000
0000
,  // measure 15
1000
0000
0001
0000
0100
0000
0010
0000
0100
0001
0000
1000
0000
0000
0000
0000
,  // measure 16
0100
0000
0010
0000
0001
0000
1000
0010
0100
0010
0000
0100
0000
0001
0010
0000
,  // measure 17
0100
0000
1000
0000
0010
0000
1000
0000
0100
0010
0000
0001
0000
0000
0000
0000
,  // measure 18
0100
0000
0010
0000
0100
0000
0001
0000
0010
0100
0000
1000
0000
0010
0000
0000
,  // measure 19
1000
0000
0100
0000
1000
0000
0001
0000
0100
0010
0000
0100
0000
0000
0000
0000
,  // measure 20
0011
0110
1010
1001
,  // measure 21
1000
0100
0001
0100
1000
0010
0100
0001
,  // measure 22
0100
1000
0100
0001
1000
1000
0100
0100
,  // measure 23
1000
0010
0001
0010
1000
0010
0100
0001
,  // measure 24
0010
0000
1000
0000
0010
0000
0001
0100
0001
0000
0001
0000
0100
0000
0100
0000
,  // measure 25
0001
0100
1000
0100
0001
0010
0100
0001
,  // measure 26
0100
1000
0100
0001
0100
0100
1000
1000
,  // measure 27
0001
0010
1000
0010
0001
0100
0010
1000
,  // measure 28
1010
0000
0000
0000
0110
0000
0000
0000
0001
0100
0001
1000
0000
0000
0000
0000
,  // measure 29
1001
0000
1000
0000
0010
0000
0100
0010
0000
1000
0000
0000
0100
0000
0000
0000
,  // measure 30
0110
0000
0010
0000
0001
0000
0100
0010
0000
1000
0000
0000
0010
0000
0000
0000
,  // measure 31
2020
0000
3030
0100
0001
0000
1000
0100
,  // measure 32
2000
3002
0203
0300
,  // measure 33
1100
1000
0010
0100
0010
1000
0100
0010
,  // measure 34
0011
0001
0100
0010
0100
0001
0010
0100
,  // measure 35
1000
0100
0010
0001
0100
0010
1000
0010
0100
0001
0100
0010
1000
0100
0010
0001
,  // measure 36
2000
3020
0230
0302
,  // measure 37
2003
0001
0001
0001
0001
0000
0010
0010
,  // measure 38
0010
0010
0010
0000
0001
0001
0010
0010
,  // measure 39
3001
0100
0010
1000
0100
0000
1000
0010
,  // measure 40
0100
0010
1000
0000
0001
0001
1000
1000
,  // measure 41
0010
0100
0010
1000
0001
0000
0100
0001
,  // measure 42
1000
0100
1000
0000
0001
0001
0010
0010
,  // measure 43
0001
0100
0010
0100
0001
0000
0010
0100
,  // measure 44
1000
0100
0010
0000
0100
0100
0010
0010
,  // measure 45
1001
0000
0000
0110
0000
0000
0000
0000
1100
0000
0000
0000
0000
0000
1000
0100
,  // measure 46
1000
0000
0000
0010
0000
0000
0100
0000
0220
0000
0000
0000
0330
0000
0000
0000
,  // measure 47
1001
0000
0000
0010
0202
0000
0303
0000
,  // measure 48
0001
0000
0000
0010
0000
0000
0100
0010
0000
0000
0000
0000
0110
0000
0000
0000
,  // measure 49
1001
1000
1010
0000
1001
0001
0101
0000
,  // measure 50
1001
1000
1100
0000
1001
0001
0011
0000
,  // measure 51
1000
0100
1000
0010
1000
0100
1000
0010
1000
0001
0100
0001
1000
0001
0010
0001
,  // measure 52
0200
1000
0010
0001
,  // measure 53
0301
0000
0000
0000
,  // measure 54
0000
0000
0000
0000
,  // measure 55
0202
0000
0303
0100
0010
0000
0100
0001
,  // measure 56
0020
0230
2300
3000
,  // measure 57
1010
0000
0010
0000
0100
0000
0010
1000
0000
0100
0000
0000
0010
0000
0000
0000
,  // measure 58
0101
0000
0100
0000
0010
0000
1000
0001
0000
0100
0000
0000
0001
0000
0000
0000
,  // measure 59
0022
0000
0000
0000
0033
0000
0001
0000
0100
0000
0000
0000
0000
0000
0010
1000
,  // measure 60
0020
0230
0302
0003
,  // measure 61
1001
0000
0001
0000
0100
0000
0001
0010
0000
0001
0000
0000
0100
0000
0000
0000
,  // measure 62
1010
0000
1000
0000
0010
0000
0100
0010
0000
0100
0000
0000
0001
0000
0000
0000
,  // measure 63
2020
0000
3030
0010
0100
0000
0010
1000
,  // measure 64
0200
0320
0032
0003
,  // measure 65
0101
0100
0010
0100
0001
0010
0001
0100
,  // measure 66
0110
0010
1000
0010
0100
0010
1000
0001
,  // measure 67
1000
0100
0010
0001
0100
0010
0100
0001
0010
0100
1000
0001
0100
0010
1000
0001
,  // measure 68
2000
3020
0230
0302
,  // measure 69
2000
0000
0000
0000
,  // measure 70
3003
0000
0000
0000
;

//---------------dance-single - ----------------
#NOTES:
     dance-single:
     Scarz:
     Medium:
     7:
     0.504,0.461,0.209,0.546,0.096,346.000,26.000,68.000,0.000,0.000,0.000,0.504,0.461,0.209,0.546,0.096,346.000,26.000,68.000,0.000,0.000,0.000:
0000
0000
0000
0000
,
0000
0000
0000
0000
,
0000
0000
0000
0000
,
0000
0000
0000
0000
,
1000
0000
0010
0000
0100
0000
0000
0010
0000
0000
1000
0000
1001
0000
0000
0000
,
0001
0000
0010
0000
0100
0000
0000
0010
0000
0000
0001
0000
1001
0000
0000
0000
,
1000
0000
0100
0000
0001
0000
0000
0100
0000
0000
1000
0000
1001
0000
0000
0000
,
0001
0000
0100
0000
1000
0000
0000
0100
0000
0000
0001
0000
1001
0000
0000
0000
,
1000
0000
0010
0000
0100
0000
0000
0001
0000
0000
1000
0000
1001
0000
0000
0000
,
0001
0000
0100
0000
0010
0000
0000
1000
0000
0000
0001
0000
1001
0000
0000
0000
,
1000
0000
0010
0000
0100
0000
0000
0010
0000
0000
1000
0000
0001
0000
1000
0000
,
1001
0000
0000
0000
,
2001
0000
0000
0010
3020
0000
0000
0100
,
0230
0000
0000
0001
0302
0000
0000
0010
,
0023
0000
0000
0100
0230
0000
0000
1000
,
2300
0000
0000
0001
3001
0000
0000
0000
,
1002
0000
0000
0010
0023
0000
0000
0100
,
0230
0000
0000
1000
2300
0000
0000
0010
,
3020
0000
0000
0100
0230
0000
0000
0001
,
0302
0023
0230
2300
,
3001
0010
0200
0000
1300
0000
1000
0010
,
0200
0000
0301
0000
0001
0010
0100
0000
,
2000
0000
3020
0000
,
0032
0203
2300
3002
,
1003
0010
0200
0000
0301
0000
0001
0010
,
0200
0000
1300
0000
1000
0010
0100
0000
,
0002
0000
0203
0000
,
2300
3020
0032
2003
,
3001
0000
0000
0000
0100
0000
0000
0010
0000
0000
1000
0000
1001
0000
0000
0000
,
1000
0000
0000
0000
0100
0000
0000
0010
0000
0000
0001
0000
1001
0000
0000
0000
,
2000
0000
3020
0000
,
0032
0203
2300
3002
,
1003
0000
0000
0000
0010
0000
0000
0100
0000
0000
0001
0000
1001
0000
0000
0000
,
0001
0000
0000
0000
0010
0000
0000
0100
0000
0000
1000
0000
1001
0000
0000
0000
,
0002
0000
0023
0230
,
2300
3020
0230
0302
,
1003
0010
1000
0001
0010
0001
1000
0100
,
1000
0001
0100
0001
2000
0000
3002
0000
,
1003
0010
0100
0001
0010
0100
1000
0010
,
0100
0001
0010
0100
2000
0000
3002
0000
,
1003
0100
1000
0001
0100
0001
1000
0010
,
1000
0001
0010
0001
2000
0000
3002
0000
,
1003
0100
0010
0001
0100
0010
1000
0100
,
0010
0001
0100
0010
2000
0000
3002
0000
,
1003
0000
0000
1000
0000
0000
0000
0000
1100
0000
0000
0000
0000
0000
0100
0000
,
0001
0000
0000
0100
0000
0000
0000
0000
0110
0000
0000
0000
0000
0000
0000
0000
,
0001
0000
0000
0001
0000
0000
0000
0000
0101
0000
0000
0000
0000
0000
0100
0000
,
1000
0000
0000
0100
0000
0000
0000
0000
0110
0000
0000
0000
0000
0000
0000
0000
,
1000
0010
0100
0001
,
1000
0100
0010
0001
,
1000
0010
0100
0001
0010
0100
1000
0010
,
0100
0001
0010
0100
1000
0010
0100
0001
,
1001
0000
0000
0000
,
0110
0000
0000
0000
,
1001
0000
0001
0010
0100
0000
1000
0010
,
0200
0000
0302
0000
2003
0000
3001
0010
,
0100
0000
0000
0000
0010
0000
0000
0100
0000
0100
0000
0000
1100
0000
0000
0000
,
1000
0000
0000
0000
0010
0000
0000
0100
0000
0000
0001
0000
1000
0000
0000
0000
,
1001
0000
1000
0010
0100
0000
0001
0010
,
0200
2300
3020
0230
,
0301
0000
0010
0000
0100
0000
0000
1000
0000
1000
0000
0000
1001
0000
0000
0000
,
1000
0000
0010
0000
0100
0000
0000
0001
0000
0000
1000
0000
0001
0000
0000
0000
,
1001
0000
0001
0010
0100
0000
1000
0010
,
0200
0000
0302
0000
2003
0000
3001
0010
,
0100
0000
0010
0000
0100
0000
0000
1000
0000
1000
0000
0000
1001
0000
0000
0000
,
1000
0000
0010
0000
0100
0000
0000
0001
0000
0000
1000
0000
0001
0000
0000
0000
,
1001
0000
1000
0010
0100
0000
0001
0010
,
0200
2300
3020
0230
,
0301
0010
0001
1000
0010
1000
0001
0100
,
0001
1000
0100
1000
0010
0010
0100
0100
,
0001
0010
0100
1000
0010
0100
0001
0010
,
0100
1000
0010
0100
0001
0001
1000
1000
;

//---------------dance-single - ----------------
#NOTES:
     dance-single:
     Scarz:
     Easy:
     4:
     0.342,0.404,0.209,0.602,0.008,197.000,26.000,75.000,0.000,0.000,0.000,0.342,0.404,0.209,0.602,0.008,197.000,26.000,75.000,0.000,0.000,0.000:
0000
0000
0000
0000
,
0000
0000
0000
0000
,
0000
0000
0000
0000
,
0000
0000
0000
0000
,
0001
0000
0000
0000
,
0010
0000
0110
1001
,
1000
0000
0000
0000
,
0010
0000
0110
1001
,
0001
0000
0000
0000
,
0010
0000
0110
1001
,
1000
0000
0000
0000
,
0010
0000
0000
0000
,
2000
0000
3020
0000
,
0230
0000
0302
0000
,
0023
0000
0230
0000
,
2300
0000
3001
0000
,
2000
0000
3020
0000
,
0230
0000
0302
0000
,
0023
0000
0230
0000
,
2300
0000
3001
0000
,
0002
0103
0110
0020
,
1030
1010
1000
0010
,
0200
0000
0302
0000
,
0023
0230
2300
3001
,
2000
3010
0110
0200
,
0301
0101
0001
0010
,
0200
0000
2300
0000
,
3020
0230
0302
0003
,
1000
0010
0100
0101
,
0001
0010
0100
1100
,
2000
0000
3020
0000
,
0230
0302
2003
3000
,
0001
0010
0100
1100
,
1000
0010
0100
0101
,
0002
0000
0023
0230
,
2300
3020
0230
0302
,
1003
0000
0000
0010
0000
0000
0100
0000
,
0000
0001
0000
0000
0020
0000
0230
0000
,
1300
0000
0000
0010
0000
0000
0100
0000
,
0000
0001
0000
0000
0020
0000
0230
0000
,
1300
0000
0000
0010
0000
0000
0100
0000
,
0000
0001
0000
0000
0020
0000
0230
0000
,
1300
0000
0000
0010
0000
0000
0100
0000
,
0000
0001
0000
0000
0020
0000
0230
0000
,
1300
0000
0000
1000
0000
0000
0000
0000
1001
0000
0000
0000
0000
0000
0000
0000
,
0001
0000
1001
0000
,
1000
0000
0000
1000
0000
0000
0000
0000
1001
0000
0000
0000
0000
0000
0000
0000
,
0001
0000
1001
0000
,
0001
0010
0100
1000
,
0001
0100
0010
1000
,
0001
0010
0100
1000
,
0001
0100
0010
1000
,
1001
0000
0000
0000
,
0110
0000
0000
0000
,
2000
0000
3002
0203
,
0320
2030
3001
0000
,
0001
0010
0100
1100
,
1000
0010
0100
0101
,
0002
0000
0023
0000
,
0230
2300
3002
0003
,
1000
0010
0100
0101
,
0001
0010
0100
1100
,
2000
0000
3020
0230
,
0302
0023
0230
0300
,
1000
0010
0100
0101
,
0001
0010
0100
1100
,
2000
0000
3020
0230
,
0302
0023
0230
2300
,
3001
0000
0000
0100
0000
0000
0010
0000
,
0000
1000
0000
0000
0200
0000
0320
0000
,
0031
0000
0000
0100
0000
0000
0010
0000
,
0000
1000
0000
0000
0200
0000
0320
0000
,
0030
0000
0000
0000
;

//---------------dance-single - ----------------
#NOTES:
     dance-single:
     Scarz:
     Beginner:
     1:
     0.175,0.229,0.080,0.000,0.000,143.000,10.000,0.000,0.000,0.000,0.000,0.175,0.229,0.080,0.000,0.000,143.000,10.000,0.000,0.000,0.000,0.000: // measure 0
0000
0000
0000
0000
,  // measure 1
0000
0000
0000
0000
,  // measure 2
0000
0000
0000
0000
,  // measure 3
0000
0000
0000
0000
,  // measure 4
0001
0000
0000
0000
,  // measure 5
0001
0000
0000
0000
,  // measure 6
1000
0000
0000
0000
,  // measure 7
1000
0000
0000
0000
,  // measure 8
0010
0000
0000
0000
,  // measure 9
0010
0000
0000
0000
,  // measure 10
0100
0000
0000
0000
,  // measure 11
0100
0000
0000
0000
,  // measure 12
0001
0000
0010
0000
,  // measure 13
0100
0000
1000
0000
,  // measure 14
0010
0000
0100
0000
,  // measure 15
0001
0000
1001
0000
,  // measure 16
0001
0000
0010
0000
,  // measure 17
0100
0000
1000
0000
,  // measure 18
0010
0000
0100
0000
,  // measure 19
0001
0000
1001
0000
,  // measure 20
0001
0000
0000
0010
,  // measure 21
0000
0000
0100
1000
,  // measure 22
0100
0000
1000
0000
,  // measure 23
0010
0100
0001
1000
,  // measure 24
0001
0000
0000
0010
,  // measure 25
0000
0000
0100
1000
,  // measure 26
0100
0000
1000
0000
,  // measure 27
0010
0100
0001
0000
,  // measure 28
1000
0100
0010
0000
,  // measure 29
0001
0100
0010
0000
,  // measure 30
1000
0000
0100
0000
,  // measure 31
0010
0000
0001
0000
,  // measure 32
1000
0010
0100
0000
,  // measure 33
0001
0010
0100
0000
,  // measure 34
1000
0000
0010
0000
,  // measure 35
0100
0000
0001
0000
,  // measure 36
1000
0000
0000
0100
,  // measure 37
0000
0000
0010
0000
,  // measure 38
0001
0000
0000
0100
,  // measure 39
0000
0000
0010
0000
,  // measure 40
1000
0000
0000
0100
,  // measure 41
0000
0000
0010
0000
,  // measure 42
0001
0000
0000
0100
,  // measure 43
0000
0000
0010
0000
,  // measure 44
1000
0000
1001
0000
,  // measure 45
0001
0000
1001
0000
,  // measure 46
1000
0000
1001
0000
,  // measure 47
0001
0000
1001
0000
,  // measure 48
1000
0000
0010
0000
,  // measure 49
0100
0000
0001
0000
,  // measure 50
1000
0000
0100
0000
,  // measure 51
0010
0000
0001
0000
,  // measure 52
1001
0000
0000
0000
,  // measure 53
0110
0000
0000
0000
,  // measure 54
1001
0000
0001
0010
,  // measure 55
0100
1000
1001
0000
,  // measure 56
1000
0010
0100
0000
,  // measure 57
0001
0010
0100
0000
,  // measure 58
1000
0010
0100
0001
,  // measure 59
0010
0100
1000
0000
,  // measure 60
0001
0010
0100
0000
,  // measure 61
1000
0010
0100
0000
,  // measure 62
0001
0000
0010
0000
,  // measure 63
0100
1000
0010
0000
,  // measure 64
0100
0001
0010
0100
,  // measure 65
1000
0010
0100
0001
,  // measure 66
1000
0000
0010
0000
,  // measure 67
0100
0000
0001
0000
,  // measure 68
1000
0000
0010
0000
,  // measure 69
0100
0000
0001
0000
,  // measure 70
1000
0000
0100
0000
,  // measure 71
0010
0000
0001
0000
;
