#TITLE:Speaking Japanese;
#SUBTITLE:;
#ARTIST:Shiny Toy Guns;
#TITLETRANSLIT:;
#SUBTITLETRANSLIT:;
#ARTISTTRANSLIT:;
#GENRE:Alternative Rock;
#CREDIT:Maestro Grithok S + Telperion;
#BANNER:[ZIv Academy] - Speaking Japanese.png;
#BACKGROUND:[ZIv Academy] - Speaking Japanese-bg.png;
#JACKET:[ZIv Academy] - Speaking Japanese-jacket.png;
#LYRICSPATH:;
#CDTITLE:cdtitle.png;
#MUSIC:[ZIv Academy] - Speaking Japanese.mp3;
#OFFSET:-8.168000;
#SAMPLESTART:56.075001;
#SAMPLELENGTH:15.000000;
#SELECTABLE:YES;
#DISPLAYBPM:120;
#BPMS:0.000000=120.000000
,156.000000=60.000000
,169.000000=45.000000
,169.250000=90.000000
,169.500000=45.000000
,169.625000=90.000000
,169.750000=150.000000
,170.000000=120.000000
;
#STOPS:27.500000=2.000000,
169.750000=0.050000,
169.833328=0.050000,
169.916672=0.050000,
170.000000=1.500000
;
#BGCHANGES:;
#KEYSOUNDS:;
#ATTACKS:;

//---------------dance-single - Telperion----------------
#NOTES:
     dance-single:
     Telperion:
     Beginner:
     1:
     0.060764,0.106795,0.014667,0.022001,0.000000,53.000000,2.000000,3.000000,0.000000,0.000000,0.000000,0.060764,0.106795,0.014667,0.022001,0.000000,53.000000,2.000000,3.000000,0.000000,0.000000,0.000000:
0001
0000
0000
0000
,
1000
0000
0000
0000
,
0001
0000
0000
0000
,
1000
0000
0000
0000
,
0010
0000
0000
0000
,
0100
0000
0000
0000
,
0010
0000
0000
0000
,
0100
0000
0000
0000
,
0000
0000
0000
0000
,
0001
0000
0000
0000
,
0000
0000
0000
0000
,
0100
0000
0000
0000
,
0000
0000
0000
0000
,
1000
0000
0000
0000
,
0000
0000
0000
0000
,
0010
0000
0000
0000
,
0000
0000
0000
0000
,
0010
0000
0000
0000
,
0000
0000
0000
0000
,
0010
0000
0000
0000
,
0010
0000
0000
0000
,
2002
0000
0000
0000
,
0000
0000
0000
3003
,
1001
0000
0000
0000
,
0001
0000
0000
0000
,
1000
0000
0000
0000
,
1000
0000
0000
0000
,
0100
0000
0000
0000
,
1000
0000
0000
0000
,
0001
0000
0000
0000
,
0100
0000
0000
0000
,
0001
0000
0000
0000
,
0100
0000
0000
0000
,
0010
0000
0000
0000
,
1000
0000
0000
0000
,
0001
0000
0000
0000
,
0010
0000
0000
0000
,
1000
0000
0000
0000
,
0010
0000
0000
0000
,
0100
0000
0000
0000
,
0100
0000
0000
0000
,
0100
0000
0000
0000
,
0200
0000
0300
0001
,
0000
0000
0000
1000
,
0000
0000
0000
0001
,
0000
0000
0000
1000
,
0000
0000
0000
0100
,
0000
0000
0000
0010
,
0000
0000
0000
1000
,
0000
0000
0000
0001
,
0000
0000
0000
1000
,
0000
0000
0000
1000
,
0000
0000
0000
0001
,
0000
0000
0000
0001
,
0000
0000
0000
0100
,
0000
0000
0000
0010
,
0000
0000
0000
0001
,
0000
0000
0000
0000
,
1000
1000
0000
0000
;

//---------------dance-single - Telperion----------------
#NOTES:
     dance-single:
     Telperion:
     Easy:
     3:
     0.191721,0.320386,0.058669,0.110004,0.000000,160.000000,8.000000,15.000000,0.000000,0.000000,0.000000,0.191721,0.320386,0.058669,0.110004,0.000000,160.000000,8.000000,15.000000,0.000000,0.000000,0.000000:
0000
1000
0000
0001
,
0000
0100
0000
0000
,
0000
0010
0000
0100
,
0000
0001
0001
0000
,
0000
0010
0000
0100
,
0000
1000
0000
0000
,
0000
0010
0000
0100
,
0010
0010
0010
1000
,
0100
0000
0100
0000
,
0010
0010
0001
1000
,
0020
0000
0030
0000
,
0100
0100
0010
1000
,
0100
0000
0100
0000
,
0010
0010
0001
0100
,
0020
0000
0030
0000
,
0200
0000
0300
0000
,
0010
0010
0010
0000
,
0020
0000
0000
0030
,
0100
0100
0100
0000
,
0200
0000
0300
0000
,
0002
0000
0003
0000
,
2002
0000
0000
0000
,
0000
0000
0000
3003
,
1000
0100
0010
0001
,
0000
0001
0000
0001
,
0010
0100
1000
0010
,
0000
0010
0000
0010
,
1000
0010
0100
0001
,
0000
0001
0000
0001
,
0100
0010
1000
0100
,
0000
1000
0200
0300
,
1000
1000
0000
0010
,
0010
0000
0100
0000
,
0001
0001
0000
0010
,
0010
0000
0100
1000
,
0010
0010
0000
0100
,
0100
0000
0001
0010
,
0100
0000
0100
0000
,
0110
0110
0110
0000
,
2001
0000
0000
0000
3001
0001
0001
0000
,
1002
0000
0000
0000
1003
1000
1000
0000
,
0210
0000
0310
0010
0020
0000
1030
1000
,
0200
0000
0300
1000
,
0100
0010
0001
0000
,
0001
0000
0001
1000
,
0010
0100
0001
0000
,
0001
0000
0001
0010
,
0100
1000
0010
0000
,
0010
0000
0010
1000
,
0001
0100
0010
0000
,
0100
0020
0030
1000
,
0100
0010
0001
1000
,
1000
0001
0001
1000
,
0010
0100
0001
1000
,
1000
0001
0001
0001
,
0010
0100
1000
0010
,
0010
0100
0100
0001
,
0100
0010
1000
0000
,
0001
1001
0000
0000
;

//---------------dance-single - Grithperion----------------
#NOTES:
     dance-single:
     Grithperion:
     Medium:
     5:
     0.335250,0.384463,0.154005,0.293343,0.051335,259.000000,21.000000,40.000000,0.000000,0.000000,0.000000,0.335250,0.384463,0.154005,0.293343,0.051335,259.000000,21.000000,40.000000,0.000000,0.000000,0.000000:
0000
0000
0200
1000
0300
0000
0200
0001
,
0300
0000
0200
1000
0300
0010
1010
0000
,
1001
0000
0020
0001
0030
0000
0020
1000
,
0030
0000
0020
0001
0030
0100
0101
0000
,
1001
0000
0200
0001
0300
0000
0200
1000
,
0300
0000
0200
0001
0300
0010
1010
0000
,
1001
0000
0200
0010
0300
0000
2000
3001
,
1000
0001
1000
0000
0100
0000
0010
0010
,
0010
0000
0000
0000
0100
1000
0100
0000
,
0010
0000
0000
0010
0000
0000
0000
0000
0001
0000
1000
0000
0001
0000
0000
0000
,
0101
0000
0000
0000
,
1000
0000
0100
0010
0100
0000
1000
0001
,
2000
0000
3010
0000
0100
0001
0100
0000
,
0010
0000
0000
0010
0000
0000
0000
0000
1000
0000
0100
0000
0010
0000
0000
0000
,
2200
0000
3300
0000
,
0110
0000
0001
1000
0002
0000
0023
0000
,
0230
0000
0310
0000
,
0011
0000
1000
0010
0200
0000
0320
0000
,
2000
0030
0000
0000
0000
3000
0100
0000
1000
0000
0000
0000
0010
0000
0000
0000
,
0101
0000
1000
0001
1000
0000
0001
0000
,
0110
0000
0100
0010
0100
0000
1000
0010
,
0200
0000
0000
0000
,
0000
0000
0000
0310
,
1000
0000
0000
1000
0000
0000
1000
0000
0000
0000
0000
0000
0001
0000
0100
0000
,
0000
0010
0100
0010
0200
0000
0300
0000
,
0001
0000
0000
0001
0000
0000
0001
0000
0000
0000
0000
0000
1000
0000
0100
0000
,
0000
0010
0100
1000
0002
0000
0003
0000
,
0100
0000
0000
0100
0000
0000
0100
0000
0000
0000
0000
0000
0001
0000
1000
0000
,
0000
0010
0100
0010
2000
0000
3000
0000
,
0100
0000
0000
0100
0000
0000
0100
0000
0000
0000
0000
0000
0010
0000
0001
0000
,
0000
1000
0010
1000
0002
0000
0003
0000
,
1001
0000
1000
0100
0000
0010
0100
0010
,
0000
0001
1000
0001
0000
0100
0100
0000
,
0110
0000
0010
1000
0000
1000
0100
1000
,
0000
0001
0100
0001
0000
0000
1001
0000
,
0110
0000
1000
0010
0000
0001
0100
0001
,
0000
0010
0001
0010
0000
0000
0100
0000
,
0110
0000
1000
0100
0000
0001
0100
0001
,
0000
0010
0000
0200
0000
0000
0000
0000
,
0310
0000
0001
0001
0200
0000
0300
0000
,
0120
0000
1030
0100
0010
0100
1000
0010
,
0210
0000
0301
0010
0200
0000
0310
0001
,
2000
0000
0000
0000
0000
0000
0000
0000
3000
0000
0000
0000
0001
0000
0000
0001
,
0000
0001
0000
0000
1000
0010
0000
0100
,
0001
0000
0100
0000
0020
0000
0000
0000
0030
0000
0000
0000
1000
0000
0000
1000
,
0000
1000
0000
0000
0001
0010
0000
0100
,
1000
0000
0001
0000
0200
0000
0000
0000
0300
0000
0000
0000
0010
0000
0000
0010
,
0000
0010
0000
0000
1000
0001
0000
0100
,
0010
0000
0100
0000
0002
0000
0000
0000
0003
0000
0000
0000
0010
0000
0000
0010
,
0000
0010
0000
0000
0100
1000
0000
0001
,
0100
0000
0001
0000
0000
0000
0000
0000
1001
0000
0000
0000
0001
0000
0000
0100
,
0000
0001
0000
0000
0200
0001
0300
0000
,
0200
0000
1000
0000
0300
0000
0100
0000
0100
0000
0000
0000
1000
0000
0000
0010
,
0000
1000
0000
0000
0200
1000
0300
0000
,
0200
0000
0001
0000
0300
0000
0100
0000
0100
0000
0000
0000
1000
0000
0000
0001
,
0000
1000
0000
0100
0020
0001
0030
0000
,
0200
0000
1000
0000
0300
0000
0001
0000
0001
0000
0000
0000
0100
0000
0000
0010
,
0000
0100
0000
0001
0100
0001
0000
0100
,
1000
0110
0000
0000
;

//---------------dance-single - Maestro Grithok S----------------
#NOTES:
     dance-single:
     Maestro Grithok S:
     Hard:
     8:
     0.449444,0.469899,0.242008,0.146672,0.231008,376.000000,33.000000,20.000000,0.000000,0.000000,0.000000,0.449444,0.469899,0.242008,0.146672,0.231008,376.000000,33.000000,20.000000,0.000000,0.000000,0.000000:
1000
0000
0000
0001
0000
0000
0100
0000
0000
0000
0001
0000
0010
0000
0100
0000
,
0000
1000
0100
0010
0000
0001
0011
0000
,
1000
0010
0000
1000
0010
0000
0100
0000
0000
0000
0001
0000
1000
0000
0100
0000
,
0000
1000
0100
0002
0000
0103
1000
0000
,
0001
0010
0000
0001
0010
0000
0100
0000
0000
0000
1000
0000
0010
0000
0100
0000
,
0000
0001
0100
2000
0000
3100
0110
0000
,
1000
0001
0000
1000
0001
0000
0010
0000
0000
0000
0001
0000
0100
0010
0200
0000
,
0310
0000
0000
0010
0000
0000
0010
0000
0000
0000
1000
0000
0001
0000
0000
0000
,
0020
0001
0000
0031
0100
1000
0100
0001
,
0011
0000
0000
1010
0000
0000
1000
0000
0100
0000
0010
0000
0001
0000
0000
0000
,
2100
0001
0000
0001
0000
0000
0000
3000
,
0100
0000
0000
0100
0000
0000
0100
0000
0000
0000
1000
0000
0010
0000
0100
0000
,
0200
0001
0000
0301
0100
1000
0100
0001
,
0011
0000
0000
1010
0000
0000
0001
0000
0010
0000
0100
0000
1000
0000
0000
0000
,
1020
0000
0000
0030
,
0110
0000
0000
0100
0000
0000
0100
0000
0001
0000
0000
0000
1000
0000
0000
0000
,
0002
0100
0003
0100
,
1100
0000
0000
1000
0000
0000
1000
0000
0010
0000
0000
0000
1000
0000
0000
0000
,
0001
0000
0000
0010
0100
0000
1000
0000
,
1001
0000
0000
0001
0000
0000
0100
0000
0000
0000
0000
0000
0010
0000
0000
0000
,
0110
0000
1000
0001
0010
0000
0100
1000
,
0020
0000
0000
2030
0000
0000
0002
0000
,
0000
0000
0000
3003
,
1000
0100
0001
0100
1000
0010
0100
0101
,
0000
0010
0001
1001
0000
1000
0100
0100
,
0010
0100
0000
0010
0100
0000
1000
0000
0010
0000
0100
0000
0001
0000
0101
0000
,
0000
1000
0100
0110
0000
0100
1100
1000
,
0001
0100
0000
0001
0100
0000
0010
0000
1000
0000
0100
0000
0010
0000
0011
0000
,
0000
0100
1000
1001
0000
0001
0100
0100
,
0010
0100
0000
0010
0100
0000
0001
0000
1000
0000
0000
0000
0100
0000
0010
0000
,
0000
0001
1000
0000
0002
0000
0003
0000
,
1000
0100
0000
1000
0100
0000
0010
0000
0100
0000
1000
0000
0010
0100
0010
0000
,
0000
0000
0100
0000
0001
1000
0001
0000
0010
0000
0100
0000
0010
0000
0000
0000
,
0001
0100
0000
0001
0100
0000
0010
0000
0100
0000
0001
0000
1000
0100
1000
0000
,
0000
0000
0001
0000
1000
0100
0010
0000
0000
0000
0010
0000
0010
0000
0000
0000
,
0001
1000
0000
1000
0100
0000
0010
0000
0100
0000
1000
0000
0001
0100
0001
0000
,
0000
0000
0100
0000
0001
0100
0010
0000
0000
0000
0100
0000
0100
0000
0000
0000
,
0010
1000
0000
0010
1000
0000
0001
0000
0100
0000
0001
0000
1000
0100
1000
0000
,
0100
0020
0100
0032
0000
0000
0003
0000
,
1001
0000
0000
1000
0000
0000
2000
0000
0000
0000
0000
0000
3100
0000
0010
0000
0001
0000
0010
0000
0000
0000
0010
0000
0100
0000
0010
0000
0000
0000
0000
0000
,
1001
0000
0000
0001
0000
0000
0002
0000
0000
0000
1000
0000
1003
0000
0000
0000
1001
0000
0000
0000
0000
0000
2000
0000
0000
0000
0001
0000
3001
0000
0000
0000
,
0001
0000
0000
0100
0000
0000
0010
0000
0000
0000
1000
0000
0001
0000
0000
0000
0020
0000
0000
0000
0100
0000
0000
0000
0000
0000
0000
0000
0130
0000
0000
0000
,
2000
0000
0000
0000
3000
0000
0001
0010
,
0100
1000
0010
0100
0001
0101
0000
0001
,
1000
0000
1100
0000
0000
0000
0010
0000
0010
0000
0100
0000
1000
0010
0000
1000
,
0010
0100
0000
0100
0001
0011
0000
0001
,
1000
1100
0000
0010
0010
0000
1000
0010
,
0100
1000
0001
0010
1000
1100
0000
0100
,
1000
0000
1001
0000
0000
0000
0010
0000
0010
0000
1000
0000
0001
0010
0000
0001
,
0010
0100
0000
0100
1000
1010
0000
0001
,
1000
0000
0000
0000
0010
0000
0000
0000
0210
0000
0000
0000
0301
0000
0000
0001
,
0010
0000
0001
0000
0000
0000
0001
0000
0100
0010
0100
0000
0010
0000
1000
0000
,
0100
0010
0100
0000
1000
0000
0010
0000
0100
0000
0000
0000
0001
0100
0000
0001
,
0100
0000
0010
0000
0000
0000
0010
0000
0100
0001
0100
0000
0001
0000
1000
0000
,
0100
0010
0100
0100
1000
0000
0001
0010
,
1000
0010
0001
1000
0010
0100
0000
0001
,
0100
0001
0100
0000
0010
0000
0100
0000
0100
0000
0010
0000
1000
0010
0000
1000
,
0010
0100
0001
0010
0001
0101
0000
0010
,
0110
1001
0000
0000
;

//---------------dance-double - Telperion----------------
#NOTES:
     dance-double:
     Telperion:
     Medium:
     6:
     0.335250,0.405822,0.337345,0.132004,0.121004,256.000000,46.000000,18.000000,0.000000,0.000000,0.000000,0.335250,0.405822,0.337345,0.132004,0.121004,256.000000,46.000000,18.000000,0.000000,0.000000,0.000000:
00011000
00000000
00000000
01000000
00000000
00000000
00010000
00000000
00000000
00000000
00000000
00000000
10000000
00000000
00000000
00000000
,
01000000
00010000
00002000
00003000
,
00011000
00000000
00000000
00000100
00000000
00000000
00001000
00000000
00000000
00000000
00000000
00000000
00000001
00000000
00000000
00000000
,
00000100
00001000
00000100
00000000
,
00001001
00000000
00000000
00010000
00000000
00000000
00000100
00000000
00000000
00000000
00000000
00000000
00010000
00000000
00000000
00000000
,
00001000
01000000
00200000
00300000
,
10010000
00000000
00000000
10000000
00000000
00000000
00100000
00000000
00000000
00000000
00000000
00000000
00010000
00000000
00001000
00000000
,
00011000
00000000
00000000
00010000
00000000
00000000
00000100
00000000
00000000
00000000
00000000
00000000
00000100
00000000
00000000
00000000
,
00001000
00000100
00000000
00000100
,
00000011
00000000
00000000
00001100
00000000
00000000
00000001
00000000
00000000
00000000
00000000
00000000
00000100
00000000
00000000
00000000
,
00000010
00000000
00001000
00000000
00000000
00000000
00001000
00000100
,
00010000
00000000
00000000
00001000
00000000
00000000
01000000
00000000
00000000
00000000
00000000
00000000
00010000
00000000
00000000
00000000
,
00100000
00010000
00000000
00010000
,
11000000
00000000
00000000
00110000
00000000
00000000
10000000
00000000
00000000
00000000
00000000
00000000
00010000
00000000
00000000
00000000
,
01000000
00000000
00000000
01010000
,
20000000
00000000
00000000
01000000
00000000
00000000
00010000
00000000
30000000
00000000
00000000
00000000
10000000
00000000
00000000
00000000
,
01000000
00000000
00010000
01000000
00000000
00000000
10000000
00000000
,
00020000
00000000
00000000
10000000
00000000
00000000
01000000
00000000
00030000
00000000
00000000
00000000
01000000
00000000
00000000
00000000
,
00100000
00000000
10000000
00100000
00010000
00000000
00001000
00000000
,
00021000
00000000
00000000
00000100
00000000
00000000
00001000
00000000
00030000
00000000
00000000
00000000
00010000
00000000
00000000
00000000
,
00000200
00001300
00000100
00000010
,
00000002
00000000
00000000
00000000
,
00000000
00000000
00000000
00001003
,
00001001
00000000
00000000
00000010
00000000
00000000
00001001
00000000
00000000
00000000
00000100
00000000
00010000
00000000
00001000
00000000
,
00000000
01000000
00001000
00010000
00001000
00000000
01000000
00000000
,
10010000
00000000
00000000
00100000
00000000
00000000
10010000
00000000
00000000
00000000
01000000
00000000
00001000
00000000
00010000
00000000
,
00000000
00000100
00000100
00010000
00000200
00000000
00001300
00000000
,
00000011
00000000
00000000
00001010
00000000
00000000
00000101
00000000
00000000
00000000
00001000
00000000
00000100
00000000
00010000
00000000
,
00000000
00001000
00001000
01000000
00002000
00000000
01003000
00000000
,
00110000
00000000
00000000
11000000
00000000
00000000
01010000
00000000
00000000
00000000
01000000
00000000
00100000
00000000
10000000
00000000
,
00000000
00010000
01000000
00010000
00001000
00000000
00000000
00000000
,
00011000
00000000
00000000
00000100
00000000
00000000
00001000
00000000
00000000
00000000
00000000
00000000
00000010
00000000
00000000
00000000
,
00000100
00001000
00020000
00030000
,
00011000
00000000
00000000
01000000
00000000
00000000
00010000
00000000
00000000
00000000
00000000
00000000
00100000
00000000
00000000
00000000
,
01000000
00010000
01000000
00000000
,
10010000
00000000
00000000
00001000
00000000
00000000
01000000
00000000
00000000
00000000
00000000
00000000
00001000
00000000
00000000
00000000
,
00010000
00000100
00000020
00000030
,
00001001
00000000
00000000
00000001
00000000
00000000
00000010
00000000
00000000
00000000
00000000
00000000
00001000
00000000
00010000
00000000
,
00000000
01000000
00000000
00200000
00000000
00000000
01300000
00000000
,
20010000
00000000
00000000
01000000
00000000
00000000
00010000
00000000
30000000
00000000
00000000
00000000
10000000
00000000
00000000
00000000
00100000
00000000
00000000
00000000
00000000
00000000
00000000
00000000
01000000
00000000
00000000
00000000
00000000
00000000
00000000
00000000
,
01020000
00000000
00000000
10000000
00000000
00000000
01000000
00000000
00030000
00000000
00000000
00000000
00010000
00000000
00000000
00000000
00100000
00000000
00000000
00000000
00000000
00000000
00000000
00000000
00001000
00000000
00000000
00000000
00000000
00000000
00000000
00000000
,
00021000
00000000
00000000
00000100
00000000
00000000
00001000
00000000
00030000
00000000
00000000
00000000
00010000
00000000
00000000
00000000
00000100
00000000
00000000
00000000
00001000
00000000
00000000
00000000
00000200
00000000
00000000
00000000
00000001
00000000
00000000
00000000
,
00000000
00000000
00000000
00000000
00000000
00000000
00000000
00000000
00000300
00000000
00000000
00000000
00001001
00000000
00000000
00000001
,
00000000
00000101
00000000
00001000
00000100
00010000
00000000
00001000
,
01000000
00000000
00001000
00000000
00010000
00000000
00000000
00000000
01000000
00000000
00000000
00000000
10010000
00000000
00000000
10000000
,
00000000
11000000
00000000
01000000
00100000
00001000
00000000
00010000
,
00010000
00000000
00000100
00000000
00020000
00000000
00000000
00000000
00031000
00000000
00000000
00000000
00010010
00000000
00000000
00001010
,
00000000
00000110
00000000
00001000
00000010
00010000
00000000
00001000
,
00001000
00000000
01000000
00000000
00002000
00000000
00000000
00000000
00103000
00000000
00000000
00000000
00101000
00000000
00000000
00110000
,
00000000
01100000
00000000
10000000
00010000
00100000
00000000
01000000
,
00100000
00000000
00000000
00000000
00100000
00000000
00000000
00000000
00000000
00000000
00000000
00000000
10010000
00000000
00000000
10000000
,
00100000
01000000
00000000
00001000
00010000
00000100
00000000
00010000
,
00001000
00000000
01000000
00000000
00000000
00000000
00000000
00000000
00001000
00000000
00000000
00000000
00011000
00000000
00000000
00010000
,
00000100
00001000
00000000
00000100
00010000
00001000
00000000
01000000
,
00001000
00000000
00100000
00000000
00000000
00000000
00000000
00000000
00010000
00000000
00000000
00000000
00110000
00000000
00000000
00010000
,
10000000
00100000
00000000
01000000
00001000
00010000
00000000
00000100
,
00010000
00000000
00000010
00000000
00000000
00000000
00000000
00000000
00001000
00000000
00000000
00000000
00001001
00000000
00000000
00000110
,
00000000
00001001
00000000
00000001
00000010
00000100
00000000
00000000
,
00000110
00001001
00000000
00000000
;

//---------------dance-double - Telperion----------------
#NOTES:
     dance-double:
     Telperion:
     Easy:
     4:
     0.227341,0.213591,0.124671,0.014667,0.000000,198.000000,17.000000,2.000000,0.000000,0.000000,0.000000,0.227341,0.213591,0.124671,0.014667,0.000000,198.000000,17.000000,2.000000,0.000000,0.000000,0.000000:
00011000
00000000
00010000
00000010
00000000
00000000
00001000
01000000
,
00000000
00000000
00010000
00000100
00000000
00000000
00010000
00000000
,
00011000
00000000
00001000
00100000
00000000
00000000
00010000
00000100
,
00000000
00000000
00001000
01000000
00000000
00000000
00001000
00000000
,
00011000
00000000
00010000
00000100
00000000
00000000
00001000
01000000
,
00000000
00000000
00010000
00000010
00000000
00000000
00010000
00000000
,
00011000
00000000
00001000
00100000
00000000
00000000
00001000
00010000
,
00000100
00001000
00000100
00010000
,
00001000
00000000
00010000
00001000
,
01000000
01000000
00010000
01000000
,
00001000
00000000
00000000
00000000
00000000
00000000
00000000
00010000
,
00001000
00100000
00010000
00100000
,
00001000
00000000
00010000
00000100
,
00001000
00001000
00000010
00001000
,
00000001
00000000
00000000
00000010
,
00001001
00000000
00001000
00000100
,
00010000
00000000
00010000
00000000
,
00010100
00000000
00000100
00010000
,
00001000
00000000
01000000
00000000
,
01001000
00000000
01000000
00000000
,
01010000
00000000
01000000
00000000
,
00200000
00000000
00000000
00000000
,
00000000
00000000
00000000
00300000
,
10000000
00000000
00010000
00000000
00100000
00100000
00100000
00000000
,
00000000
00100000
00000000
00100000
,
00001000
01000000
00001000
00010000
,
00000000
00010000
00000000
00010000
,
00000100
00000000
00001000
00000000
00000010
00000010
00000010
00000000
,
00000000
00000010
00000000
00000010
,
00001000
00000001
00000010
00000100
,
00000000
00010000
00010000
00000000
,
00011000
00000000
00010000
00000010
00000000
00000000
00001000
00100000
,
00000000
00000000
00010000
00000010
00000000
00000000
00010000
00000000
,
00011000
00000000
00001000
00100000
00000000
00000000
00010000
00000010
,
00000000
00000000
00001000
01000000
00000000
00000000
00001000
00000000
,
00011000
00000000
00010000
00000010
00000000
00000000
00001000
01000000
,
00000000
00000000
00010000
00000100
00000000
00000000
00010000
00000000
,
00011000
00000000
00001000
00100000
00000000
00000000
00010000
00000010
,
00000000
00001000
00000000
00000001
00000000
00000000
00000000
00000000
,
00001001
00001000
00000010
00010000
,
00010010
00000010
00010000
00001000
,
00101000
00100000
00010000
00100000
,
02000000
00000000
13000000
00010000
,
01000000
01000000
01000000
00000000
00000000
00000000
01000000
00000000
,
00000000
01000000
00010000
00100000
,
00001000
00010000
00000000
00010000
,
00000000
00010000
00000000
00000010
,
00001000
00000000
00000100
00000100
00000100
00000000
00000000
00000000
,
00000100
00000000
00000100
00000010
,
00000100
00001000
00000100
00000000
,
00010000
00010000
00000000
00011000
,
00001000
00000000
00100000
00010000
00100000
00000000
00001000
00000000
,
01000000
00001000
00010000
00000100
,
00001000
00000010
00000100
00000001
,
00000100
00000010
00010000
00011000
,
00010000
00000000
00000010
00001000
00000010
00000000
00010000
00000000
,
00000100
00010000
00001000
00100000
,
01000000
10000000
01000000
00000000
,
00001000
00001000
00000000
00000000
;

//---------------dance-double - Telperion----------------
#NOTES:
     dance-double:
     Telperion:
     Hard:
     9:
     0.394966,0.341745,0.212674,0.220007,0.198007,318.000000,29.000000,30.000000,0.000000,0.000000,0.000000,0.394966,0.341745,0.212674,0.220007,0.198007,318.000000,29.000000,30.000000,0.000000,0.000000,0.000000:
00010100
00000000
00000000
00010000
00000000
00000000
00000020
00000000
00000000
00000000
00001030
00000000
00000001
00000100
00000002
00000000
,
00000000
00000000
00000003
00000000
00001000
00000100
00002000
00000000
00000000
00000000
00003000
00000000
00000010
00000000
00000000
00000000
,
00011000
00000000
00000000
00001000
00000000
00000000
00200000
00000000
00000000
00000000
00310000
00000000
10000000
01000000
20000000
00000000
,
00000000
00000000
30000000
00000000
00010000
01000000
00200000
00000000
00000000
00000000
00300000
00000000
01000000
00000000
00000000
00000000
,
01001000
00000000
00000000
00001000
00000000
00000000
00200000
00000000
00000000
00000000
00300010
00000000
00010000
00001000
00020000
00000000
,
00000000
00000000
00030000
00000000
00001000
00010000
00000200
00000000
00000000
00000000
00000300
00000000
00001000
00000000
00000000
00000000
,
00001100
00000000
00000000
00010000
00000000
00000000
00000020
00000000
00000000
00000000
00000130
00000000
00000001
00001000
00000001
00000000
,
00000010
00000000
00000000
00000010
00000000
00000000
00000010
00000000
00000000
00000000
00000000
00000000
00000100
00000000
00000000
00000000
,
00000001
00000000
00000100
00000000
00001000
00000001
00000010
00000100
,
00011000
00000000
00000000
00011000
00000000
00000000
00010000
00000000
00000000
00000000
00010000
00000000
00001000
00000000
00010000
00000000
,
00000200
00000000
00000000
00000000
00000000
00000000
00000300
10000000
,
00100000
00000000
00000000
00100000
00000000
00000000
00100000
00000000
00000000
00000000
00000000
00000000
01000000
00000000
00000000
00000000
,
10000000
00000000
01000000
00000000
00010000
10000000
00100000
01000000
,
00011000
00000000
00000000
00011000
00000000
00000000
00001000
00000000
01000000
00000000
00000000
00000000
00001000
00000000
00010000
00000000
,
00000200
00001000
00000000
00001000
00000000
00000000
00000310
00000000
,
00001001
00000001
00000010
00000100
00000001
00000000
00000100
00000000
,
00002000
00000001
00000000
00003100
,
00001100
00000001
00000010
00000100
00010000
00000000
00001000
00000000
,
02000000
00000000
03000000
00010000
10000000
00000000
00100000
00000000
,
00110000
00000000
10000000
01000000
00100000
00000000
00000000
00000000
,
00110000
00010000
10000000
00010000
01000000
00000000
00010000
01000000
,
00002000
00000000
00000000
00000000
,
00000000
00000000
00000000
00003000
,
00011000
00000000
00000000
00100000
00001000
00000000
00010000
00000000
00000000
00000000
00000010
00000000
00001000
00000000
00000010
00000000
,
00000000
00100000
00000010
00200000
00010000
00000000
00301000
00000000
,
00011000
00000000
00000000
00000010
00010000
00000000
00001000
00000000
00000000
00000000
01000000
00000000
00010000
00000000
00100000
00000000
,
00000000
00000010
00100000
00000020
00001000
00000000
00000130
00000000
,
00001001
00000000
00000000
00000001
00000100
00000000
00001000
00000000
00000000
00000000
00010000
00000000
00100000
00000000
10000000
00000000
,
00000000
00100000
00010000
00200000
10000000
00000000
01300000
00000000
,
10010000
00000000
00000000
10000000
01000000
00000000
00010000
00000000
00000000
00000000
00001000
00000000
00000100
00000000
00000010
00000000
,
00000000
00000100
00000001
00000100
00001000
00000000
00000000
00000000
,
00011000
00000000
00000000
00001000
00000000
00000000
00200000
00000000
00000000
00000000
00310000
00000000
10000000
01000000
10000000
00000000
,
00000000
00000000
10000000
00000000
00010000
01000000
00010000
00000000
00000000
00000000
00010000
00000000
00100000
00000000
00000000
00000000
,
00011000
00000000
00000000
00010000
00000000
00000000
00000020
00000000
00000000
00000000
00001030
00000000
00000001
00000100
00000001
00000000
,
00000000
00000000
00000001
00000000
00001000
00000100
00000010
00000000
00000000
00000000
00000010
00000000
00000100
00000000
00000000
00000000
,
00010100
00000000
00000000
00010000
00000000
00000000
00000020
00000000
00000000
00000000
00100030
00000000
00001000
00010000
00001000
00000000
,
00000000
00000000
00001000
00000000
00010000
00001000
01000000
00000000
00000000
00000000
01000000
00000000
00010000
00000000
00000000
00000000
,
01010000
00000000
00000000
00001000
00000000
00000000
00200000
00000000
00000000
00000000
01300000
00000000
10000000
00010000
10000000
00000000
,
00000000
01000000
00000000
00020000
00000000
00000000
01030000
00000000
,
10010000
00000000
00000000
01000000
00000000
00000000
00010000
00000000
00000000
00000000
00000000
00000000
00010000
00000000
01000000
00000000
00000000
00000000
00000000
00000000
01000000
00000000
00001000
00000000
00000000
00000000
00000000
00000000
00010000
00000000
00000000
00000000
,
00001100
00000000
00000000
00010000
00000000
00000000
00001000
00000000
00000000
00000000
00000000
00000000
00000000
00000000
00000000
00000000
00000000
00000000
00000000
00000000
00000000
00000000
00000000
00000000
00000000
00000000
00000000
00000000
00000000
00000000
00000000
00000000
,
00000000
00000000
00000000
00000000
,
00000000
00000000
00000000
00000000
00000000
00000000
00000000
00000000
00000000
00000000
00000000
00000000
00011000
00000000
00000000
00000100
,
00010000
00001000
00000000
01000000
00010000
00100000
00000000
00000010
,
01000000
00000000
00000020
00000000
00001000
00000000
00000000
00000000
00010030
00000000
00000000
00000000
00011000
00000000
00000000
01000000
,
00001000
00010000
00000000
00000100
00001000
00000010
00000000
00100000
,
00000100
00000000
00200000
00000000
00010000
00000000
00000000
00000000
01300000
00000000
00000000
00000000
10010000
00000000
00000000
10000000
,
01000000
00010000
00000000
00001000
00000100
00000001
00000000
00010000
,
00000010
00000000
00000200
00000000
00000001
00000000
00000000
00000000
00000310
00000000
00000000
00000000
00001001
00000000
00000000
00000001
,
00000100
00001000
00000000
00010000
01000000
00100000
00000000
01000000
,
00010000
00000000
01000000
00000000
10000000
00000000
00000000
00000000
00001000
00000000
00000000
00000000
00011000
00000000
00000000
00010000
,
00000000
00000000
00000200
00000000
00000000
00000000
00001300
00000000
00000001
00000010
00000001
00000000
00000000
00000000
00000001
00000000
,
00001000
00000010
00001000
00000000
00000000
00000000
00001000
00000000
00000100
00000000
00000000
00000000
00010000
00001000
00000000
00010000
,
00001000
00000000
02000000
00000000
00000000
00000000
03010000
00000000
10000000
00100000
10000000
00000000
00000000
00000000
10000000
00000000
,
00010000
00100000
01000000
00000000
00000000
00000000
00100000
00000000
00001000
00000000
00000000
00000000
00010000
00001000
00000000
00010000
,
00001000
00000000
02000000
00000000
00000000
00000000
03000100
00000000
00010000
00001000
00010000
00000000
00000000
00000000
00010000
00000000
,
00001000
00010000
00000010
00000000
00000000
00000000
00001000
00000000
00000001
00000000
00000000
00000000
00000010
00000100
00000000
00000010
,
00000100
00000000
00002000
00000000
00000000
00000000
00003010
00000000
00001000
00000001
00001000
00000000
00000000
00000000
00000000
00000000
,
00000011
00001100
00000000
00000000
;
