#VERSION:0.81;
#TITLE:Soft Paws;
#SUBTITLE:;
#ARTIST:Ryu☆;
#TITLETRANSLIT:;
#SUBTITLETRANSLIT:;
#ARTISTTRANSLIT:Ryu*;
#GENRE:;
#ORIGIN:;
#CREDIT:;
#BANNER:[ZIv Academy] - Soft Paws.png;
#BACKGROUND:[ZIv Academy] - Soft Paws-bg.png;
#PREVIEWVID:;
#JACKET:[ZIv Academy] - Soft Paws-jacket.png;
#CDIMAGE:;
#DISCIMAGE:;
#LYRICSPATH:;
#CDTITLE:;
#MUSIC:[ZIv Academy] - Soft Paws.ogg;
#OFFSET:-1.282;
#SAMPLESTART:78.160;
#SAMPLELENGTH:12.000;
#SELECTABLE:YES;
#BPMS:0.000=128.000;
#STOPS:;
#DELAYS:;
#WARPS:;
#TIMESIGNATURES:0.000=4=4;
#TICKCOUNTS:0.000=4;
#COMBOS:0.000=1;
#SPEEDS:0.000=1.000=0.000=0;
#SCROLLS:0.000=1.000;
#FAKES:;
#LABELS:0.000=Song Start;
#BGCHANGES:;
#KEYSOUNDS:;
#ATTACKS:
;

//---------------dance-single - ----------------
#NOTEDATA:;
#CHARTNAME:;
#STEPSTYPE:dance-single;
#DESCRIPTION:;
#CHARTSTYLE:;
#DIFFICULTY:Beginner;
#METER:1;
#RADARVALUES:0.123,0.127,0.036,0.000,0.000,92.000,4.000,0.000,0.000,0.000,0.000,0.000,0.000,0.123,0.127,0.036,0.000,0.000,92.000,4.000,0.000,0.000,0.000,0.000,0.000,0.000;
#CREDIT:;
#NOTES:
0000
0000
0000
0000
,
0000
0000
0000
0000
,
0000
0000
0000
0000
,
0000
0000
0000
0000
,
1000
0000
0000
0000
,
0001
0000
0000
0000
,
0100
0000
0000
0000
,
0010
0000
0000
0000
,
1000
0000
1000
0000
,
0100
0000
0100
0000
,
0010
0000
0010
0000
,
0001
0000
0001
0000
,
0100
0000
0100
0000
,
0010
0000
0010
0000
,
1000
0000
1000
0000
,
0001
0000
0000
0000
,
1000
0000
1000
0000
,
0100
0000
0000
0000
,
0001
0000
0001
0000
,
0100
0000
0100
0000
,
0001
0000
0001
0000
,
1000
0000
0000
0000
,
1000
0000
1000
0000
,
0010
0000
1001
0000
,
0001
0000
0001
0000
,
1000
0000
0000
0000
,
0001
0000
0001
0000
,
0100
0000
0010
0000
,
1000
0000
1000
0000
,
0100
0000
0000
0000
,
0010
0000
0010
0000
,
0100
0000
1001
0000
,
1000
0000
1000
0000
,
0001
0000
0001
0000
,
0100
0000
0100
0000
,
0010
0000
0010
0000
,
1000
0000
1000
0000
,
0100
0000
0100
0000
,
0010
0000
0010
0000
,
0001
0000
0001
0000
,
0001
0000
0000
0000
,
1000
0000
1000
0000
,
0100
0000
0000
0000
,
0001
0000
0001
0000
,
0100
0000
0100
0000
,
1000
0000
1000
0000
,
0010
0000
0000
0000
,
0001
0000
0001
0000
,
1000
0000
1001
0000
,
1000
0000
1000
0000
,
0100
0000
0000
0000
,
0001
0000
0001
0000
,
0010
0000
1000
0000
,
0001
0000
0001
0000
,
0100
0000
0000
0000
,
1000
0000
1000
0000
,
0001
0000
1001
0000
;

//---------------dance-single - ----------------
#NOTEDATA:;
#CHARTNAME:;
#STEPSTYPE:dance-single;
#DESCRIPTION:;
#CHARTSTYLE:;
#DIFFICULTY:Easy;
#METER:4;
#RADARVALUES:0.268,0.229,0.090,0.081,0.000,190.000,10.000,9.000,0.000,0.000,0.000,0.000,0.000,0.268,0.229,0.090,0.081,0.000,190.000,10.000,9.000,0.000,0.000,0.000,0.000,0.000;
#CREDIT:;
#NOTES:
0000
0000
0000
0000
,
0000
0000
0000
0000
,
0000
0000
0000
0000
,
0000
0000
0000
0000
,
1000
1000
0100
0000
,
0001
0001
0100
0000
,
1000
1000
0010
0000
,
0001
0001
0010
0000
,
1000
0001
1000
1000
,
0001
1000
0001
0001
,
0100
0010
0100
0100
,
0010
0100
0010
0010
,
1000
0100
0010
0010
,
0001
0100
0010
0010
,
0100
0001
1000
1000
,
0001
1000
1001
0000
,
1000
1000
0100
0100
,
0010
0010
0002
0003
,
0001
0001
0010
0010
,
0100
0100
1000
1001
,
1000
1000
0010
0010
,
0100
0100
0002
0003
,
0001
0001
0100
0100
,
0010
0010
0100
1001
,
1000
0010
0100
0001
,
0010
0100
2000
3000
,
0001
0100
0010
1000
,
0100
0010
0001
0110
,
0010
0001
0100
0010
,
1000
0100
0020
0030
,
0010
0100
1000
0001
,
0100
0010
1000
1010
,
0010
1000
0100
0000
,
0010
0001
0100
0000
,
0001
1000
0100
0000
,
1000
0001
0100
0000
,
0001
1000
1000
0000
,
1000
0001
0001
0000
,
0001
1000
1000
0000
,
1000
0001
0001
0001
,
0020
0000
0030
0010
,
1000
0100
0010
0001
,
0100
0010
2000
3000
,
1000
0100
0010
0001
,
0100
0010
1000
1100
,
0100
0010
0001
0100
,
0010
1000
0002
0003
,
0001
0010
0100
1000
,
0010
0100
0100
0110
,
0010
1000
0100
0010
,
0100
1000
2000
3000
,
0001
0100
0010
0100
,
0001
0010
0100
1010
,
0010
1000
0100
0010
,
0001
0100
0200
0300
,
0010
1000
0100
0010
,
0001
0010
1100
0011
;

//---------------dance-single - ----------------
#NOTEDATA:;
#CHARTNAME:;
#STEPSTYPE:dance-single;
#DESCRIPTION:;
#CHARTSTYLE:;
#DIFFICULTY:Medium;
#METER:6;
#RADARVALUES:0.415,0.432,0.278,0.278,0.000,262.000,31.000,31.000,0.000,0.000,0.000,0.000,0.000,0.415,0.432,0.278,0.278,0.000,262.000,31.000,31.000,0.000,0.000,0.000,0.000,0.000;
#CREDIT:;
#NOTES:
// measure 0
0000
0000
0000
0000
,  // measure 1
0000
0000
0000
0000
,  // measure 2
0000
0000
0000
0000
,  // measure 3
0000
0000
0000
0000
,  // measure 4
1000
0000
0100
0010
0001
0000
0001
0000
,  // measure 5
0010
0000
0100
1000
0001
0000
0001
0000
,  // measure 6
0100
0000
0010
1000
0100
0000
0100
0000
,  // measure 7
0010
0000
0100
1000
0001
0000
0001
0000
,  // measure 8
1000
0000
0100
0010
0000
0200
0000
2300
,  // measure 9
0000
3010
0100
0001
0000
0200
0000
0320
,  // measure 10
0000
1030
0010
0100
0000
0002
0000
2003
,  // measure 11
0000
3100
0010
0100
0000
2000
0000
3002
,  // measure 12
0000
0103
0010
1000
0000
0020
0000
0230
,  // measure 13
0000
0301
1000
0100
0000
2000
0000
3200
,  // measure 14
0000
0310
0001
0100
0000
0010
0000
1000
,  // measure 15
0001
0100
0010
0000
0010
0100
0001
0000
,  // measure 16
1000
0010
0100
0001
0100
0000
1001
0000
,  // measure 17
0001
0000
0010
0200
0000
0000
0300
0000
,  // measure 18
1000
0010
0100
0001
0100
0000
1100
0000
,  // measure 19
1000
0000
0001
0100
0000
0100
0010
0000
,  // measure 20
0010
1000
0100
0010
0100
0000
1100
0000
,  // measure 21
0100
0000
0010
0002
0000
0000
0003
0000
,  // measure 22
0001
0100
0010
1000
0100
0000
1100
0000
,  // measure 23
0100
0000
0010
0100
1000
0000
1001
0000
,  // measure 24
0001
0100
0010
1000
0010
0000
0110
0000
,  // measure 25
0010
0000
0100
0020
0000
0000
0030
0000
,  // measure 26
1000
0100
0010
0100
1000
0000
0011
0000
,  // measure 27
0100
0000
0010
0001
0000
0001
1000
0000
,  // measure 28
0010
0100
0001
0100
0010
0000
1001
0000
,  // measure 29
1000
0000
1000
0200
0000
0000
0300
0000
,  // measure 30
1000
0010
0100
0001
0010
0000
1100
0000
,  // measure 31
0001
0000
1000
0000
0001
1000
1001
0000
,  // measure 32
0010
0000
1000
0100
0000
1100
0000
0022
,  // measure 33
0000
0033
1000
0001
0000
0110
0000
2020
,  // measure 34
0000
3030
1000
0100
0000
0110
0000
1100
,  // measure 35
0000
0001
0100
0010
0000
0010
0100
0000
,  // measure 36
0001
0010
0110
0000
2200
0000
3300
0000
,  // measure 37
1000
0010
0101
0000
0220
0000
0330
0000
,  // measure 38
0010
0100
1001
0000
0220
0000
0330
0001
,  // measure 39
0010
0100
0000
1000
1000
0000
0001
0000
,  // measure 40
0002
0000
1000
0000
0000
1000
1000
1003
,  // measure 41
0001
1000
0010
0100
0001
0000
0110
0000
,  // measure 42
0010
0000
1000
0200
0000
0000
0300
0000
,  // measure 43
0010
0001
0100
0010
0100
0000
1010
0000
,  // measure 44
0010
0000
1000
0100
0000
0100
0010
0000
,  // measure 45
0001
0100
0010
0100
0001
0000
0110
0000
,  // measure 46
0010
0000
1000
0002
0000
0000
0003
0000
,  // measure 47
1000
0100
0010
0100
1000
0000
1010
0000
,  // measure 48
0010
0000
1000
0000
0100
0010
0001
0000
,  // measure 49
0001
0100
0010
0100
0001
0000
1001
0000
,  // measure 50
0001
0000
0010
0002
0000
0000
0003
0000
,  // measure 51
0100
0010
1000
0100
0010
0000
0110
0000
,  // measure 52
0010
0000
0100
1000
0000
1000
0001
0000
,  // measure 53
1000
0010
0100
0001
0100
0000
0110
0000
,  // measure 54
0010
0000
1000
0002
0000
0000
0003
0000
,  // measure 55
1000
0010
0100
0001
0100
0000
1001
0000
,  // measure 56
0001
0000
0010
0000
0001
0100
0110
0000
;

//---------------dance-single - ----------------
#NOTEDATA:;
#CHARTNAME:;
#STEPSTYPE:dance-single;
#DESCRIPTION:;
#CHARTSTYLE:;
#DIFFICULTY:Hard;
#METER:7;
#RADARVALUES:0.478,0.407,0.439,0.090,0.072,314.000,49.000,10.000,0.000,0.000,0.000,0.000,0.000,0.478,0.407,0.439,0.090,0.072,314.000,49.000,10.000,0.000,0.000,0.000,0.000,0.000;
#CREDIT:;
#NOTES:
0000
0000
0000
0000
,
0000
0000
0000
0000
,
0000
0000
0000
0000
,
0000
0000
0000
0000
,
1000
0100
0010
0001
0000
0110
0000
1010
,
0000
0010
0100
0001
0000
1001
0000
0110
,
0000
0001
0010
0100
0000
1100
0000
0011
,
0000
0001
0100
0010
1000
0010
0100
0001
,
1000
0100
0010
0100
0000
1100
0000
0110
,
0000
0010
0001
0100
0000
0110
0000
1010
,
0000
0010
0100
0001
0000
1001
0000
0110
,
0000
0001
0100
0010
0100
0001
1000
0000
,
1000
0100
0010
0100
0000
1100
0000
0110
,
0000
0010
0001
0100
0000
0101
0000
1001
,
0000
0001
0010
0100
0000
1000
1000
0000
,
0001
0001
1000
1000
0010
0100
0010
0000
,
1000
0000
0100
0000
0010
0000
0001
0000
0010
0000
0000
0010
0000
0000
0100
0000
,
1000
0100
0010
0002
0000
0000
0003
0000
,
0001
0000
0001
0000
0100
0000
0010
0000
1000
0000
0000
1000
0000
0000
0100
0000
,
0010
0001
0010
0100
0000
1000
0001
0001
,
1000
0000
0010
0000
0100
0000
0001
0000
0100
0000
0000
0010
0000
0000
0010
0000
,
1000
0000
0100
0200
0000
0000
0300
0000
,
1000
0000
0001
0000
1000
0000
0010
0000
0100
0000
0000
0010
0000
0000
1000
0000
,
0010
0000
0000
0100
0000
0000
0001
0000
1000
0000
0001
0000
1001
0000
0000
0000
,
1000
0100
0001
0200
1000
0000
0301
0000
,
1000
0010
0001
0020
1000
0000
0031
0000
,
1000
0010
0100
0002
0010
0000
1003
0000
,
1000
0100
0010
0200
1000
0000
0310
0000
,
1000
0001
0100
0010
1010
0000
0101
0000
,
0001
0010
0100
1000
1100
0000
0011
0000
,
0001
0010
0100
1000
1001
0000
1001
0000
,
0001
0000
0000
0100
0000
0000
0010
0000
1010
0000
0100
0000
1001
0000
0000
0000
,
1000
0100
0010
0100
0000
1100
0000
0110
,
0000
0010
0001
0100
0000
0110
0000
1010
,
0000
0010
0100
0001
0000
1001
0000
0110
,
0000
0010
1000
0100
0010
0100
1000
0000
,
0001
0100
0010
1000
0000
1001
0000
1001
,
0000
0001
0010
0100
0000
1100
0000
1100
,
0000
0100
0010
0001
0000
0101
0000
0101
,
0000
0001
0100
0010
0000
0010
1000
0000
,
1000
0100
0010
0000
0000
0100
0100
1001
,
0001
0000
0100
0000
0010
0000
1000
0000
0100
0000
0000
0110
0000
0000
0010
0000
,
0100
0100
1000
2000
0000
0000
3000
0000
,
0001
0000
0001
0000
0100
0000
0010
0000
1000
0000
0000
1010
0000
0000
0010
0000
,
1000
1000
0100
0010
0000
0100
1000
0001
,
1000
0000
1000
0000
0010
0000
0100
0000
0001
0000
0000
0011
0000
0000
0001
0000
,
0100
0010
1000
0200
0000
0000
0300
0000
,
1000
0000
1000
0000
0001
0000
0001
0000
0100
0000
0000
0110
0000
0000
0010
0000
,
1000
0100
0010
0100
1000
1000
1100
0000
,
0001
0000
0001
0000
0100
0000
0100
0000
0010
0000
0000
0110
0000
0000
0010
0000
,
1000
0100
0010
0002
0000
0000
0003
0000
,
1000
0000
0010
0000
0100
0000
0001
0000
0010
0000
0000
0110
0000
0000
0010
0000
,
0100
1000
0001
0100
0000
0010
1000
1100
,
0100
0000
0010
0000
0001
0000
0100
0000
0010
0000
0000
1010
0000
0000
0010
0000
,
1000
1000
0100
0020
0000
0000
0030
0000
,
0010
0000
0010
0000
0100
0000
1000
0000
0001
0000
0000
1001
0000
0000
0001
0000
,
0100
0000
0010
1000
0000
1000
0100
0000
0010
0000
0100
0000
1001
0000
0000
0000
;

//---------------dance-single - ----------------
#NOTEDATA:;
#CHARTNAME:;
#STEPSTYPE:dance-single;
#DESCRIPTION:;
#CHARTSTYLE:;
#DIFFICULTY:Challenge;
#METER:9;
#RADARVALUES:0.570,0.546,0.341,0.332,0.220,370.000,38.000,37.000,0.000,0.000,0.000,0.000,0.000,0.570,0.546,0.341,0.332,0.220,370.000,38.000,37.000,0.000,0.000,0.000,0.000,0.000;
#CREDIT:;
#NOTES:
0000
0000
0000
0000
,
0000
0000
0000
0000
,
0000
0000
0000
0000
,
0000
0000
0000
0000
,
1000
0100
0010
0001
0010
0100
1000
0000
,
0001
0100
0010
1000
0010
0100
0001
0000
,
1000
0001
0100
0010
1000
0010
0100
0000
,
0001
0000
1000
0000
0000
0001
0001
1000
,
0100
0010
0010
0100
0000
1100
0000
0101
,
0000
0001
0100
1000
0100
0110
0000
1010
,
0000
0010
1000
0100
0010
0011
0000
0110
,
0000
0100
1000
0100
0010
0001
0100
0010
,
1000
0100
0010
0100
1000
1100
0000
0110
,
0000
0010
0001
0100
0010
1001
0000
0101
,
0000
0001
0100
0010
1000
0100
0010
0100
,
1000
1000
0001
0001
1000
0001
0100
0000
,
0010
0000
1000
0000
0100
0000
0010
0000
0200
0000
0000
1300
0000
0000
0010
0000
,
1000
0000
0100
0010
0000
0010
0002
0000
0000
0000
1000
0000
1003
0000
0000
0000
,
1000
0000
0010
0000
0100
0000
0001
0000
0020
0000
0000
0130
0000
0000
1000
0000
,
0010
0000
0100
0001
0000
0001
1000
0000
0100
0000
0010
0000
0100
0000
0100
0000
,
1000
0000
0010
0000
0100
0000
0001
0000
0020
0000
0000
0031
0000
0000
0100
0000
,
0010
0000
1000
0100
0000
0100
0020
0000
0000
0000
0100
0000
0130
0000
0000
0000
,
1000
0000
0010
0000
0100
0000
0001
0000
0020
0000
0000
0031
0000
0000
1000
0000
,
0010
0000
0100
0001
0000
0001
1000
0000
1100
0000
0010
0000
0101
0000
0000
0000
,
1000
0000
0010
0000
0100
0000
0001
0000
0020
0000
0000
0031
0000
0000
0100
0000
,
0010
0000
1000
0100
0000
0010
0002
0000
0000
0000
1000
0000
1003
0000
0000
0000
,
0001
0000
0100
0000
0010
0000
1000
0000
0200
0000
0000
0310
0000
0000
0100
0000
,
1000
0000
0001
0100
0000
1000
0100
0000
0001
0000
1000
0000
1001
0000
0001
0000
,
1000
0000
0100
0000
0010
0000
0100
0000
2000
0000
0000
3001
0000
0000
1000
0000
,
0010
0000
0100
0001
0000
0010
0200
0000
0000
0000
1000
0000
1300
0000
0000
0000
,
1000
0000
0100
0000
0010
0000
0001
0000
0200
0000
0000
0310
0000
0000
0100
0000
,
0001
0000
0010
0100
0000
0100
1000
0000
1001
0000
0100
0000
1001
0000
0000
0000
,
1000
0100
0010
0100
1000
0002
0000
2003
,
0000
3010
0100
0001
0010
0200
0000
2300
,
0000
3100
0010
0001
0100
0020
0000
0230
,
0000
0301
0100
0010
1000
0100
0010
0100
,
1100
0001
1000
0001
0101
0000
0101
0000
,
1010
0001
1000
0001
0011
0000
0011
0000
,
1001
0100
0010
0100
0110
0000
0110
0000
,
0110
0001
1000
0001
1001
0000
1001
0000
,
2100
0000
3001
0000
0000
1001
0110
1010
,
1000
0000
0100
0000
0010
0000
0001
0000
0200
0000
0000
0310
0000
0000
0100
0000
,
0001
0000
0010
0100
0000
1000
0002
0000
0000
0000
1000
0000
1003
0000
0000
0000
,
0010
0000
0100
0000
0001
0000
0010
0000
0200
0000
0000
1300
0000
0000
0010
0000
,
0100
0000
0001
0010
0000
0010
0100
0000
1000
0000
0001
0000
0101
0000
1100
0000
,
0001
0000
0100
0000
0010
0000
1000
0000
0200
0000
0000
0310
0000
0000
0001
0000
,
0100
0000
0010
1000
0000
0100
0020
0000
0000
0000
0100
0000
0130
0000
0000
0000
,
1000
0000
0010
0000
0100
0000
0001
0000
0020
0000
0000
0130
0000
0000
0010
0000
,
0001
0000
0100
0010
0000
1000
0100
0000
0010
0000
0100
0000
1100
0000
0000
0000
,
1000
0000
0100
0000
0010
0000
0001
0000
0200
0000
0000
0320
0000
0000
0130
0000
,
0001
0000
0010
0100
0000
1000
0002
0000
0000
0000
1000
0000
1003
0000
0000
0000
,
0001
0000
1000
0000
0010
0000
0100
0000
0002
0000
0000
0023
0000
0000
0130
0000
,
1000
0000
0010
0100
0000
0100
0001
0000
1000
0001
1000
0000
1100
0000
0101
0000
,
0001
0000
0100
0000
0010
0000
1000
0000
0200
0000
0000
0320
0000
0000
0130
0000
,
1000
0000
0001
0100
0000
0010
2000
0000
0000
0000
0001
0000
3001
0000
0000
0000
,
1000
0000
0010
0000
0100
0000
0001
0000
0020
0000
0000
0230
0000
0000
1300
0000
,
0001
0000
1000
0001
0000
0001
1000
0000
1010
0000
0100
0000
2002
0000
0000
0000
,
0000
0000
0000
0000
,
3003
0000
0000
0000
;
