#TITLE:Punch Love Kamen;
#SUBTITLE:;
#ARTIST:Keiichi Ueno feat.Kanako Hoshino;
#TITLETRANSLIT:;
#SUBTITLETRANSLIT:;
#ARTISTTRANSLIT:;
#GENRE:;
#CREDIT:;
#BANNER:; #BACKGROUND;;
#LYRICSPATH:;
#CDTITLE:;
#MUSIC:[ZIv Academy] - Punch Love Kamen.mp3;
#OFFSET:-4.619;
#SAMPLESTART:46.203;
#SAMPLELENGTH:24.000;
#SELECTABLE:YES;
#DISPLAYBPM:172.000;
#BPMS:0.000=172.000
;
#STOPS:
;
#BGCHANGES:;
#KEYSOUNDS:;
#ATTACKS:;

//---------------dance-double - ----------------
#NOTES:
     dance-double:
     :
     Easy:
     4:
     0.234,0.268,0.164,0.098,0.000,168.000,20.000,12.000,0.000,0.000,0.000,0.234,0.268,0.164,0.098,0.000,168.000,20.000,12.000,0.000,0.000,0.000:
00000000
00000000
00000000
00000000
,
00000000
00000000
00000000
00000000
,
00000000
00000000
00000000
00000000
,
00000000
00000000
00000000
00000000
,
10000000
00000000
00000000
00000000
,
00010000
00000000
00000000
00000000
,
00001000
00000000
00000000
00000000
,
00000001
00000000
00000000
00000000
,
00001000
00000000
00001000
00000000
,
00000001
00000000
00000001
00000000
,
00000100
00000000
00000100
00000000
,
00011000
00000000
00000000
00000000
,
00100000
00000000
10000000
00000000
,
01000000
00000000
00010000
00000000
,
00001000
00010000
00001000
00000000
,
00010000
00001000
00010000
00000000
,
00001000
00000000
00001100
00000000
,
00000100
00000000
00000110
00000000
,
00001001
00000000
00000000
00000000
,
00000000
00000000
00000000
00000000
,
20000000
00000000
00000000
30000000
,
00020000
00000000
00000000
00030000
,
00000000
00000000
10010000
00000000
00000000
00000000
00000000
10010000
,
00000000
00000000
00000000
00000000
,
20000000
00000000
30000000
00000000
,
00020000
00000000
00030000
00000000
,
00001000
00000000
00001000
00000000
,
00000010
00000000
00000010
00000000
,
00000100
00000000
00000100
00000000
,
00000001
00000000
00000001
00000000
,
00001000
00000001
00000100
00000000
,
00000100
00000010
00010000
00000000
,
00010000
00001000
00100000
00000000
,
00100000
00001000
00010000
00000000
,
00010000
01000000
10000000
00000000
,
10000000
01000000
00100000
00000000
,
00100000
00001000
00010000
00000000
,
00010000
00000100
00001000
00000000
,
00000010
00001000
00000100
00000000
,
00000010
00000001
00000100
00000000
,
00000001
00000100
00001000
00010000
,
00001000
00010000
01000000
00000000
,
00100000
00010000
01000000
00000000
,
00100000
10000000
01000000
00000000
,
10000000
01000000
00010000
00001000
,
00011000
00000000
00000000
00000000
,
00011000
00000000
00000000
00000000
,
00022000
00000000
00000000
00000000
,
00000000
00033000
00000000
00000000
,
00000200
00000000
00000300
00000000
,
00000020
00000000
00000030
00000000
,
00000002
00000000
00000003
00000000
,
00002000
00000000
00003000
00000000
,
00000001
00000001
00000010
00000010
,
00001000
00001000
00010000
00010000
,
01000000
01000000
10000000
10000000
,
00100000
00100000
01000000
01000000
,
20020000
00000000
00000000
00000000
,
00000000
00000000
00000000
00000000
30030000
00000000
00000000
10010000
,
00000000
00000000
00000000
00000000
00000000
00000000
00000000
00011000
,
00000000
00000000
00000000
00000000
,
00001001
00000000
00000000
00000000
00000000
00000000
00000000
00011000
,
00000000
00000000
00000000
00000000
00000000
10010000
00000000
00000000
,
00010000
01000000
10000000
00000000
,
10000000
01000000
00100000
00000000
,
00100000
00001000
00010000
00000000
,
00010000
00000100
00001000
00000000
,
00000010
00001000
00000100
00000000
,
00000010
00000001
00000100
00000000
,
00000001
00000100
00001000
00010000
,
00001000
00010000
01000000
00000000
,
00100000
00010000
01000000
00000000
,
00100000
10000000
01000000
00000000
,
10000000
00000000
01000000
00000000
00010000
00000000
00001000
00010000
,
00000000
00000000
00000000
00000000
00000000
00000000
00000000
00011000
,
00000000
00000000
00000000
00000000
00000000
00000000
00000000
00001001
,
00000000
00000000
00000000
00000000
,
00000110
00000000
00001001
00000000
,
00000001
00000100
00001000
00000000
,
00001000
00010000
01000000
00000000
,
01000000
00000000
10000000
00000000
00100000
00000000
00000000
01000000
,
00000000
00000000
00000000
00100000
00000000
00000000
00000000
01100000
;

//---------------dance-double - ----------------
#NOTES:
     dance-double:
     :
     Medium:
     7:
     0.457,0.536,0.311,0.196,0.000,329.000,38.000,24.000,0.000,0.000,0.000,0.457,0.536,0.311,0.196,0.000,329.000,38.000,24.000,0.000,0.000,0.000:
00000000
00000000
00000000
00000000
,
00000000
00000000
00000000
00000000
,
00000000
00000000
00000000
00000000
,
00000000
00000000
00000000
00000000
,
10000000
00000000
01000000
00000000
,
00010000
00000000
00001000
00000000
,
00000100
00000000
00000001
00000000
,
00000010
00000000
00000001
00000000
,
00000100
00001000
00010000
00100000
,
01000000
00100000
10000000
01000000
,
00100000
00000000
01000000
00000000
00010000
00000000
00001000
00000010
,
00000000
00000010
00000001
00000100
00000000
00000000
00000000
00000000
,
00001001
00000000
00000001
00001000
00000100
00000000
00000010
00000100
,
00010000
00000000
00001000
01000000
00100000
00000000
00010000
00001000
,
01000000
00000000
00100000
10000000
00010000
00000000
01000000
00100000
,
10000000
00000000
01000000
00010000
00001000
00000000
00010000
00000000
,
00001000
00000000
01000000
00100000
01100000
00000000
00100000
00000000
,
01000000
00000000
00001000
00010000
00011000
00000000
00001000
00000010
,
00000000
00000000
00000011
00000000
00000001
00000010
00000000
00001001
,
00000000
00001000
00000100
00000010
00000000
00000000
00000000
00000002
,
00000000
00000000
00000100
00000000
00001003
00000000
00000000
00020000
,
00000000
01000000
10030000
00000000
,
00000000
00000000
10010000
00000000
00000000
01100000
00000000
01100000
,
00000000
10000000
01000000
00100000
00010000
10000000
01000000
00010000
,
00002000
00003020
00000032
00000203
,
00002300
00023000
00230000
20300000
,
31000000
00010000
01000000
00000000
00010000
00001000
00010000
00000000
,
00000100
00000010
00000001
00000000
00000001
00000100
00000010
00000100
,
00001000
00010000
00001000
00000000
01000000
00100000
10000000
00100000
,
01200000
00000000
01000000
00000000
01300000
00000000
00000000
10010000
,
00000000
00000000
10000000
00000000
00100000
01000000
00010000
10000000
,
00000000
10000000
01000000
00010000
00001000
00010000
00001000
00000000
,
00001100
00000000
00000010
00000000
00010000
00000100
00000010
00000100
,
00000000
00001000
00000100
00000010
00000001
00001000
00000000
00001001
,
00000000
00000000
00000001
00000000
00000100
00000010
00001000
00000001
,
00000000
00000001
00000010
00001000
00010000
00001000
00010000
00000000
,
00110000
00000000
01000000
00000000
00001000
00100000
01000000
00100000
,
00000000
00010000
00100000
01000000
10000000
00000000
00010000
00000000
,
10000000
10000000
00100000
00100000
,
00010000
00010000
00001000
00001000
,
00000100
00000100
00000001
00000001
,
00000001
00000100
00001000
00000000
00010000
01000000
10000000
00000000
,
10000000
01000000
11000000
00000000
10000000
01000000
00010000
00000000
,
00001000
00000100
00001100
00000000
00001000
00000100
00000001
00000000
,
00000010
00000000
00001000
00000000
00010000
01000000
10000000
00100000
,
00000000
00000000
00000000
00000000
,
00010000
00001000
00000000
00000000
00011000
00000000
00000000
00000000
,
00020000
00000000
00032000
00000000
,
02003000
00000000
03200000
00000000
,
20300000
00000000
32000000
00000000
,
03020000
00000000
00032000
00000000
,
00003020
00000000
00002030
00000000
,
00023000
00000000
00030200
00000000
,
00000310
00000010
00000001
00000001
,
00000100
00000100
00001000
00001000
,
00010000
00010000
10000000
10000000
,
01000000
01000000
00100000
00100000
,
10010000
00000000
00010000
01000000
10000000
01000000
00010000
01000000
,
10000000
01000000
00010000
01000000
10000000
01000000
00010000
10010000
,
00000000
00000000
00000000
00000000
00000000
00000000
00000000
00011000
,
00000000
00000000
00000000
00000000
,
00000110
00000000
00000000
00000000
00000000
00000000
00000000
00011000
,
00000000
00000000
00000000
00000000
00000000
00000000
00000000
10020000
,
00000000
00000000
10030000
00000000
00100000
01000000
00010000
10000000
,
00000000
10000000
01000000
00010000
00001000
00010000
00001000
00000000
,
00001100
00000000
00000010
00000000
00010000
00000100
00000010
00000100
,
00000000
00001000
00000100
00000010
00000001
00000000
00001000
00000000
,
00000001
00000011
00000010
00001010
,
00001000
00011000
00010000
00110000
,
00100000
10100000
10000000
10010000
,
10000000
00100000
00010000
00001000
00000100
00000001
00000010
00000000
,
00000001
00000010
00000011
00000000
00000001
00000010
00001000
00000000
,
00010000
00100000
00110000
00000000
00010000
00100000
10000000
00000000
,
01000000
00000000
00010000
00000000
00001000
00000100
00000001
00000010
,
00000000
00000000
00000000
00000000
00000000
00000000
00000000
00000110
,
00000000
00000000
00000000
00000000
00000000
00000000
00000000
00011000
,
00000000
00100000
00010000
00100000
00001000
00010000
00001000
00000000
,
00010000
00001000
00000000
00000000
00011000
00000000
00000000
00000000
,
00000010
00000000
00001010
00000000
00000100
00000000
00000001
00001000
,
00000000
00000000
00011000
00000000
00010000
00000000
01000000
00100000
,
00000000
00000000
01100000
00000000
00010000
00000000
10000000
01000000
,
00000000
00000000
00000000
00100000
00000000
00000000
00000000
10010000
;

//---------------dance-double - ----------------
#NOTES:
     dance-double:
     :
     Hard:
     9:
     0.623,0.804,0.335,0.147,0.225,474.000,41.000,18.000,0.000,0.000,0.000,0.623,0.804,0.335,0.147,0.225,474.000,41.000,18.000,0.000,0.000,0.000:
00000000
00000000
00000000
00000000
,
00000000
00000000
00000000
00000000
,
00000000
00000000
00000000
00000000
,
00000000
00000000
00000000
00000000
,
10000000
10000000
01000000
01000000
,
00010000
00010000
00001000
00001000
,
00000100
00000100
00000001
00000001
,
00000010
00000010
00000100
00000100
,
00000010
00000001
00000100
00001000
,
00010000
00100000
01000000
00010000
,
10000000
00000000
01000000
00000000
00100000
01000000
10000000
00100000
,
00000000
00010000
00001000
00010000
00000000
00000000
00000000
00000000
,
00011000
00000000
00001000
00000010
00001000
00000000
00000010
00000000
00000001
00000000
00000100
00000010
00000100
00000000
00001000
00000000
,
00010000
00000000
00100000
01000000
00100000
00000000
01000000
00000000
00010000
00000000
10000000
00000000
01000000
00000000
00100000
00000000
,
00010000
00000000
10000000
01000000
10000000
00000000
00010000
00000000
01000000
00000000
00100000
10000000
00100000
00000000
01000000
00000000
,
00001000
00010000
00001000
00000000
00010000
00001000
00010000
00000000
00001000
00000000
00000010
00000000
00000001
00000000
00000100
00000000
,
00000010
00000000
00001000
00000100
00000010
00000000
00000001
00000000
00000100
00000000
00001000
00000000
00010000
00000000
00001000
00000000
,
00100000
00000000
00010000
01000000
00100000
00000000
10000000
00000000
01000000
00000000
00010000
00000000
00001000
00000000
00010000
00000000
,
00000000
00000000
00011000
00000000
00010000
00100000
00000000
01100000
,
00000000
10000000
01000000
00100000
00000000
00001000
00010000
00000200
,
00000000
00000000
00010000
00000000
00001300
00000000
00000000
00000020
,
00000000
00000000
00000000
00000000
00000001
00000000
00000000
00000000
00001030
00000000
00000000
00000001
00000000
00000000
00000000
00000000
,
00000000
00000000
00001001
00000000
00000000
00001001
00000000
00001001
,
00000000
00000001
00000100
00001000
00010000
00100000
10000000
00010000
,
10000000
01000000
10000000
01000000
00100000
00010000
00100000
00010000
00001000
00000100
00001000
00000100
,
00000020
00000032
00000203
00002300
,
00013000
00100000
00000000
00100000
10000000
01000000
00000000
01000000
,
00010000
00000000
00000000
00010000
00001000
00000000
00000000
00001000
00000100
00000000
00000000
00000100
00000010
00000000
00001000
00000000
,
00000001
00000010
00000000
00000010
00001000
00010000
00000000
00010000
,
01000000
00000000
00100000
00010000
00100000
00000000
00010000
10000000
00010000
00000000
10000000
00000000
01000000
00000000
01100000
00000000
,
00000000
00100000
00010000
10000000
01000000
00010000
00001000
00010000
,
00000010
00001000
00000001
00000100
00001000
00000100
00000010
00010000
,
00001000
00000100
00000010
00000001
00000010
00001000
00000100
00000110
,
00000000
00000100
00000010
00000001
00000100
00000001
00000000
00000110
,
00000000
00000100
00001000
00000001
00000010
00001000
00010000
00001000
,
01000000
00010000
10000000
00100000
00010000
00100000
01000000
00001000
,
00010000
00100000
01000000
10000000
01000000
00001000
00010000
00011000
,
00000000
00000000
00001000
00000000
00001000
00000000
00000100
00000000
00000100
00000000
00000010
00010000
00000010
00000000
00001000
00000000
,
00000100
00000000
00000010
00000000
00000001
00000000
00000100
00000000
00000010
00001000
00000000
00001000
00000001
00000000
00001000
00000000
,
00000010
00000000
00000100
00000000
00001000
00000000
00010000
00000000
00100000
10000000
00000000
10000000
00010000
00000000
10000000
00000000
,
00100000
01000000
00010000
10000000
02000000
00000000
03200000
00000000
,
10300000
10000000
00100000
00100000
00001000
00001000
00010000
00010000
,
00000010
00001000
00000000
00000000
00001010
00000000
00000000
00000000
00010000
00001000
00000000
00000000
00011000
00000000
00000000
00000000
,
00100000
00001000
00000000
00000000
00101000
00000000
00000000
00000000
00010000
01000000
00000000
00000000
01010000
00000000
00100000
00000000
,
10000000
01000000
01000000
00100000
00010000
00010000
10000000
10010000
,
00000000
00000000
00000000
00000000
,
00010000
00001000
00000000
00000000
00010000
00000000
00000000
00000000
,
00012000
00000000
02003000
00000000
,
03200000
00000000
20300000
00000000
,
32000000
00000000
03020000
00000000
,
00032000
00000000
00000000
00003020
00000000
00000000
00000032
00000000
,
00000103
00000000
00000000
00001000
00001000
00000000
00000000
00010000
,
00000000
00000000
00010000
00000000
00000000
00000000
00010000
00001000
00010000
00000000
00000000
00000000
00000000
00000000
00000000
00000000
,
01000000
10100000
10000000
11000000
,
01000000
00011000
00001000
00000110
,
00000010
00010100
00010000
00001100
,
00001000
00000000
00000000
00000000
00000011
00000000
00000000
00000000
00000001
00000000
00000000
00001000
00000000
00000000
00000100
00000000
,
00000010
00000000
00000000
00000001
00000100
00000000
00000000
00001000
00010000
00000000
00000000
00100000
10000000
00000000
00000000
01000000
,
00100000
00000000
00001000
00000000
01000000
00000000
00100000
00000000
10000000
00010000
10000000
00010000
10000000
00000000
10010000
00000000
,
00000000
00000000
00000000
00000000
00000000
00000000
00000000
00011000
,
00000000
00000000
00000000
00000000
,
00000110
00000000
00000000
00000000
00000000
00000000
00000000
00011000
,
00000000
00000000
00000000
00000000
01100000
10010000
00000000
02100000
,
00000000
03100000
00010000
10000000
01000000
00010000
00000100
00001000
,
00000010
00010000
00001000
00000100
00000001
00000100
00000010
00010000
,
00001000
00000100
00000010
00000001
00000010
00010000
00001000
00011000
,
00000000
00000000
00010000
00000000
00010000
00000000
00100000
00000000
00100000
00000000
01000000
00001000
01000000
00000000
00010000
00000000
,
00100000
00000000
01000000
00000000
10000000
00000000
00100000
00000000
01000000
00010000
01000000
00010000
01000000
00000000
00100000
00000000
,
00010000
00000000
00001000
00000000
00000100
00000000
00000001
00000000
00000010
00000100
00000010
00000100
00000010
00000000
00001000
00000000
,
00010000
01000000
10000000
00100000
00010000
00001000
00000100
00000001
,
00000010
00000010
00000100
00000100
00010000
00010000
00001000
00001000
,
01000000
00001000
01000000
00000000
01001000
00000000
00001000
00010000
00001000
00010000
00001000
00000000
00011000
00000000
00100000
00001000
,
00100000
00001000
00100000
00000000
00101000
00000000
00010000
00100000
00010000
00100000
00010000
00000000
00110000
00000000
00100000
00000000
,
01000000
10000000
00010000
00000000
00010000
00000000
10000000
01000000
00100000
00000000
00100000
00000000
00010000
00000000
10010000
00000000
,
00000000
00000000
00000000
00000000
00000000
00000000
00000000
10010000
,
00000000
00000000
00000000
00000000
00000000
00000000
00000000
10010000
,
00000000
00100000
00100000
00010000
00010000
00001000
00001000
00000000
,
00000100
00000000
00000010
00000000
00000000
00000000
00000000
00000000
00010000
00000000
00000100
00000010
00000001
00000000
00000100
00000000
,
00000110
00000000
00000100
00000001
00000010
00000100
00010000
00001000
,
00000000
00001000
00000100
00000010
00010000
00001000
00100000
01000000
,
00000000
01000000
00010000
00001000
00000100
00000010
00001000
00000001
,
00000000
00000000
00000000
00001001
00000000
00000000
00000000
00000110
;

//---------------dance-single - ----------------
#NOTES:
     dance-single:
     :
     Easy:
     4:
     0.273,0.301,0.123,0.082,0.000,209.000,15.000,10.000,0.000,0.000,0.000,0.273,0.301,0.123,0.082,0.000,209.000,15.000,10.000,0.000,0.000,0.000:
0000
0000
0000
0000
,
0000
0000
0000
0000
,
0000
0000
0000
0000
,
0000
0000
0000
0000
,
0001
0000
0100
0000
,
0001
0000
1000
0000
,
0001
0000
0010
0000
,
0100
0000
1000
0000
,
0001
0000
0100
0000
,
0010
0000
1000
0000
,
0100
0000
0010
0000
,
0001
0000
1001
0000
,
1000
0000
0010
0000
,
1000
0001
1000
0000
,
0001
0000
0100
0000
,
0001
1000
0001
0000
,
1000
0100
0010
0000
,
0010
0100
1000
0000
,
1001
0000
0001
0000
,
1000
0010
0100
0000
,
0002
0000
0000
0003
,
2000
0000
0000
3000
,
0000
0000
1001
0000
0000
1001
0000
1001
,
0000
0001
0010
0100
,
2000
3000
0002
0003
,
0200
0300
0020
0030
,
1000
0000
1000
0000
,
0001
0010
0100
1000
,
0001
0000
0001
0000
,
1000
0000
0010
0000
0100
0000
0000
1001
,
0000
0001
0010
0100
,
0000
1000
0001
1000
,
0010
0100
0001
0000
,
1000
0000
0100
0000
0010
0000
0000
1001
,
0000
0010
0100
1000
,
0000
0001
1000
0010
,
0100
0001
1000
0000
,
0001
0010
0100
1000
,
0001
0000
0001
0000
,
0100
0000
0100
0000
,
0010
0000
0010
1000
,
0001
0010
0001
0010
,
0100
1000
0001
0000
,
0100
0001
1000
0001
,
0010
0100
1000
0010
,
0100
0000
0000
0000
,
0010
0000
1000
0000
,
0002
0000
0000
0003
,
0020
0000
0000
0030
,
0200
0000
0000
0300
,
2000
0000
0000
3000
,
0001
0000
0100
0000
,
0001
1000
0001
0000
,
1000
1000
0100
0100
,
0010
0010
0001
0001
,
0100
0100
0010
0010
,
1000
1000
0001
0001
,
1001
0000
1000
0000
,
0001
0000
1000
0000
0001
0000
0000
1001
,
0000
0000
0000
0000
0000
0000
0000
1010
,
0000
0000
0000
0000
,
0101
0000
0000
0000
0000
0000
0000
1001
,
0000
0000
1000
0000
0001
0000
0000
1001
,
0000
0001
0100
0001
,
0000
1000
0100
0010
,
0001
0100
0010
1000
,
0001
0010
0100
0010
,
0001
0001
0100
0000
,
0001
0001
0010
0000
,
0001
0100
0010
1000
,
0001
1000
0100
0010
,
0001
0100
0001
0100
,
0010
1000
0010
1000
,
0001
0000
0010
0000
0100
0000
1000
0001
,
0000
0000
0000
0000
0000
0000
0000
1000
,
0000
0000
0000
0000
0000
0000
0000
0001
,
0000
1000
0010
1000
,
0001
0000
1001
0000
,
1000
0100
0010
0000
,
0001
0100
0010
0000
,
0010
0000
1000
0000
0001
0000
0000
1000
,
0000
0000
0000
0001
0000
0000
0000
1001
;

//---------------dance-single - ----------------
#NOTES:
     dance-single:
     :
     Medium:
     7:
     0.460,0.536,0.270,0.205,0.000,336.000,33.000,25.000,0.000,0.000,0.000,0.460,0.536,0.270,0.205,0.000,336.000,33.000,25.000,0.000,0.000,0.000:
0000
0000
0000
0000
,
0000
0000
0000
0000
,
0000
0000
0000
0000
,
0000
0000
0000
0000
,
0001
0000
0010
0000
,
1000
0000
0010
0000
,
0001
0000
0100
0000
,
0010
0000
1000
0000
,
0001
0010
0100
0010
,
0001
1000
0010
0100
,
0001
0000
1000
0000
0100
0000
0010
0001
,
0000
1000
0010
0100
0000
0000
0000
0000
,
0110
0000
0100
0001
1000
0000
0001
0010
,
0100
1000
0010
0100
,
0001
0000
1000
0100
0010
0000
0001
0100
,
0010
0000
1000
0000
0001
0010
0001
0000
,
0100
0000
0010
1000
1001
0000
0001
0000
,
0010
0000
0100
1000
1100
0000
1000
0001
,
0000
0000
1001
0000
1000
0010
0000
2000
,
0000
3100
0010
0001
0000
0001
1000
0002
,
0000
0000
0010
0000
1003
0000
0000
2000
,
0000
0010
3001
0000
,
0000
0000
1001
0000
0000
0101
0000
1010
,
0000
1000
0001
0010
0100
0010
0001
1000
,
0002
0203
0320
2030
,
3200
0320
0032
0203
,
0310
1000
0010
0000
1000
0001
1000
0000
,
0001
0010
0100
1000
,
0001
0100
0001
0000
1000
0010
1000
0010
,
0200
0000
0001
0000
0301
0000
0000
1001
,
0000
0000
0001
0000
0100
0010
1000
0001
,
0000
0001
0010
0100
0010
0000
0010
0000
,
0001
1000
0010
0000
0100
0010
1000
0001
,
0000
0001
0010
1000
0010
0001
0000
1001
,
0000
1000
0010
0000
0100
0001
1000
0001
,
0000
1000
0100
0010
0100
0000
0100
0000
,
1100
0000
1000
0000
0001
0100
0010
0100
,
0000
0001
1000
0100
0010
0000
0001
0000
,
1000
1000
0010
0010
,
0001
0001
0010
0010
,
1000
1000
0001
0001
,
1000
0100
0001
0000
0001
0100
1000
0000
,
1000
0010
1010
0000
0001
0010
0100
0000
,
0010
0001
0011
0000
0001
0100
0010
0000
,
1000
0100
0010
0000
0001
0010
0100
1000
,
0000
0000
0000
0000
,
0010
0100
0000
0000
0110
0000
0000
0000
,
0002
0000
0023
0000
,
2030
0000
3200
0000
,
0302
0000
0023
0000
,
2030
0000
3020
0000
,
0032
0000
0203
0000
,
2300
0000
3020
0000
,
0031
0001
1000
1000
,
0010
0010
0100
0100
,
0001
0001
1000
1000
,
0100
0100
0010
0010
,
0011
0000
0001
0100
0010
1000
0100
0010
,
0001
1000
0010
0001
0010
1000
0100
0110
,
0000
0000
0000
0000
0000
0000
0000
0011
,
0000
0000
0000
0000
,
1001
0000
0000
0000
0000
0000
0000
1010
,
0000
1000
0100
0010
0001
1000
0000
2001
,
0000
0000
3001
0000
0100
0010
1000
0001
,
0000
0001
0010
1000
0010
0001
1000
0000
,
1010
0000
0010
0000
0100
0001
0010
0100
,
0000
0010
0001
0100
0010
0000
1000
0000
,
0001
0000
0011
0000
0010
0001
1000
0000
,
0010
0000
0110
0000
0100
0001
1000
0000
,
0100
0110
0010
0011
,
0001
0100
1000
0100
0001
1000
0100
0010
,
0001
1000
1001
0000
0001
0100
0010
0000
,
1000
0100
1100
0000
1000
0100
0001
0100
,
1000
0000
1000
0000
0010
0100
0001
1000
,
0000
0000
0000
0000
0000
0000
0000
1001
,
0000
0000
0000
0000
0000
0000
0000
1100
,
0000
0100
0010
0001
1000
0001
1000
0000
,
0010
0100
0000
0000
0110
0000
0000
0000
,
0100
0000
0101
0000
0001
0000
1000
0100
,
0000
0000
1100
0000
1000
0000
0010
0100
,
0000
0000
0110
0000
0001
0000
1000
0001
,
0000
0000
0000
1000
0000
0000
0000
1001
;

//---------------dance-single - ----------------
#NOTES:
     dance-single:
     :
     Hard:
     9:
     0.630,0.770,0.262,0.147,0.245,489.000,32.000,18.000,0.000,0.000,0.000,0.630,0.770,0.262,0.147,0.245,489.000,32.000,18.000,0.000,0.000,0.000: // measure 0
0000
0000
0000
0000
,  // measure 1
0000
0000
0000
0000
,  // measure 2
0000
0000
0000
0000
,  // measure 3
0000
0000
0000
0000
,  // measure 4
0001
0001
0010
0010
,  // measure 5
1000
1000
0010
0010
,  // measure 6
0001
0001
0100
0100
,  // measure 7
0010
0010
1000
1000
,  // measure 8
0001
0010
0001
0100
,  // measure 9
0010
1000
0100
0001
,  // measure 10
0100
0000
1000
0000
0001
0100
0010
0100
,  // measure 11
0000
0001
1000
0001
0000
0000
0000
0000
,  // measure 12
1000
0000
0001
0100
0001
0000
0010
0000
0100
0000
1000
0001
1000
0000
0001
0000
,  // measure 13
0100
0010
1000
0001
0010
1000
0010
0001
,  // measure 14
1000
0000
0001
0100
0001
0000
0010
0000
0100
0000
1000
0001
1000
0000
0001
0000
,  // measure 15
1000
0010
1000
0000
0001
0100
0001
0000
1000
0000
0100
0000
0001
0000
0100
0000
,  // measure 16
1000
0000
0001
0100
0010
0000
1000
0000
0100
0000
0001
0000
1000
0000
0010
0000
,  // measure 17
0001
0000
1000
0010
0100
0000
0001
0000
0010
0000
1000
0000
0001
0000
0100
0000
,  // measure 18
0000
0000
1100
0000
1000
0001
0000
1001
,  // measure 19
0000
0000
1000
0000
0100
0010
0001
0000
0000
0000
1000
0000
0001
0000
0200
0000
,  // measure 20
0000
0000
0010
0000
0301
0000
0000
0020
,  // measure 21
0000
0000
0000
0000
0100
0000
0000
0000
0031
0000
0000
0001
0000
0000
0000
0000
,  // measure 22
0000
0000
1001
0000
0000
1010
0000
0101
,  // measure 23
0000
0001
0010
1000
0010
0100
1000
0010
,  // measure 24
1000
0000
0100
0000
1000
0000
0100
0000
0010
0000
0100
0000
0010
0000
0001
0000
0010
0000
0001
0000
0000
1000
0000
0000
,  // measure 25
0020
2030
3200
0320
,  // measure 26
0031
0010
1000
0010
0001
0100
0010
1000
,  // measure 27
0001
0000
0000
0001
0010
0000
0000
0010
0100
0000
0000
0100
1000
0000
0001
0000
,  // measure 28
1000
0000
0010
0000
0001
0000
0010
0000
1000
0010
1000
0001
0100
0000
0001
0000
,  // measure 29
1000
0000
0001
0010
0001
0000
1000
0010
1000
0000
0100
0000
0010
0000
0110
0000
,  // measure 30
0000
0100
1000
0010
0001
0010
1000
0100
,  // measure 31
0000
0100
0010
0001
1000
0001
0100
0010
,  // measure 32
1000
0100
0001
0100
0010
0001
0100
0101
,  // measure 33
0000
0010
1000
0100
0010
0100
0000
1100
,  // measure 34
0000
1000
0010
0001
0010
1000
0100
0010
,  // measure 35
0000
0010
0001
0100
0010
1000
0001
1000
,  // measure 36
0100
0001
0100
1000
0010
0100
0001
1001
,  // measure 37
0000
0000
1000
0000
0010
0000
0100
0000
0010
0000
1000
0001
1000
0000
0001
0000
,  // measure 38
0010
0000
0100
0000
1000
0000
0010
0000
0100
0001
0000
0001
1000
0000
0100
0000
,  // measure 39
0010
0000
0001
0000
0100
0000
0010
0000
1000
0100
0000
0100
0010
0000
0001
0000
,  // measure 40
1000
0010
1000
0100
0020
0000
0032
0000
,  // measure 41
1003
0000
1000
0000
0010
0000
0010
0000
0100
0000
0100
0001
1000
0000
1000
0000
,  // measure 42
0001
0010
0001
0000
1000
0000
0001
0100
0010
0100
0001
0000
1000
0000
0001
0000
,  // measure 43
1000
0100
1000
0000
0001
0000
1000
0010
0100
0010
1000
0000
0100
0000
0010
0000
,  // measure 44
0001
0100
0100
1000
0100
0100
0001
0101
,  // measure 45
0000
0000
0000
0000
,  // measure 46
0100
0010
0000
0000
1000
0000
0000
0000
,  // measure 47
1002
0000
0023
0000
,  // measure 48
0230
0000
2300
0000
,  // measure 49
3020
0000
0230
0000
,  // measure 50
0302
0000
0000
0023
0000
0000
0230
0000
,  // measure 51
1300
0000
0000
1000
1000
0000
0000
0001
,  // measure 52
0000
0000
0001
0000
0000
0000
0001
1000
0001
0000
0000
0000
0000
0000
0000
0000
,  // measure 53
0100
0101
0001
1001
,  // measure 54
1000
0011
0001
0101
,  // measure 55
0100
1010
1000
1001
,  // measure 56
0001
0000
0000
0011
0000
0000
0010
0000
0001
0000
1000
0000
,  // measure 57
0010
0000
0000
1000
0100
0000
0000
0010
0001
0000
0000
0100
0010
0000
0000
1000
,  // measure 58
0001
0000
0010
0000
0100
0000
1000
0000
0001
1000
0001
1000
0001
0000
1001
0000
,  // measure 59
0000
0000
0000
0000
0000
0000
0000
0101
,  // measure 60
0000
0000
0000
0000
,  // measure 61
0110
0000
0000
0000
0000
0000
0000
1010
,  // measure 62
0000
1000
0100
0010
0001
1001
0000
0210
,  // measure 63
0000
0301
0010
1000
0001
0100
1000
0010
,  // measure 64
0000
0010
1000
0100
0001
0100
1000
0001
,  // measure 65
0100
1000
0100
0010
1000
0001
0010
0110
,  // measure 66
0000
0000
0100
0000
0100
0000
1000
0000
0001
0000
0000
1000
0010
0000
0100
0000
,  // measure 67
0010
0000
1000
0000
0100
0000
0010
0000
0001
1000
0001
1000
0001
0000
0100
0000
,  // measure 68
1000
0000
0100
0000
0010
0000
1000
0000
0001
0010
0001
0010
0001
0000
0100
0000
,  // measure 69
0010
1000
0100
0001
0100
1000
0010
0100
,  // measure 70
0001
0000
0001
0000
0010
0000
0010
0000
0100
0000
0100
1000
0001
0000
0001
0000
,  // measure 71
1000
0010
1000
0000
0001
0000
1000
0100
0010
0100
1000
0000
0010
0000
0100
0000
,  // measure 72
0001
0010
0001
0000
1000
0000
0001
0100
0010
0100
0001
1000
0001
0000
0010
0000
,  // measure 73
0100
1000
0001
0000
0001
0000
0100
0001
1000
0000
1000
0000
0001
0000
1001
0000
,  // measure 74
0000
0000
0000
0000
0000
0000
0000
1001
,  // measure 75
0000
0000
0000
0000
0000
0000
0000
1001
,  // measure 76
0000
0100
0100
0010
0010
1000
1000
0000
,  // measure 77
0001
0000
0011
0000
0000
0000
0000
0000
1000
0000
0001
0100
0010
0000
0100
0000
,  // measure 78
0110
0000
0010
1000
0001
0010
0100
0010
,  // measure 79
0000
0010
0001
0100
1000
0100
0010
1000
,  // measure 80
0000
1000
0001
0010
0100
0010
0001
0100
,  // measure 81
0000
0000
0000
0110
0000
0000
0000
1001
;
