#TITLE:Mei;
#SUBTITLE:(Rockin' SWING Remix);
#ARTIST:Amuro vs. Killer remixed by 164;
#TITLETRANSLIT:;
#SUBTITLETRANSLIT:;
#ARTISTTRANSLIT:;
#GENRE:;
#CREDIT:;
#BANNER:Mei (Rockin' SWING Remix) - Amuro vs. Killer remixed by 164bn.png;
#BACKGROUND:Mei (Rockin' SWING Remix) - Amuro vs. Killer remixed by 164bg.png;
#LYRICSPATH:;
#CDTITLE:;
#MUSIC:Mei (Rockin' SWING Remix) - Amuro vs. Killer remixed by 164.ogg;
#OFFSET:-0.356;
#SAMPLESTART:30.322;
#SAMPLELENGTH:11.940;
#SELECTABLE:YES;
#BPMS:0.000=200.000
;
#STOPS:
;
#BGCHANGES:;
#KEYSOUNDS:;
#ATTACKS:;

//---------------dance-single - S. Whirlers----------------
#NOTES:
     dance-single:
     S. Whirlers:
     Beginner:
     3:
     0.186,0.241,0.113,0.047,0.000,121.000,12.000,5.000,0.000,0.000,0.000,0.186,0.241,0.113,0.047,0.000,121.000,12.000,5.000,0.000,0.000,0.000:
0000
0000
0000
0000
,
0000
0000
0000
0000
,
0000
0000
0000
0000
,
0000
0000
0000
0000
,
1000
0000
0001
0000
,
0100
0000
0000
0000
,
0010
0000
0100
0000
,
0001
0000
0000
0000
,
0001
0000
1000
0000
,
0100
0000
0000
0000
,
0010
0000
0100
0000
,
1000
0000
0000
0000
,
0001
0000
0100
0000
,
1000
0000
0000
0000
,
1000
0000
0100
0000
,
0001
0000
0000
0000
,
1001
0000
0100
0000
,
0001
0000
0000
0000
,
1001
0000
0100
0000
,
1000
0000
0000
0000
,
1000
0000
0010
0000
,
0001
0000
0000
0000
,
0001
0000
0010
0000
,
1000
0000
0000
0000
,
0110
0000
0001
0000
,
1000
0000
0000
0000
,
0110
0000
1000
0000
,
0002
0000
0000
0003
,
1000
0000
1000
0000
,
0001
0000
0001
0000
,
0100
0000
0100
0000
,
0010
0000
0010
0000
,
1000
0000
0000
0000
,
0100
0000
0000
0000
,
0001
0000
0000
0000
,
0100
0000
0000
0000
,
1000
0000
1000
0000
,
0001
0000
0001
0000
,
1000
0000
0001
0000
,
1000
0000
0001
0000
,
0100
0000
0000
0000
,
0001
0000
0000
0000
,
0010
0000
1000
0000
,
0000
0000
0010
0000
,
0001
0000
0000
0000
,
0100
0000
0000
0001
,
0000
0000
0001
0000
,
1000
0000
0000
0000
,
0110
0000
0000
0000
,
0100
0000
0010
0000
,
0000
0000
1000
0000
0000
0100
0000
0000
,
0010
0000
0000
0001
0000
0000
0000
0000
,
1001
0000
0100
0000
,
0010
0000
1000
0000
,
0001
0000
0010
0000
,
0001
0000
0100
0000
,
0010
0000
1000
0000
,
0001
0000
0010
0000
,
0100
0000
1000
0000
,
0001
0000
0001
0000
,
0000
0000
0110
0000
,
0000
0000
0110
0000
,
0000
0000
1001
0000
,
0000
0000
1001
0000
,
1000
0000
0000
0000
,
0001
0000
0000
0000
,
1000
1000
1000
0000
,
0001
0001
0001
0000
,
1000
0000
0010
0000
,
1000
0000
0001
0000
,
0010
0000
0100
0000
,
1000
0000
0001
0000
,
1001
0000
0000
0000
,
0110
0000
0000
0000
,
1000
0000
0001
0000
,
0100
0000
0100
0000
,
0020
0000
0000
0000
,
0030
0000
0000
0000
,
0000
0200
0000
0000
0000
0000
0000
0000
,
0000
0300
0000
0000
0000
0000
0000
0000
,
0000
2000
0000
0000
,
0000
3000
0000
0000
,
0000
0000
0001
0000
,
0000
0000
0000
2000
0000
0000
0000
0000
,
0000
0000
0000
3000
0000
0000
0000
0000
,
0000
0001
0000
0000
0000
0000
0000
0000
;

//---------------dance-single - S. Whirlers----------------
#NOTES:
     dance-single:
     S. Whirlers:
     Easy:
     6:
     0.345,0.441,0.198,0.236,0.014,210.000,21.000,25.000,0.000,0.000,0.000,0.345,0.441,0.198,0.236,0.014,210.000,21.000,25.000,0.000,0.000,0.000:
0000
0000
0000
0000
,
0000
0000
0000
0000
,
0000
0000
0000
0000
,
0000
0000
0000
0000
,
0001
0000
0000
0000
0100
0000
0000
0010
,
0000
0100
0000
0001
,
1000
0000
0000
0000
0100
0000
0000
0010
,
0000
0001
0000
0001
,
1000
0000
0000
0000
0010
0000
0000
0100
,
0000
0010
0000
1000
,
0001
0000
0010
0000
,
0100
0000
1000
0000
,
1001
0000
0000
0000
0010
0000
0000
2000
,
0000
3001
0000
0000
,
0010
0000
0000
0000
0001
0000
0000
0200
,
0000
0310
0000
0000
,
1001
0000
0000
0000
0100
0000
0000
0002
,
0000
1003
0000
0000
,
0010
0000
0000
0000
1000
0000
0000
0200
,
0000
0310
0000
0000
,
0110
0000
0000
0000
0001
0000
0000
2000
,
0000
3010
0000
0000
,
0100
0000
0000
0000
0001
0000
0000
0020
,
0000
0130
0000
0000
,
0110
0000
0000
0000
1000
0000
0000
0002
,
0000
0013
0000
0000
,
0001
0000
0100
0000
,
2002
0000
0000
3003
,
1000
0100
1000
0100
,
0010
0100
0010
0100
,
1000
0010
1000
0010
,
0100
0010
0100
0001
,
1000
0100
0010
0001
,
1000
0100
0010
0010
,
0001
0100
0001
1000
,
0001
0010
0100
1000
,
0001
0000
0110
0000
,
0001
0010
0001
0010
,
0100
0010
0100
0010
,
0001
0100
0001
0100
,
0010
1000
0100
0100
,
0100
0100
0010
0100
,
0110
0000
1001
0000
,
0000
1000
0000
0000
0001
0000
0000
0000
,
1001
0000
0100
0000
0000
0010
0000
0000
,
1000
0000
0000
0001
0000
0000
0010
0000
,
0000
0000
0000
0000
0000
0010
0000
0000
,
0100
0000
0000
1000
0000
0000
0001
0000
,
1001
0000
0010
0000
0000
0100
0000
0000
,
0001
0000
0000
1000
0000
0000
0100
0000
,
0000
0000
1100
0000
0000
0110
0000
0000
,
1001
0000
0000
0101
0000
0000
0000
0000
,
0002
0000
0013
0001
,
0100
0001
0010
0100
,
2000
0000
3010
1000
,
0100
1000
0010
0100
,
0001
1000
0100
0000
,
0000
0010
0100
1000
,
0001
1000
0010
0001
,
0010
1000
0100
0010
,
0001
0000
0010
0202
,
0303
0000
0010
2002
,
3003
0000
0010
2200
,
3300
0000
0010
0110
,
0200
0000
0302
0000
,
2003
0000
3200
0000
,
1300
0100
0001
0010
,
1000
0001
1001
0000
,
0001
0000
0000
0010
0000
0000
0001
0000
,
0000
0100
0000
0000
0010
0000
0010
0000
,
1000
0001
0100
0001
,
1000
0100
0010
0001
,
1000
0000
0100
1000
,
0010
0000
1001
0100
,
0001
1000
0010
0000
,
0110
0000
0100
0001
,
2000
0000
0000
0000
,
0000
0000
0000
0000
,
3000
0020
0000
0000
0000
0000
0000
0000
,
0000
0000
0000
0000
,
0000
0030
0200
0000
0000
0000
0000
0000
,
0000
0000
0000
0000
0000
0000
0000
0000
0000
0000
0000
0010
0300
0000
0000
0000
,
0000
0000
0000
0000
0000
0000
0000
0000
0100
0000
0000
0000
0000
0000
0000
0001
,
0000
0000
0000
2000
0000
0000
0000
0000
,
0000
0000
0000
0000
,
0000
0001
3000
0000
0000
0000
0000
0000
0000
0000
0000
0000
0000
0000
0000
0000
;

//---------------dance-single - S. Whirlers----------------
#NOTES:
     dance-single:
     S. Whirlers:
     Medium:
     9:
     0.496,0.642,0.207,0.245,0.047,320.000,22.000,26.000,0.000,0.000,0.000,0.496,0.642,0.207,0.245,0.047,320.000,22.000,26.000,0.000,0.000,0.000: // measure 0
0000
0000
0000
0000
,  // measure 1
0000
0000
0000
0000
,  // measure 2
0000
0000
0000
0000
,  // measure 3
0000
0000
0000
0000
,  // measure 4
2200
0000
3300
0000
,  // measure 5
0000
0000
0000
0020
,  // measure 6
0200
0000
0030
0002
0300
0000
2000
0003
,  // measure 7
0000
3000
0000
0100
,  // measure 8
0022
0000
0033
2000
,  // measure 9
0000
3000
0000
0000
,  // measure 10
0020
0000
0030
0000
,  // measure 11
0100
0000
0001
0000
,  // measure 12
1000
0100
0000
0100
1000
0001
0000
1000
,  // measure 13
0000
0000
0010
0000
0000
0100
0000
0000
,  // measure 14
0001
0010
0000
0010
0001
1000
0000
0100
,  // measure 15
0000
0000
0010
0000
0000
0001
0000
0000
,  // measure 16
1000
0001
0000
0001
0100
0010
0000
1000
,  // measure 17
0000
0000
0100
0000
0000
0010
0000
0000
,  // measure 18
0001
1000
0000
1000
0010
0100
0000
0001
,  // measure 19
0000
0000
1000
0000
0000
1000
0001
0001
,  // measure 20
1000
0100
0000
0100
0010
0001
0000
0100
,  // measure 21
0000
0000
1000
0000
0000
0100
0000
0000
,  // measure 22
0001
0010
0000
0010
0100
1000
0000
0100
,  // measure 23
0000
0000
0001
0000
0000
0100
0010
0100
,  // measure 24
1000
0001
0000
1000
0010
0100
0000
0010
,  // measure 25
0000
0000
0001
0000
0000
0010
0000
0000
,  // measure 26
1001
0000
1010
0000
,  // measure 27
0202
0000
0000
0303
,  // measure 28
1000
0000
0001
0010
0000
0010
0100
0000
,  // measure 29
0100
1000
0000
1000
0001
0000
0010
0000
,  // measure 30
0001
0000
0100
0000
0100
0010
0100
0001
,  // measure 31
0010
0100
1000
0001
1000
0100
0010
0001
,  // measure 32
0100
0000
0000
0100
0000
0000
0000
0000
0010
0000
0000
0010
0000
0000
0000
0000
,  // measure 33
1000
0000
0000
1000
0000
0000
0000
0000
0001
0000
0000
0000
0001
0000
0000
0000
,  // measure 34
0010
0000
0000
0000
0001
0000
0000
0100
0000
0000
0010
0000
0100
0000
0001
0000
,  // measure 35
1000
0000
0000
0000
0100
0000
0000
0010
0000
0000
0100
0000
1000
0000
0001
0000
,  // measure 36
0010
0000
1001
0000
,  // measure 37
0100
0000
0100
0010
0000
0010
1000
0100
,  // measure 38
1000
0010
0100
0010
1000
0001
0100
0010
,  // measure 39
1000
0001
0010
0001
1000
0010
1000
0001
,  // measure 40
0100
0010
1010
0110
,  // measure 41
0101
0011
0110
1100
,  // measure 42
1001
0000
1100
0000
,  // measure 43
0000
0101
0000
0000
0110
0000
0000
0000
,  // measure 44
2000
0000
0100
0000
0000
0010
0000
0000
,  // measure 45
3002
0000
0000
0100
0000
0000
0010
0000
,  // measure 46
0000
0000
0000
0000
0000
0103
0000
0000
,  // measure 47
0020
0000
0000
1000
0000
0000
0031
0000
,  // measure 48
0110
0000
0200
0000
0000
0001
0000
0000
,  // measure 49
1000
0000
0000
0010
0000
0000
0001
0000
,  // measure 50
0300
0000
1000
0100
0000
0100
0010
0000
,  // measure 51
0010
0001
0000
1001
0000
0000
0000
0000
,  // measure 52
1100
0000
1000
0001
0100
0000
0100
0001
,  // measure 53
0010
0100
0010
0001
0100
0010
1000
0001
,  // measure 54
0100
0000
0100
0001
1000
0010
0000
0010
,  // measure 55
0100
0000
0010
1000
0100
0010
0001
1000
,  // measure 56
0001
0000
0001
0010
0200
0000
0000
0000
,  // measure 57
0300
0010
0100
0000
0100
1000
0001
0100
,  // measure 58
0010
0000
1000
0010
0100
0001
1000
0010
,  // measure 59
0100
0010
1000
0001
0010
0100
0010
0001
,  // measure 60
1000
0000
0000
1000
0100
0001
0100
2000
,  // measure 61
0000
0000
3000
0001
0100
1000
0100
0002
,  // measure 62
0000
0000
0003
1000
0010
0001
0010
2000
,  // measure 63
0000
0000
3000
0001
0010
1000
0010
0000
,  // measure 64
0002
0000
0100
0000
0010
0000
0013
0100
,  // measure 65
2000
0100
0001
3001
,  // measure 66
1000
0100
0010
0001
0100
0010
1000
0010
,  // measure 67
0100
0000
0100
0001
1000
0000
0000
0000
,  // measure 68
0001
0000
0001
0100
0000
0010
0100
0000
,  // measure 69
0000
0100
0010
0000
1000
0000
0001
0000
,  // measure 70
0010
0001
0100
0001
1000
0010
0100
0001
,  // measure 71
0010
0001
1000
0000
1100
0000
0010
0100
,  // measure 72
1000
0000
0010
0000
0000
1000
0001
1000
,  // measure 73
0000
0000
0000
0000
0010
0000
0000
0000
1000
0000
0000
0100
0000
0000
0010
0000
,  // measure 74
0001
0000
1000
0100
1000
0010
0000
0000
,  // measure 75
1001
0000
0000
0000
0110
0000
0010
1000
,  // measure 76
0002
0000
0000
0000
,  // measure 77
0000
0000
0000
0000
,  // measure 78
0013
0000
0000
0020
0000
0000
0000
0000
0000
0000
0000
0000
0000
0000
0000
0000
,  // measure 79
0000
0000
0000
0000
,  // measure 80
0030
0200
0000
0000
,  // measure 81
0000
0000
0000
0000
0000
0000
0000
0000
0000
0000
0000
1000
0300
0000
0000
0000
,  // measure 82
0000
0000
0000
0000
0000
0000
0000
0000
0010
0000
0000
0000
0000
0000
0000
0100
,  // measure 83
0000
0000
0000
0002
0000
0000
0000
0000
,  // measure 84
0000
0000
0000
0000
,  // measure 85
0000
1000
0003
0000
0000
0000
0000
0000
0000
0000
0000
0000
0000
0000
0000
0000
;

//---------------dance-double - S. Whirlers----------------
#NOTES:
     dance-double:
     S. Whirlers:
     Medium:
     9:
     0.490,0.603,0.311,0.321,0.024,297.000,33.000,34.000,0.000,0.000,0.000,0.490,0.603,0.311,0.321,0.024,297.000,33.000,34.000,0.000,0.000,0.000:
00000000
00000000
00000000
00000000
,
00000000
00000000
00000000
00000000
,
00000000
00000000
00000000
00000000
,
00000000
00000000
00000000
00000000
,
00002000
00000000
00000000
00003000
00010000
00000000
00000000
00000000
,
00000100
00000000
00000010
00000002
,
00002000
00000003
00000000
00003020
00000000
00000000
00020030
00000000
,
00000000
00030000
00000000
00000000
00001000
00000000
02000000
00000000
,
00020000
03000000
00000000
00030000
00100000
00000000
02000000
00000000
,
00000000
03000000
10000000
00000000
00010000
00000000
00000000
00000000
,
00200000
00000000
00000000
00300000
00001000
00000000
00000000
00000000
,
00010100
00000000
01001000
00000000
,
00001000
00000000
00010000
00000000
00100000
00000000
00000000
10000000
,
00000000
00000000
00010000
00000000
00000000
00010000
00001000
00000000
,
00010000
00000000
00001000
00000000
00000010
00000000
00000000
00000001
,
00000000
00000000
00001000
00000000
00000000
00011000
00000000
00000000
,
00010000
00000000
00001000
00000000
00000100
00000000
00000000
00000001
,
00000000
00000000
00001000
00000000
00000000
00001000
00000000
00000000
,
00001000
00000000
00010000
00000000
01000000
00000000
00000000
10000000
,
00000000
00000000
00010000
00000000
00000000
00010000
00001000
00001000
,
00010000
00000000
00000010
00000000
00000100
00000000
00000000
00001000
,
00000000
00000101
00000000
00000100
,
00001000
00000000
00100000
00000000
01000000
00000000
00000000
00010000
,
00000000
00000000
11000000
00000000
00000000
01000000
00100000
00100000
,
00001000
00000000
01000000
00000000
00100000
00000000
00000000
00010000
,
00000000
00000000
10100000
00000000
00000000
01000000
00000000
00000000
,
01001000
00000000
01000000
00001000
00010000
00000100
00000000
00001000
,
00020200
00000000
00000000
00030300
,
00001000
00010000
00100000
10000000
,
01000000
00010000
00001000
00000100
,
00000001
00000010
00000100
00100000
,
00000100
01000000
00000010
00010000
,
00001000
01001000
00010000
00010100
,
00001000
00101000
00010000
00010010
,
00000100
00000000
00000001
00000000
00000001
00000010
00000100
00010000
,
00001000
00000000
00010010
00000000
00010000
00001000
01000000
00100000
,
10000000
00000000
00011000
00000000
,
00001000
00000000
00100000
01000000
00000000
01000000
00100000
00010000
,
10000000
00000000
01000000
00000000
00010000
00001000
00010000
00000000
,
00000010
00000000
00000100
00000000
00001000
00010000
00001000
00010000
,
01000000
10000000
11000000
01100000
,
00110000
00101000
00100100
00011000
,
00010010
00000000
01000010
00000000
,
00000000
00010010
00000000
00000000
00000101
00000000
00000000
00000000
,
00000001
00000000
00000200
00000000
00000000
00002300
00000000
00000000
,
00023000
00000000
00000000
00030020
00000000
00000000
00200030
00000000
,
00000000
00300000
00000000
00000000
00000000
00002000
00000000
00000000
,
00023000
00000000
00000000
00030200
00000000
00000000
01000300
00000000
,
10010000
00000000
00000000
02000000
00000000
00002000
03000000
00000000
,
00203000
00000000
00000000
00300020
00000000
00000000
00020030
00000000
,
00000000
00030000
00001000
00100000
00000000
00100000
01000000
00000000
,
01000000
10000000
00000000
10010000
00000000
00000000
00000000
00000000
,
00110000
00000000
00100000
01000000
10000000
00000000
10000000
00100000
,
00010000
00000000
00001000
00000010
00000001
00000010
00000100
00001000
,
00000001
00000000
00000001
00000100
00001000
00000000
00010000
00000000
,
00001000
00010000
00000100
00000010
00001000
00010000
00100000
01000000
,
00010000
00000000
00010000
00100000
01000000
00000000
10000000
00000000
,
00010000
00000000
00010000
01000000
00010000
00100000
01000000
10000000
,
00010000
01000000
00001000
00000100
,
00010000
00100000
00001000
00000010
,
00020000
00000000
00000000
00130000
01000000
00000000
01000000
20000000
,
00000000
00000000
00000000
30100000
01000000
00000000
01000000
00020000
,
00000000
00000000
00000000
00130000
00001000
00000000
00001000
00020000
,
00000000
00000000
00000000
00030100
00000010
00000000
00000010
00000100
,
00002000
00000000
00000000
00000000
,
00000002
00000000
00000000
00003003
,
00000001
00000100
00000010
00010000
00001000
00000010
00001000
00010000
,
00100000
00010000
00001000
00100000
01000000
00000000
10000000
00000000
,
11000000
00000000
00100000
10010000
00000000
10000000
01100000
00000000
,
00000000
00100000
10000000
01000000
00100000
00001000
00010000
00000010
,
00000100
00000001
00000100
00000001
00000010
00000001
00001000
00000100
,
00000010
00000001
00000010
00000000
00000110
00000000
00001000
00010000
,
00100000
00000000
01000000
00000000
00100000
10000000
00100000
01000000
,
00010000
00000000
00000000
00000000
10000000
00000000
00000000
00000000
01000000
00000000
00000000
01000000
00000000
00000000
00100000
00000000
,
00001000
00000000
00010000
00001000
00010000
00000010
00000000
00000000
,
00001001
00000000
00000000
00000000
00001100
00000000
00000010
00000001
,
00000200
00000000
00000000
00000000
,
00000000
00000000
00000000
00000000
,
00000010
00000000
00000000
00000020
00000300
00000000
00000000
00000000
00000000
00000000
00000000
00000000
00000000
00000000
00000000
00000000
,
00000000
00000000
00000000
00000000
,
00000000
00020030
00000000
00000000
,
00000000
00000000
00000000
00000000
00000000
00000000
00000000
00000000
00000000
00000000
00000000
00001000
00030000
00000000
00000000
00000000
,
00000000
00000000
00000000
00000000
00000000
00000000
00000000
00000000
01000000
00000000
00000000
00000000
00000000
00000000
00000000
00100000
,
00000000
00000000
00000000
20000000
00000000
00000000
00000000
00000000
,
00000000
00000000
00000000
00000000
,
00000000
00010000
00000000
00000000
30000000
00000000
00000000
00000000
00000000
00000000
00000000
00000000
00000000
00000000
00000000
00000000
;

//---------------dance-double - S. Whirlers----------------
#NOTES:
     dance-double:
     S. Whirlers:
     Challenge:
     13:
     0.974,1.000,0.481,0.057,0.867,666.000,51.000,6.000,46.000,0.000,0.000,0.974,1.000,0.481,0.057,0.867,666.000,51.000,6.000,46.000,0.000,0.000:
00000000
00000000
00000000
00000000
,
00000000
00000000
00000000
00000000
,
00000000
00000000
00000000
00000000
,
00000000
00000000
00000000
00000000
00000000
00000000
00000000
00000000
00000000
00000000
00000000
00000000
00000000
00000000
00000000
00000000
00000000
00000000
00000000
00000000
00000000
00010000
00000000
00000000
10000000
00000000
00000000
00010000
00000000
00000000
00000000
00000000
00100000
00000000
00000000
00000000
01000000
00000000
00000000
00000000
10000000
00000000
00000000
00000000
01000000
00000000
00000000
00000000
,
0010M000
00000000
00010000
00000000
00000000
00000000
00010000
00000000
01000000
00000000
00100000
00000000
00000000
00000000
00100000
10000000
,
00010000
01000000
00000000
01000000
00000100
00001000
00000010
00010000
,
00M10100
00000000
00000000
00000000
00000000
00000000
00000000
00000000
00000000
00000000
00000000
00000000
00000000
00000000
00000000
00000000
00000000
00000000
00000011
00000000
0000M000
00000000
00000000
00000000
00000000
00000000
00000000
00000000
00000000
00000000
00000000
00000000
00000000
00000000
00000000
00000000
000M0110
00000000
00000000
00000000
00000000
00000000
00000010
00000000
00000000
00000001
00000000
00000000
,
00001000
00000000
00000010
00000000
00000000
00000000
00000010
00001000
00000001
00000000
00000010
00000000
00M00100
00000000
00000000
00000000
,
0001010M
00000000
00001000
00000000
00000000
00000000
00001000
00000000
00000010
00000000
00000100
00000000
000M0000
00000000
00000100
00000001
,
00001000
00000010
00000000
00000010
00100000
00010000
01000000
00000000
,
01001M00
00000000
00010000
00000000
00000000
00000000
00010000
00000000
00100000
00000000
01000000
00000000
00000000
00000000
01000000
10000000
,
00010000
00000000
01000000
00001000
00000000
00010000
00001000
00100000
00010000
01000000
00001000
00010000
00000100
00000000
00000000
00000000
,
M0011000
00010000
00000010
00000100
00001000
00000100
00000001
00000101
,
00000000
00000100
00000010
00001000
00000100
00010000
01000000
01000000
,
0001000M
00001000
01000000
00100000
00010000
00100000
10000000
10100000
,
00000000
00100000
10000000
00010000
00000000
00000010
00000000
00001000
,
M0011000
00001000
00100000
01000000
00010000
01000000
10000000
11000000
,
00000000
01000000
00100000
00010000
00000000
00010000
01000000
01000000
,
0000100M
00010000
00000100
00000010
00001000
00000010
00000001
00000011
,
00000000
00000000
00000010
00000000
00000001
00000000
00001000
00000000
00000000
00000000
00100000
00010000
00001000
00000000
00010000
00000000
,
M0011000
00001000
00100000
01000000
00010000
00000100
00010000
00100000
,
00000000
00100000
01000000
00001000
00001000
00010000
00001000
01000000
,
0001100M
00010000
00000010
00000100
00001000
01000000
00001000
00000010
,
00000000
00000010
00000100
00010000
00000000
00010000
00001000
00001000
,
M0010100
00001000
01000000
00100000
00010000
00000010
00001000
00001100
,
00000000
00000010
00000001
00001000
00001000
00000100
00010000
00001000
,
0101000M
00000000
00000000
01000000
00010000
00000000
00100000
00000000
01000000
00000000
10000000
00000000
00000000
00000000
10000000
00000000
,
00020000
00000000
00000000
00000000
00030000
10000000
00001000
00010000
,
00000001
00000010
00000001
00000010
00000100
000M0000
00000100
00000001
00000100
00000001
00000010
000M0000
00000010
00001000
00000010
00001000
,
00000100
000M0000
00000100
00000010
00000100
00000010
00001000
00M00000
00001000
00010000
00001000
00000000
00011000
00000000
00010000
00001000
,
01000000
00000000
00010000
00000000
00100000
00010000
00100000
01000000
10000000
01000000
00100000
00001000
00010000
00000100
00010000
00001000
,
01000000
00010000
01000000
00100000
10000000
00100000
01000000
00001000
00010000
00000010
00001000
00000010
00000100
00000001
00001000
00000100
,
00000010
00000000
00000001
00000010
00000000
00001000
00010000
00000000
00010000
00000000
00001000
00010000
00000000
00100000
10000000
00100000
,
10000000
00000000
10000000
00010000
00000000
00100000
00001000
00100000
00001000
00000000
00010000
00001000
01000000
00001000
00010000
00000010
,
00000100
00000000
00000000
00000000
00001001
00000000
00000000
00000010
00000001
00000000
00010000
00000000
00001000
00000000
10000000
00000000
,
00100000
00000000
10000000
00000000
00010000
00000000
00100000
01000000
10000000
01000000
00100000
00001000
00010000
00000100
00001000
00000100
,
00000010
00000000
00000010
00001000
00010000
00000000
00001000
00010000
,
00110000
00000000
00000000
00000000
01100000
00000000
00000000
10100000
00000000
00000000
10010000
00000000
00010000
00000000
10000000
00000000
,
01000000
00010000
00001000
00000100
00000001
00000010
00001000
00010000
,
00100000
00000000
10000000
01000000
10000000
01000000
00100000
0000M000
00100000
10000000
00100000
10000000
01000000
0000M000
01000000
00010000
,
10000000
00000000
10000000
01000000
00100000
00000000
01000000
00010000
00001000
00000000
00010000
00001000
00000100
00000000
00000010
00000100
,
00000001
00000000
00001000
00000001
00000100
00000001
00001000
00000100
00001000
00000100
00000010
00000000
00000110
00000000
00000100
00000000
,
00010000
00001000
00010000
00000010
00001000
00000010
00010000
00001000
01000000
00010000
01000000
00001000
00100000
00010000
00100000
00001000
,
00010000
00000000
00001000
00010000
00100000
00000000
01000000
00100000
10000000
00000000
00010000
10000000
01000000
00000000
00100000
00000000
,
00201000
00000000
01000MM0
00000000
00000000
00010000
0000M00M
00000000
,
00000010
00000000
000MM000
00000100
00000000
00000000
M00M0001
00000000
,
00300000
00000000
M000001M
00001000
00000000
00001000
00MM0100
00000000
,
01000000
00000000
0001M0M0
00100000
00000000
00100000
M000100M
00000000
,
00010020
00000000
0MM00100
00000100
00000000
00001000
M00M1000
00000000
,
01000000
00000000
000MM000
00100000
00000000
00000000
1000M00M
00000000
,
00000030
00000000
00011000
01000100
00000000
00100100
00011000
00000000
,
00011000
01000010
00000000
00100010
00000000
00010000
00000100
00000010
,
00000011
00000000
00000000
00000000
00000001
00001000
00000010
00010000
00000100
00000000
00000000
00000000
01000000
00001000
00000000
00001000
,
00100000
00000000
00010000
00000000
00100000
01000000
10000000
00010000
00100000
00000000
01000000
00000000
00010000
00000000
00001000
00000000
,
00000100
00000000
00000000
00000000
00000010
00000000
00001000
00000010
00001000
00000000
00000001
00000000
00000100
00000000
00000001
00000000
,
00000110
00000000
00000100
00001000
00100000
00001000
00010000
00000010
,
00001010
00000000
00001000
00000001
00000010
00000000
00000100
00000000
00020000
00000000
00001000
00000000
00000100
00000000
00001000
00000000
,
00030000
00002000
00010000
00100000
00013000
00001000
00001000
01000000
,
00100000
00000000
10000000
01000000
00100000
01000000
10000000
01000000
00010000
00001000
00010000
00000010
00001000
00000010
00010000
00001000
,
00000100
00000001
00001000
00000001
00000010
00000000
00000100
00001000
00000001
00001000
00000010
00000000
00010000
00001000
01000000
00001000
,
00010000
00000000
00000100
00000000
00000010
00000000
00001000
00000010
00000001
00000000
00000001
00000010
00001000
00000000
00010000
00000000
,
00001000
00000000
01000000
00000000
00100000
00000000
00010000
00100000
10000000
00000000
10000000
00100000
00010000
00000000
00001000
00000000
,
00010000
00000000
00000010
00000000
00000100
00000000
00001000
00000100
00000001
00000000
00000001
00000010
00001000
00000000
00010000
00000000
,
00001000
00000000
00100000
00000000
01000000
00000000
00010000
01000000
10000000
00000000
10000000
00100000
00010000
00000000
00001000
00000000
,
00010000
00000100
00000010
00001000
00100000
00001000
01000000
00100000
,
00010000
00000010
00010000
00001000
10000000
00001000
00010000
00000001
,
00010000
00000100
00001000
00000100
00000010
00000001
00001000
00000100
00010000
00001000
00100000
00010000
10000000
01000000
00100000
00001000
,
00000000
00100000
00010000
00000000
00100000
00000000
01000000
10000000
00020000
00000000
00000000
00000000
01000000
00000000
00000000
00000000
,
10030000
00100000
01000000
00001000
00010000
00000000
00001000
00010000
00000100
00000010
00000001
00000000
00000100
00000001
00001000
00000010
,
00010000
00001000
00100000
01000000
00010000
00001000
00000100
00000010
00010000
00001000
00100000
00010000
,
10010000
01000000
00010000
00100000
01000000
00010000
00001000
00000100
,
00000001
00001000
00001100
00000000
00010100
00000000
01001000
00010000
,
01010000
00000000
00010000
00000000
10000000
00000000
01000000
10000000
00100000
00000000
01000000
00000000
01001000
00000000
00011000
00000000
,
00000000
00000000
00010000
00000000
00000100
00000000
00000010
00000000
00001100
00000000
00000000
00000110
00000000
00000000
00000011
00000000
,
00001001
00001000
00000010
00010000
00000100
00001000
00000000
00000000
,
00001001
00000000
00000000
00000000
10010000
00000000
01000000
00010000
,
00100000
00000000
00000000
00000000
01000000
00000000
00000000
00000000
10000000
00000000
00000000
00000000
00010000
00000000
00000000
00000000
00000000
00100000
00000000
00000000
00000000
00001000
00000000
00000000
00000000
00010000
00000000
00000000
00000000
00000100
00000000
00000000
,
00000000
00000010
00000000
00000000
00000000
00000000
00000001
00000000
00000000
00000000
00001000
00000000
00000000
00000000
00000010
00000000
00000000
00000000
00000100
00000000
00000000
00000000
00000000
00000001
00000000
00000000
00000000
00000000
00000010
00000000
00000000
00000000
,
00000000
00000000
00000000
00000000
00000000
00000100
00000000
00000000
00000000
00000000
00010000
00000000
00000000
00000000
00000000
00001000
00000000
00000000
00000000
01000000
00000000
00000000
00000000
00100000
00000000
00000000
00000000
01000000
00000000
00000000
00000000
00010000
,
00000000
00000000
00000000
10000000
00000000
00000000
01000000
00000000
00000000
00000000
00010000
00000000
00000000
00000000
00001000
00000000
00000000
00000000
00000100
00000000
00000000
00000000
00000001
00000000
00000000
00000000
00000000
00001000
00000000
00000001
00000000
00001000
,
00000000
00000000
00000000
00000000
00000100
00000000
00000000
00000000
00010000
00000000
00000000
00000000
00000000
01000000
00000000
00000000
00000000
00010000
00000000
00000000
00000000
00001000
00000000
00000000
00000000
00000000
00000000
01000000
00000000
00000000
00000000
00000000
,
00100000
00000000
00000000
00010000
00000000
00000000
00000000
00000010
00000000
00000000
00000000
00010000
00000000
00000000
00000000
00000000
,
00000000
00000000
00000000
00000000
00000000
00000000
00000000
00000000
00001100
00000000
00000000
00000000
00000000
00000000
00000000
00000011
,
00000000
00000000
00000000
00000000
00000000
00001001
00000000
00000000
00000000
00000000
00000000
00000000
00000001
00000000
00000000
00000000
,
00000000
00000000
00000100
00000000
00000000
00000000
00000000
00000000
00000000
00000000
00001000
00000000
00000000
00000000
00000000
00000000
00000000
00000000
00000000
00010000
00000000
00000000
00000000
00000000
00000000
00000000
00000000
00000000
00000000
00000000
00000000
00000000
,
00000000
01000000
10000000
00000000
00000000
00000000
00000000
00000000
00000000
00000000
00000000
00000000
00000000
00000000
00000000
00000000
;

//---------------dance-single - C. Yakumo----------------
#NOTES:
     dance-single:
     C. Yakumo:
     Challenge:
     13:
     1.000,1.000,0.217,0.434,1.000,695.000,23.000,46.000,0.000,0.000,0.000,1.000,1.000,0.217,0.434,1.000,695.000,23.000,46.000,0.000,0.000,0.000: // measure 0
0000
0000
0000
0000
,  // measure 1
0000
0000
0000
0000
,  // measure 2
0000
0000
0000
0000
,  // measure 3
0000
0000
0000
0000
,  // measure 4
1010
0000
0010
0000
0100
0000
0010
0000
1000
0000
0001
0000
0000
0000
0010
0100
,  // measure 5
1000
0010
0100
0001
1000
0100
0010
0100
,  // measure 6
1000
0000
0010
0000
0100
0000
0010
0000
1000
0000
0001
0000
0000
0000
0100
0010
,  // measure 7
1000
0000
0001
0000
1000
0000
0010
0100
0001
0000
0010
0000
0100
0000
1000
0000
,  // measure 8
0001
0000
1000
0000
0100
0000
0010
0000
0100
0000
1000
0000
0010
0000
0100
0001
,  // measure 9
1000
0000
0100
0000
0010
0000
0001
0000
0100
0000
0010
0000
0000
0000
0100
0001
,  // measure 10
0010
0000
0100
0000
1000
0000
0010
0100
0001
0000
0010
0000
0100
0000
0010
0001
,  // measure 11
1000
0000
0010
0100
0000
0001
1000
0100
0010
0001
0100
0001
1000
0000
0000
0000
,  // measure 12
1001
0010
0100
0001
1000
0100
0010
0012
,  // measure 13
0000
0000
0103
0000
0010
0000
1000
0100
0010
0000
0002
0000
0100
0000
0103
0000
,  // measure 14
0010
0000
1000
0000
0001
0000
1000
0010
0100
0000
0001
0000
0010
0000
0210
0000
,  // measure 15
0000
0000
1300
0000
0010
0000
0100
0010
1000
0000
0100
0000
0010
0000
0001
0000
,  // measure 16
0102
0000
0100
0000
1003
0000
0000
0100
0010
0000
0001
0000
1000
0000
1020
0000
,  // measure 17
0000
0130
0001
1000
0100
0001
0100
0010
,  // measure 18
0120
0000
0100
0000
0031
0000
0000
1000
0010
0000
0100
0000
0001
0000
0021
0000
,  // measure 19
0000
0000
0130
0000
1000
0000
0001
0000
0100
0000
0010
0100
0001
0000
1000
0000
,  // measure 20
1100
0000
0100
0000
0010
0000
0000
0001
1000
0000
0010
0000
0100
0000
0102
0000
,  // measure 21
0000
0013
0100
0010
0001
0100
0010
1000
,  // measure 22
1002
0000
1000
0000
0103
0000
0000
0010
1000
0000
0100
0000
0010
0000
0012
0000
,  // measure 23
0000
1003
0010
0100
0001
0010
1000
0010
,  // measure 24
0012
0000
0010
0000
1003
0000
0000
0010
0100
0000
0001
0000
0010
0000
0210
0000
,  // measure 25
0000
1300
0001
0010
0001
0100
0010
0000
,  // measure 26
1010
0000
0000
0000
0000
0000
1000
0000
0000
0010
0000
0000
0100
0000
0000
0000
0000
0000
0001
0000
0000
0010
0000
0000
0100
0000
0000
0000
0000
0000
1000
0000
0000
0000
0000
0000
0010
0000
0000
0000
1000
0000
0000
0000
0001
0000
0000
0000
,  // measure 27
0020
0000
0000
0000
0000
0000
0000
0000
0030
0001
0010
0100
1000
0001
0100
0001
,  // measure 28
1000
0010
1000
0001
0010
0001
0100
0001
1000
0010
1000
0001
0010
0001
0100
0001
,  // measure 29
0010
0100
1000
0001
1000
0010
1000
0001
0010
0100
1000
0001
1000
0010
1000
0001
,  // measure 30
0100
0010
0100
0001
1000
0010
0100
0001
0010
0100
1000
0001
0010
0001
1000
0001
,  // measure 31
0100
0010
1000
0100
1000
0001
0010
0001
0100
0010
1000
0001
0100
0001
1000
0100
,  // measure 32
0010
0001
0010
0100
1000
0001
0100
0001
0010
0001
0010
0100
1000
0001
0100
0001
,  // measure 33
1000
0010
1000
0100
0010
0100
1000
0001
1000
0100
1000
0010
0100
0010
1000
0001
,  // measure 34
0010
0000
0000
0000
0101
0000
0000
1000
0100
0000
1000
0010
1000
0100
0010
0001
,  // measure 35
0100
0010
0000
0010
1000
0000
0001
1000
0010
0100
0010
1000
0001
0010
0100
1000
,  // measure 36
0020
0100
0130
0001
2000
0001
3001
1000
,  // measure 37
0200
0000
0010
0000
0310
0000
0010
0100
0000
1000
0001
0000
0100
0000
0100
0000
,  // measure 38
0001
0000
0010
0000
0100
0000
1000
0000
0001
0000
1000
0001
1000
0000
0010
0000
,  // measure 39
1000
0001
0010
0100
1000
0001
0100
0010
1000
0010
0100
0001
1000
0001
0010
0001
,  // measure 40
1000
0000
0001
1000
0001
0000
1000
0001
1000
0010
0100
0001
1000
0010
0100
0001
,  // measure 41
1000
0010
0100
0001
1000
0010
0100
0001
0010
0001
1000
0010
0100
0001
0100
0010
,  // measure 42
1000
0100
0010
0001
0100
0010
1000
0100
0010
0001
1000
0010
0100
0001
0010
0001
,  // measure 43
0100
0000
0010
1000
0100
0000
1000
0100
0010
0000
0100
1000
0001
0000
0100
0000
,  // measure 44
0010
0000
0200
0000
0000
0302
0000
0000
,  // measure 45
0023
0000
0000
2030
0000
0000
3020
0000
,  // measure 46
0000
0000
0000
0000
0130
2000
0000
0000
,  // measure 47
3020
0000
0000
0000
0000
0000
0000
0000
0000
0000
0000
0000
0000
0000
0000
0000
0000
0000
0000
0000
0000
0000
0000
0000
0032
0000
0000
0000
0000
0000
0000
0000
0000
0000
0000
0000
0000
0000
0000
0000
0000
0000
0000
0000
0000
0000
0000
0000
0023
0000
0000
0000
0000
0000
0000
0000
0000
0000
0000
0000
0000
0000
0000
0030
,  // measure 48
2001
0000
3001
0200
0000
0320
0000
0000
,  // measure 49
0230
0000
0000
2300
0000
0000
3200
0000
,  // measure 50
0000
0000
0301
1000
0010
0000
0010
0000
0000
0000
1000
0000
1000
0000
0100
0010
,  // measure 51
0001
0000
0001
0000
1000
0010
0100
0000
0001
0010
0100
1000
0002
0000
0000
0000
,  // measure 52
2003
0000
0000
0000
0000
0000
3100
0010
0002
0000
0000
0000
0103
0010
1000
0010
,  // measure 53
0100
0010
1000
0001
1000
0100
0010
0001
1000
0000
0010
0000
0100
0000
0001
0000
,  // measure 54
0020
0000
0000
0000
0000
0000
0130
0010
0001
0000
2000
0000
0000
0000
3010
0000
,  // measure 55
0200
0000
0301
1000
0100
0010
0001
0100
,  // measure 56
0010
1000
0001
0010
0200
0000
0000
0000
,  // measure 57
2300
0000
3001
0100
0010
1000
0001
0010
,  // measure 58
0200
0000
0000
1300
0001
1000
0001
0010
0100
1000
0001
1000
0010
0100
0001
1000
,  // measure 59
0100
0010
0001
1000
0010
1000
0001
0100
0010
1000
0001
0010
0100
1000
0100
0010
,  // measure 60
0002
0000
0000
0000
0000
0000
1003
0010
0100
0000
0001
0000
0010
0000
0200
0000
,  // measure 61
0000
0000
0000
0000
0310
0001
1000
0010
0100
0000
0001
0000
1000
0000
0100
0000
,  // measure 62
0210
0000
0000
0000
0000
0000
0310
0001
1000
0000
0010
0000
0100
0000
0002
0000
,  // measure 63
0000
0000
0000
0000
0000
0000
0013
0100
1000
0000
0001
0000
0100
0000
0010
0000
,  // measure 64
2000
0000
0000
0000
,  // measure 65
3002
0000
0000
0000
,  // measure 66
0013
0100
1000
0001
1000
0010
0100
0001
1000
0100
0010
0001
0100
0010
1000
0001
,  // measure 67
1000
0100
0010
0001
1000
0100
1000
0001
0100
0000
0000
0000
0000
0000
0000
0000
,  // measure 68
0001
0010
0001
1000
0100
1000
0010
1000
0010
0100
0001
0100
0010
1000
0001
0010
,  // measure 69
0100
1000
0001
1000
0100
0010
0001
1000
0010
0100
0001
0100
0001
1000
0001
0010
,  // measure 70
0100
1000
0010
0100
0001
0010
0100
1000
,  // measure 71
0001
0100
0010
0000
1000
0000
0100
0010
,  // measure 72
1100
0000
0000
0000
0000
0000
0010
0101
,  // measure 73
0000
0000
0000
0000
0000
0000
0000
0000
0001
0000
0000
0010
0000
0000
0100
0000
,  // measure 74
1000
0010
0100
0001
1000
0100
0000
0000
,  // measure 75
1001
0000
0000
0000
1010
0000
0100
0010
,  // measure 76
0011
0000
0000
0000
0001
0000
0000
0000
1000
0000
0000
0000
0010
0000
0000
0000
0000
0100
0000
0000
0000
0001
0000
0000
0000
0010
0000
0000
0000
0100
0000
0000
,  // measure 77
0000
1000
0000
0000
0000
0000
0001
0000
0000
0000
0100
0000
0000
0000
0010
0000
0000
0000
1000
0000
0000
0000
0000
0100
0000
0000
0000
0000
0010
0000
0000
0000
,  // measure 78
0000
0000
0000
0000
0000
0001
0000
0000
0000
0000
0100
0000
0000
0000
0000
0010
0000
0000
0000
1000
0000
0000
0000
0100
0000
0000
0000
0010
0000
0000
0000
0001
,  // measure 79
0000
0000
0000
1000
0000
0000
0010
0000
0000
0000
0100
0000
0000
0000
0001
0000
0000
0000
0010
0000
0000
0000
0100
0000
0000
0000
0000
1000
0000
0001
0000
0100
,  // measure 80
0000
0000
0000
0000
0010
0000
0000
0000
1000
0000
0000
0000
0000
0001
0000
0000
0000
1000
0000
0000
0000
0010
0000
0000
0000
0000
0000
0100
0000
0000
0000
0000
,  // measure 81
0001
0000
0000
0010
0000
0000
0000
0100
0000
0000
0000
1000
0000
0000
0000
0000
,  // measure 82
0000
0000
0000
0000
0000
0000
0000
0000
0001
0000
0000
0000
0000
0000
0000
0010
,  // measure 83
0000
0000
0000
0000
0000
0100
0000
0000
0000
0000
0000
0000
1000
0000
0000
0000
,  // measure 84
0000
0000
0010
0000
0000
0000
0000
0000
0000
0000
1000
0000
0000
0000
0000
0000
0000
0000
0000
0001
0000
0000
0000
0000
0000
0000
0000
0000
0000
0000
0000
0000
,  // measure 85
0000
0010
0100
0000
0000
0000
0000
0000
0000
0000
0000
0000
0000
0000
0000
0000
;

//---------------dance-double - S. Whirlers----------------
#NOTES:
     dance-double:
     S. Whirlers:
     Hard:
     10:
     0.749,0.963,0.415,0.094,0.387,502.000,44.000,10.000,0.000,0.000,0.000,0.749,0.963,0.415,0.094,0.387,502.000,44.000,10.000,0.000,0.000,0.000:
00000000
00000000
00000000
00000000
,
00000000
00000000
00000000
00000000
,
00000000
00000000
00000000
00000000
,
00000000
00000000
00000000
00000000
,
00000100
00000010
00000000
00000010
00000001
00000100
00000000
00000110
,
00000000
00000101
00000000
00000002
,
00002000
00000003
00000000
00023000
00000000
00000000
20030000
00000000
,
01000000
30000000
00000000
01000000
00100000
00000000
01000000
00000000
,
10020000
00000000
00000000
00030000
00100000
00000000
00021000
00000000
,
00000000
00030000
00001000
00000000
00010000
00000000
00000010
00000000
,
00001002
00000000
00000000
00000003
00000010
00000000
00000000
00000000
,
00000100
00000000
00001000
00000000
,
00000001
00000010
00000100
00010000
00000100
00000010
00001000
00010000
,
00000000
00010000
00001000
00000000
00000000
01000000
00010000
00010000
,
10000000
00100000
01000000
00001000
01000000
00100000
00010000
00001000
,
00000000
00001000
00010000
00000000
00000000
00101000
00000000
00010000
,
10000000
01000000
00100000
00001000
00100000
01000000
00010000
00001000
,
00000000
00001000
00010000
00001000
00000000
00010100
00000000
00000010
,
00000001
00000100
00000010
00010000
00000010
00000100
00001000
00010000
,
00000000
00000000
00010000
00000000
00001000
00000000
00001000
00000000
00000000
00000000
00001000
01000000
00001000
00000000
00010000
00000000
,
00001000
00100000
01000000
00010000
00001000
00000100
00000001
00001000
,
00000000
00000000
00000101
00000000
00000000
00011000
00000000
00001000
,
00010000
00000100
00000010
00001000
00010000
00100000
10000000
00010000
,
00000000
00000000
10100000
00000000
00000000
00011000
00001000
00001000
,
00010000
00000010
00000100
00001000
00010000
01000000
10000000
00010000
,
00000000
10000000
01000000
00100000
00000000
11000000
00000000
10000000
,
00010000
00000000
00000000
00100000
01000000
00000000
00100000
00000000
00001000
00000000
00010000
00000000
00000000
00000000
00010000
00000000
,
00002000
00000000
00000000
00000000
00003000
00001000
01000000
00010000
,
11000000
10000000
00010000
01010000
00010000
00100000
00101000
00001000
,
00010000
00000000
00011000
00000000
00001000
00000000
01000000
00000000
01010000
00000000
00010000
00000000
10000000
01000000
00100000
00010000
,
00100000
00001000
00010000
00100000
00010000
00001000
00000010
00001000
,
00010000
00000100
00000010
00001000
00010000
00100000
01000000
00010000
,
10000000
00000000
01000000
00100000
00000000
00100000
00001000
00000000
00010000
00000000
00001000
01000000
00000000
01000000
00010000
00000000
,
00100000
00000000
00001000
00010000
00000000
00010000
00000100
00000000
00001000
00000000
00000100
00000000
00000010
00000100
00001000
00000001
,
00000100
00000000
00000000
00000000
00001001
00000000
00000000
00001000
00000100
00000000
00000010
00000000
00000100
00000000
00010000
00000000
,
00001000
00000000
00000000
00000000
00001000
01000000
00000000
01000000
00010000
00000000
00100000
00000000
00001000
00010000
00001000
00010000
,
00000100
00000000
00000110
00000000
,
00001000
00000000
00000000
00000000
00011000
00000000
00000000
01001000
00000000
00000000
00001000
00000000
00010000
00000000
00000100
00000000
,
00000010
00000001
00000010
00001000
00100000
00001000
00010000
00010000
,
01000000
10000000
01000000
00010000
00000100
00010000
00001000
00010000
,
00000010
00000100
00000101
00001100
,
00011000
01010000
11000000
00011000
,
00001001
00000010
00000100
00000001
00000010
00001000
00010000
00001000
,
00010000
00100000
10000000
01000000
00100000
00001000
00010000
00000100
,
00012000
00000000
01000000
00000000
00000000
00100000
00000000
00000000
,
10000000
00000000
00000000
01000000
00000000
00000000
00000100
00000000
,
00003000
00000000
00010000
00001000
00000000
00001000
00100000
00000000
,
01000000
00000000
00000000
10000000
00000000
00000000
00010000
00000000
,
00021000
00000000
00000000
00000010
00000000
00000100
00000000
00000000
,
00000001
00000000
00000000
00000010
00000000
00000000
00100000
00000000
,
00030000
00000000
00010000
00001000
00000000
00001000
00000010
00000000
,
00000010
00000001
00000000
00001001
00000000
00000000
00000000
00000000
,
00000110
00000000
00000000
00000000
00000000
00000000
00000010
00000001
00001000
00000000
00000000
00000000
00000010
00000100
00000010
00001000
,
00000001
00000000
00001000
00000000
00000001
00001000
00000100
00000010
00000100
00000000
00010000
00000000
00001000
00000000
01000000
00000000
,
00100000
00000000
00000000
00000000
01000000
00000000
00100000
10000000
00010000
00000000
10000000
00000000
00000000
00000000
10000000
00000000
,
01000000
00000000
10000000
00100000
00010000
00000010
00001000
00000001
,
00000010
00000000
00000100
00000010
00000001
00000000
00001000
00000000
00000001
00000000
00000000
00000000
00000100
00000000
00000001
00000000
,
00000000
00000001
00000010
00001000
00100000
00010000
10000000
00100000
,
10010000
00000000
00000000
00000000
10000000
01000000
10000000
01000000
00100000
00000000
00010000
00000000
01000000
00001000
01000000
00001000
,
00010000
00000000
00001000
00000000
00100000
01000000
00100000
01000000
00010000
00000000
00001000
00000000
00000100
00000010
00000100
00000010
,
00001000
00000000
00000000
00000000
00001001
00000000
00000001
00000100
00001000
00000000
00010000
00000000
01000000
00000000
10000000
00000000
,
00000000
00000000
00000000
00000000
10010000
00000000
10000000
00100000
00010000
00000000
00001000
00000000
00000010
00000000
00000001
00000000
,
00001000
00000000
00000000
00000000
00000101
00000000
00000001
00000010
00001000
00000000
00010000
00000000
00100000
00000000
10000000
00000000
,
00000000
00000000
00000000
00000000
10100000
00000000
10000000
01000000
00010000
00000000
00000000
00000000
00001000
00000000
00000100
00000000
,
00000001
00000000
00001000
00000100
00000010
00000100
00010000
00001000
,
01000000
00000000
00100000
01000000
00001000
00000000
00011000
00000000
,
00001000
00100000
10000000
00100000
00001000
00010000
00000010
00000001
,
00000010
00010000
00001000
00000010
00000001
00000000
00001000
00000000
,
00000001
00000100
00000001
00000100
00000001
00000000
00001000
00000100
00001000
00000100
00001000
00000000
00000010
00000100
00000010
00000100
,
00000001
00000010
00000100
00010000
00001000
01000000
00100000
10000000
,
10010000
01000000
00001000
00010000
00000010
00000100
00001000
01000000
,
00010000
01000000
00100000
00000000
00011000
00000000
00001000
00000010
,
00000001
00000000
00000100
00000000
00001001
00000010
00000001
00000100
,
00000010
00000000
00000000
00000000
00010000
00000000
00000000
00000000
00011000
00000000
00000000
00010000
00000000
00000000
01000000
00000000
,
10000000
00010000
01000000
10000000
01000000
00100000
00000000
00000000
,
01010000
00000000
00000000
00000000
01000100
00000000
00010000
00000100
,
00000010
00000000
00000000
00000000
00000001
00000000
00000000
00000000
00000100
00000000
00000000
00000000
00000010
00000000
00000000
00000000
00000000
00010000
00000000
00000000
00000000
00000100
00000000
00000000
00000000
00010000
00000000
00000000
00000000
00001000
00000000
00000000
,
00000000
01000000
00000000
00000000
00000000
00000000
00001000
00000000
00000000
00000000
00100000
00000000
00000000
00000000
01000000
00000000
00000000
00000000
10000000
00000000
00000000
00000000
00000000
00010000
00000000
00000000
00000000
00000000
00100000
00000000
00000000
00000000
,
00000000
00000000
00000000
00000000
00000000
00100000
00000000
00000000
00000000
00000000
00001000
00000000
00000000
00000000
00000000
00010000
00000000
00000000
00000000
00000010
00000000
00000000
00000000
00000100
00000000
00000000
00000000
00000010
00000000
00000000
00000000
00001000
,
00000000
00000000
00000000
00000001
00000000
00000000
00000010
00000000
00000000
00000000
00000100
00000000
00000000
00000000
00010000
00000000
00000000
00000000
00001000
00000000
00000000
00000000
01000000
00000000
00000000
00000000
00000000
00100000
00000000
00000000
00000000
01000000
,
00000000
00000000
00000000
00000000
00010000
00000000
00000000
00000000
10000000
00000000
00000000
00000000
00000000
01000000
00000000
00000000
00000000
00100000
00000000
00000000
00000000
00001000
00000000
00000000
00000000
00000000
00000000
00100000
00000000
00000000
00000000
00000000
,
00010000
00000000
00000000
01000000
00000000
00000000
00000000
00001000
00000000
00000000
00000000
00010000
00000000
00000000
00000000
00000000
,
00000000
00000000
00000000
00000000
00000000
00000000
00000000
00000000
00000100
00000000
00000000
00000000
00000000
00000000
00000000
00000010
,
00000000
00000000
00000000
00000000
00000000
00000001
00000000
00000000
00000000
00000000
00000000
00000000
00000001
00000000
00000000
00000000
,
00000000
00000000
00000100
00000000
00000000
00000000
00000000
00000000
00000000
00000000
00001000
00000000
00000000
00000000
00000000
00000000
00000000
00000000
00000000
00010000
00000000
00000000
00000000
00000000
00000000
00000000
00000000
00000000
00000000
00000000
00000000
00000000
,
00000000
01000000
10000000
00000000
00000000
00000000
00000000
00000000
00000000
00000000
00000000
00000000
00000000
00000000
00000000
00000000
;

//---------------dance-double - C. Yakumo----------------
#NOTES:
     dance-double:
     C. Yakumo:
     Easy:
     4:
     0.189,0.281,0.104,0.019,0.005,127.000,11.000,2.000,0.000,0.000,0.000,0.189,0.281,0.104,0.019,0.005,127.000,11.000,2.000,0.000,0.000,0.000:
00000000
00000000
00000000
00000000
,
00000000
00000000
00000000
00000000
,
00000000
00000000
00000000
00000000
,
00000000
00000000
00000000
00000000
,
00011000
00000000
00000000
00000000
,
00000000
00000000
00000000
00000000
,
01001000
00000000
00000000
00000000
,
00000000
00000000
00000000
00000000
,
00010010
00000000
00000000
00000000
,
00000000
00000000
00000000
00000000
,
00101000
00000000
00000000
00000000
,
00000000
00000000
00000000
00000000
,
00100000
00000000
01000000
00000000
,
10000000
00000000
00000000
00000000
,
00010000
00000000
01000000
00000000
,
00100000
00000000
00000000
00000000
,
01000000
00000000
00001000
00000000
,
00010000
00000000
00000000
00000000
,
00000100
00000000
00010000
00000000
,
00001000
00000000
00000000
00000000
,
00010000
00000000
00000100
00000000
,
00000010
00000000
00000000
00000000
,
00000001
00000000
00001000
00000000
,
00000010
00000000
00000000
00000000
,
00010000
00000000
00001000
00000000
,
00100000
00000000
00000000
00000000
,
01000000
00000000
10000000
00000000
,
10020000
00000000
00000000
00000000
,
00130000
00000000
01000000
00000000
,
00100000
00000000
01000000
00000000
,
10000000
00000000
00100000
00000000
,
01000000
00000000
00001000
00000000
,
01000000
00000000
00001000
00000000
,
00010000
00000000
00000010
00000000
,
00000100
00000000
00000001
00000000
,
00000020
00000000
00000000
00000000
,
00000130
00000000
00000100
00000000
,
00000100
00000000
00010000
00000000
,
00001000
00000000
00100000
00000000
,
01000000
00000000
10000000
00000000
,
00010000
00000000
00100000
00100000
,
00100000
00100000
00100000
00100000
,
00100000
00000000
00010000
00000000
,
01000000
00000000
00100000
00000000
,
10100000
10000000
00000000
00000000
,
00100000
00000000
00000000
00000000
,
00000000
00000000
00010000
00000000
,
00001000
00000000
00000000
00000000
,
00011000
00010000
00000000
00000000
,
00000100
00000000
00000000
00000000
,
00000000
00000000
00000010
00000000
00000000
00000010
00000000
00000000
,
00000010
00000000
00000000
00000010
00000000
00000000
00000000
00000000
,
00000001
00000000
00001000
00000000
,
00000010
00010000
00001000
00100000
,
00010000
00000000
01000000
00000000
,
00100000
00000000
10000000
00000000
,
01000000
00000000
00100000
00000000
,
00000000
00001000
00001000
00010000
,
00000010
00000000
00000100
00000000
,
00000001
00000000
00000010
00000000
,
00000100
00000000
00010000
00000000
,
00000000
00000000
00000100
00000000
,
00000000
00000000
00000010
00000000
,
00000000
00000000
00000001
00000000
,
00001000
00000000
00000000
00000000
,
00000010
00000000
00000000
00000000
,
00000100
00000000
00000000
00000000
,
00000000
00000000
00000000
00000000
,
00000001
00000000
00000000
00001000
00000000
00000000
00000001
00000000
,
00000000
00001000
00000010
00000000
,
00000100
00000000
00000001
00000000
,
00000010
00000000
00000100
00000000
,
00010000
00000000
00000000
00100000
,
00000000
00000000
01000000
00000000
,
00010000
00000000
10000000
00000000
,
01000000
00000000
00100000
00001000
,
00011000
00000000
00000000
00000000
,
00000000
00000000
00000000
00000000
,
00000000
00000000
00000000
00011000
00000000
00000000
00000000
00000000
00000000
00000000
00000000
00000000
00000000
00000000
00000000
00000000
,
00000000
00000000
00000000
00000000
,
00000000
00011000
00000000
00000000
,
00000000
00000000
00000000
00000000
,
00000000
00000000
00000000
00000000
,
00000000
00000000
00000000
00001000
00000000
00000000
01000000
00000000
,
00100000
00000000
00000000
10000000
00000000
01000000
00000000
00000000
,
00000000
01100000
00000000
00000000
00000000
00000000
00000000
00000000
;

//---------------dance-single - C. Yakumo----------------
#NOTES:
     dance-single:
     C. Yakumo:
     Hard:
     10:
     0.677,0.762,0.255,0.387,0.123,435.000,27.000,41.000,0.000,0.000,0.000,0.677,0.762,0.255,0.387,0.123,435.000,27.000,41.000,0.000,0.000,0.000: // measure 0
0000
0000
0000
0000
,  // measure 1
0000
0000
0000
0000
,  // measure 2
0000
0000
0000
0000
,  // measure 3
0000
0000
0000
0000
,  // measure 4
1000
0100
0000
0100
1000
0010
0000
0100
,  // measure 5
0000
0101
0000
0020
,  // measure 6
2000
0030
0000
3200
0000
0000
0320
0000
,  // measure 7
0001
0030
0010
0000
0100
0000
1100
0000
,  // measure 8
0001
0100
0000
0010
1000
0100
0000
1000
,  // measure 9
0000
0000
0010
0000
0000
0100
0000
0000
,  // measure 10
0001
0010
0000
0100
1000
0010
0000
0100
,  // measure 11
0000
0001
1000
0100
1000
0001
0010
0000
,  // measure 12
0100
0010
0001
0100
0001
0010
0000
0110
,  // measure 13
0000
0000
0100
1000
0000
1000
0001
1000
,  // measure 14
0010
0100
0001
0100
0010
0100
0000
0101
,  // measure 15
0000
0000
0001
1000
0010
1000
0100
0010
,  // measure 16
0001
0100
0010
1000
0100
0001
0000
0101
,  // measure 17
0000
0000
0100
1000
0001
1000
0010
0000
,  // measure 18
0100
0001
0010
0001
1000
0010
0000
0011
,  // measure 19
0000
0000
0001
0000
0010
0000
1000
0000
0100
0000
0010
0001
0010
0000
0100
0000
,  // measure 20
1100
1000
0001
0100
0010
0001
0000
0011
,  // measure 21
0000
0010
1000
0001
1000
0100
0010
0000
,  // measure 22
0001
0100
0001
0010
0100
0010
0000
1010
,  // measure 23
0000
1000
0010
0001
1000
0001
0100
0010
,  // measure 24
1010
1000
0001
1000
0100
0010
0000
0012
,  // measure 25
0000
0000
0103
2010
0000
0100
3100
0010
,  // measure 26
0001
0000
0000
0000
0000
0000
0000
0000
0000
1000
0000
0000
0001
0000
0000
0000
0000
0000
0010
0000
0000
0000
0000
0000
0100
0000
0000
0000
0000
0000
1000
0000
0000
0000
0000
0000
1000
0000
0000
0000
0010
0000
0000
0000
0200
0000
0000
0000
,  // measure 27
0002
0000
0000
0000
0000
0000
0000
0000
0300
0000
1003
0100
1000
0000
0010
0000
,  // measure 28
0100
0001
1000
0010
0100
0001
0100
0010
,  // measure 29
1000
0001
0010
0001
1000
0100
0010
0001
,  // measure 30
1000
0010
0100
1000
0100
0010
1000
0001
,  // measure 31
0010
0100
0010
1000
0010
0100
1000
0100
,  // measure 32
0010
0000
0000
0001
0000
0000
0100
0000
0010
0000
0000
1000
0000
0000
0100
0000
,  // measure 33
0010
0000
0000
0100
0000
0000
1000
0000
0010
0000
0000
0100
0000
0000
0001
0000
,  // measure 34
0010
0000
0110
0001
1000
0010
0100
0100
,  // measure 35
0001
0000
0010
0100
0010
0001
1000
0010
,  // measure 36
0200
0000
0302
0000
,  // measure 37
1003
0000
0000
0000
0001
0000
0000
0010
0000
0000
0100
0000
1000
0000
1000
0000
,  // measure 38
0010
0100
0010
1000
0001
0010
0100
1000
,  // measure 39
0010
1000
0100
0010
0001
0100
0010
1000
,  // measure 40
0100
0010
1100
0101
,  // measure 41
0110
0000
0000
0000
1001
0000
0000
0100
0001
0000
1000
0000
0100
0000
0010
0000
,  // measure 42
0001
0010
1000
0010
0001
1000
0010
0100
,  // measure 43
0001
0100
1000
0100
0010
1000
0100
1000
,  // measure 44
0001
0000
0020
0000
0000
0032
0000
0000
,  // measure 45
2003
0000
0000
3020
0000
0000
0230
0000
,  // measure 46
0000
0000
0000
0000
0000
0000
0000
0300
0010
0000
2000
0000
0000
0000
0000
0000
,  // measure 47
3200
0000
0000
0320
0000
0000
0031
0000
,  // measure 48
1001
0000
1000
0020
0000
0230
0000
0000
,  // measure 49
0302
0000
0000
2003
0000
0000
3200
0000
,  // measure 50
0000
0000
0000
0300
0011
0000
0101
0000
0000
0000
1010
0000
1100
0000
0000
0000
,  // measure 51
0110
0000
1001
0000
0000
0000
0101
0000
0010
1000
0010
1000
0001
0000
0000
0000
,  // measure 52
0020
0000
0000
0000
0000
0030
0010
0001
2000
0000
0000
0000
0000
3000
1000
0010
,  // measure 53
0100
0001
0100
0010
1000
0001
0010
0100
,  // measure 54
2000
0000
0000
3010
0100
0002
0000
0013
,  // measure 55
0200
0000
0310
0001
1000
0010
0100
0001
,  // measure 56
0010
0000
0100
1000
0100
0000
0010
0000
0002
0000
0010
0000
0010
0000
0013
0000
,  // measure 57
0000
2000
0001
0001
3001
0100
0010
1000
,  // measure 58
0002
0000
0013
0100
1000
0001
0010
1000
,  // measure 59
0010
0001
0010
0100
1000
0100
0001
0100
,  // measure 60
2000
0000
0000
3100
0010
0001
0100
0020
,  // measure 61
0000
0000
0000
0000
0030
0000
1000
0010
1000
0000
0001
0000
1000
0000
0200
0000
,  // measure 62
0010
0000
0300
0010
0100
1000
0001
0200
,  // measure 63
0000
0000
0000
0000
0300
0000
0001
0100
0001
0000
0000
0000
0100
0000
0010
0000
,  // measure 64
2000
0000
0000
0000
,  // measure 65
3002
0000
0000
0000
,  // measure 66
0013
0001
1000
0010
0100
0001
0010
0100
,  // measure 67
1000
0000
0001
1000
0001
0000
1000
0100
1000
0000
0000
0000
0000
0000
0000
0000
,  // measure 68
0001
0000
0000
0010
0100
0000
1000
0000
0000
0100
0010
0000
0200
0000
0000
0000
,  // measure 69
0000
0310
0001
1000
0010
0100
0001
0010
,  // measure 70
0100
1000
0100
0001
0100
0010
0001
0100
,  // measure 71
1000
0100
0001
0000
0010
0000
0001
0100
,  // measure 72
0010
0000
1000
0000
1000
0001
1000
0100
,  // measure 73
0000
0000
0000
0000
0010
0000
0000
0000
0001
0000
0000
1000
0000
0000
0010
0000
,  // measure 74
0100
0000
0001
0010
0100
1000
0000
0000
,  // measure 75
0001
0000
0000
0000
1000
0000
0010
0100
,  // measure 76
0102
0000
0000
0000
,  // measure 77
0000
0000
0000
0000
,  // measure 78
0103
0000
0000
0200
0000
0000
0000
0000
0000
0000
0000
0000
0000
0000
0000
0000
,  // measure 79
0000
0000
0000
0000
,  // measure 80
0300
0020
0000
0000
,  // measure 81
0000
0000
0000
0030
,  // measure 82
0000
0000
0000
0000
0000
0000
0000
0000
1000
0000
0000
0000
0000
0000
0000
0010
,  // measure 83
0000
0000
0000
0100
0000
0000
0010
0000
,  // measure 84
1000
0000
0000
0000
0000
0001
0000
0000
0000
0000
0010
0000
0000
0000
0000
0000
,  // measure 85
0000
0110
0000
0000
0000
0000
0000
0000
;
