#TITLE:Like the Wind [Reborn];
#SUBTITLE:;
#ARTIST:sampling masters MEGA;
#TITLETRANSLIT:;
#SUBTITLETRANSLIT:;
#ARTISTTRANSLIT:;
#CREDIT:;
#BANNER:[ZIv Academy] - Like the Wind [Reborn].png;
#BACKGROUND:[ZIv Academy] - Like the Wind [Reborn]-bg.png;
#LYRICSPATH:;
#CDTITLE:cd.png;
#MUSIC:[ZIv Academy] - Like the Wind [Reborn].mp3;
#OFFSET:-0.016;
#SAMPLESTART:2.420;
#SAMPLELENGTH:12.000;
#SELECTABLE:YES;
#DISPLAYBPM:200.000;
#BPMS:0.000=200.000,120.000=100.000,120.500=400.000,121.500=100.000,122.000=200.000,196.500=100.000,211.500=200.000,330.000=150.000,330.500=130.000,331.000=110.000,331.500=90.000,332.000=70.000;
#STOPS:76.500=0.150
,77.000=0.150
,119.000=0.450
,119.500=0.300
,184.000=0.900
;
#BGCHANGES:0.000=[ZIv Academy] - Like the Wind [Reborn].avi=1.000=1=1=0,
99999=-nosongbg-=1.000=0=0=0 // don't automatically add -songbackground-
;

//---------------dance-single - ----------------
#NOTES:
     dance-single:
     :
     Hard:
     9:
     0.671,0.714,0.801,0.198,0.068: // measure 1
0000
0000
0000
0000
,  // measure 2
0000
0000
0000
0000
,  // measure 3
0001
0000
0100
0000
1000
0100
0001
0000
,  // measure 4
0001
0000
0000
0010
0000
0000
0001
0000
1000
0000
0000
0000
0010
0000
0100
0000
,  // measure 5
0000
0001
0000
0001
0000
0001
0000
0001
,  // measure 6
0000
0001
0000
1000
0100
0010
0000
0100
,  // measure 7
1000
0000
0010
0010
0100
0000
0010
0010
,  // measure 8
1000
0001
0100
0001
1000
0100
0010
0001
,  // measure 9
0010
0000
0100
0000
1000
0100
0010
0000
,  // measure 10
0010
0000
0000
0100
0000
0000
1000
0000
0010
0000
0000
0000
0100
0000
0010
0000
,  // measure 11
0000
1010
0000
1000
0000
1100
0000
0011
,  // measure 12
0000
0001
0000
1000
0000
0001
0100
0001
,  // measure 13
1000
0000
1010
0000
0001
0010
0100
0010
,  // measure 14
0001
0000
1000
0010
0000
0110
0000
1001
,  // measure 15
0000
0011
0000
0000
0000
0000
0000
0000
,  // measure 16
0001
1000
0100
0010
0100
1000
0010
0100
,  // measure 17
0101
0000
0101
0000
0100
0010
1000
1010
,  // measure 18
0000
0011
0000
1001
0000
1001
0000
1000
,  // measure 19
0001
0000
1010
0000
1000
0100
0010
0100
,  // measure 20
0000
0110
0011
1001
0000
0001
0101
0000
,  // measure 21
1001
0000
0001
0100
0001
0101
0000
1100
,  // measure 22
0000
1001
0000
0101
0000
1000
0010
0000
,  // measure 23
1010
0000
0200
0000
0301
0010
0000
0110
,  // measure 24
0000
0000
0101
0000
1100
1000
0100
0000
,  // measure 25
0110
0000
0100
1000
0010
0100
0000
0101
,  // measure 26
0000
1010
0000
1001
0000
0001
0010
0000
,  // measure 27
0110
0000
0100
0010
0001
0100
0000
0010
,  // measure 28
1000
0001
0000
1000
0100
0010
0001
0000
,  // measure 29
1001
0000
0001
0100
0001
1000
0000
1100
,  // measure 30
0000
0011
0000
1100
0000
0001
1001
0110
,  // measure 31
2002
0000
0000
3003
,  // measure 32
0010
0100
0001
1000
0100
0001
0100
1000
,  // measure 33
0010
0100
0001
0100
1000
0100
0001
1000
,  // measure 34
0001
0010
1000
0010
0001
0100
1000
0100
,  // measure 35
0001
0010
0010
0100
0020
0000
0031
0001
,  // measure 36
1000
0100
0001
0100
1000
0010
0100
0010
,  // measure 37
1000
0100
0001
0100
1000
0010
0100
0001
,  // measure 38
0100
1000
0100
0001
0010
0100
1000
0001
,  // measure 39
1000
0010
0000
0000
1001
0000
0010
1000
,  // measure 40
0001
0000
0100
0001
1000
0000
1001
0000
,  // measure 41
0001
0010
1000
0010
0001
0000
0011
0000
,  // measure 42
0010
0001
0100
0000
0101
0000
0001
0100
,  // measure 43
1000
0100
0001
0000
0010
0000
0011
0000
,  // measure 44
0001
0000
0100
0010
0010
0010
0020
0000
,  // measure 45
2030
0000
0000
3001
0010
0010
0010
0010
,  // measure 46
1000
0010
0001
0010
1000
0010
0001
0100
,  // measure 47
0010
0000
0000
0101
0000
0100
0000
0010
,  // measure 48
0000
1010
0000
0001
0000
0011
0000
1100
,  // measure 49
0000
0100
0022
0000
0033
0000
1100
0000
,  // measure 50
0010
0000
2002
0000
0000
0000
3003
0001
0100
0001
0010
0000
0000
0100
0000
0100
,  // measure 51
0000
1000
0010
0000
0100
0010
0100
0000
0010
0000
2000
0000
0000
0000
0000
0000
,  // measure 52
3001
0010
0100
0000
0000
0000
0000
0010
0100
0010
0001
0000
0000
1000
0000
0100
,  // measure 53
0010
0001
2000
0000
0000
3010
0010
0000
0100
0000
0002
0000
0000
0000
0000
0000
,  // measure 54
0000
0000
0000
0003
,  // measure 55
1000
0010
0000
0010
1000
0000
1010
0000
,  // measure 56
0100
0000
0011
0000
0100
0000
1001
0100
,  // measure 57
0000
0110
0000
1000
0001
0000
1000
0001
,  // measure 58
0000
0011
0000
1100
0000
0020
0000
0000
,  // measure 59
0030
1000
0000
1100
0000
0011
0000
0010
,  // measure 60
0000
1000
0010
0001
0000
0010
0000
0001
,  // measure 61
2000
0000
3001
0200
0010
0000
0000
0000
,  // measure 62
0001
0000
0010
0000
,  // measure 63
1000
0000
0000
0000
0310
0100
0000
1001
,  // measure 64
0000
0110
0000
1001
0000
0110
0000
1001
,  // measure 65
0000
0110
0000
1100
0000
1100
0000
0000
,  // measure 66
0000
0000
0000
0011
0000
0101
0000
0000
,  // measure 67
2010
0000
0000
0010
0000
3010
0000
0000
,  // measure 68
0000
0000
0000
0110
0000
0101
0000
0000
,  // measure 69
2010
0000
0000
3001
0000
0000
0000
0000
,  // measure 70
0000
0000
0000
1001
0000
1001
0000
0000
,  // measure 71
0021
0000
0000
0100
0000
0130
0000
0000
,  // measure 72
0000
0000
0000
1001
0000
1100
0000
0000
,  // measure 73
1001
0000
0000
0101
0000
0100
0001
0100
,  // measure 74
1000
0100
0010
1000
0100
0001
0100
0010
,  // measure 75
0001
0100
1000
0000
0010
0000
0100
0000
,  // measure 76
0110
0100
1010
0101
,  // measure 77
0011
0000
1100
0000
0000
0010
0001
0100
,  // measure 78
1000
0100
0001
0010
0100
1000
0010
0001
,  // measure 79
0010
1000
0100
0010
0000
0100
0001
0100
,  // measure 80
1000
0010
0001
0010
0100
0001
1000
0100
,  // measure 81
0001
0100
0010
0001
2000
0000
0000
0000
,  // measure 82
0000
0000
3000
1001
0000
1001
0000
0000
,  // measure 83
0110
0000
0000
2002
0000
0000
0000
0000
,  // measure 84
0000
0000
3003
0000
;

//---------------dance-single - ----------------
#NOTES:
     dance-single:
     :
     Easy:
     5:
     0.381,0.486,0.171,0.117,0.059: // measure 1
0000
0000
0000
0000
,  // measure 2
0000
0000
0000
0000
,  // measure 3
0001
0100
0001
1000
,  // measure 4
0100
0000
1000
0000
0010
0000
0100
0010
,  // measure 5
0000
0010
0000
0000
0000
0000
0000
0000
,  // measure 6
0000
0000
0100
0000
,  // measure 7
0110
0000
1001
0000
,  // measure 8
0110
0010
0010
0010
,  // measure 9
0100
0001
1000
0100
,  // measure 10
0001
0000
0100
0000
0010
0000
0001
0010
,  // measure 11
0000
0010
0000
0010
0000
0000
0000
0000
,  // measure 12
0000
0000
0000
0010
,  // measure 13
0001
1000
0010
1000
,  // measure 14
0010
0000
0000
0100
0000
0010
0000
1000
,  // measure 15
0000
0001
0000
0000
0000
0000
0000
0000
,  // measure 16
2002
0000
0000
3003
,  // measure 17
0001
0100
0001
1000
,  // measure 18
0100
0010
0100
1000
,  // measure 19
0010
0001
0010
0100
,  // measure 20
0000
0001
0100
0001
0000
0100
0001
0000
,  // measure 21
1000
0100
1000
0010
,  // measure 22
0100
0010
1000
0010
,  // measure 23
0000
0000
0100
0000
0010
1000
0000
0000
,  // measure 24
0000
0000
0000
0000
0001
1000
0001
0000
,  // measure 25
0100
0001
0010
0001
,  // measure 26
0100
0010
1000
0100
,  // measure 27
0001
0100
0010
0001
,  // measure 28
0010
0001
0100
0010
,  // measure 29
1000
0010
0100
0001
,  // measure 30
1000
0000
0010
0000
0100
0000
0001
1000
,  // measure 31
0020
0000
0000
0030
0000
0000
0000
0000
,  // measure 32
0100
0100
0100
0100
,  // measure 33
0010
0010
0010
0010
,  // measure 34
1000
0001
1000
0001
,  // measure 35
1000
1000
1001
0001
,  // measure 36
0001
0001
0001
0100
,  // measure 37
0001
0001
0001
0100
,  // measure 38
0010
0010
0100
0100
,  // measure 39
0001
0100
0000
0000
0010
0000
0100
0000
,  // measure 40
0010
1000
0010
0100
,  // measure 41
0001
1000
0100
1100
,  // measure 42
0000
0100
0010
0001
,  // measure 43
0011
0000
0000
0000
,  // measure 44
0002
0000
0203
0000
,  // measure 45
0320
0000
2030
0000
,  // measure 46
3200
0000
0320
0000
,  // measure 47
0031
0000
0000
0001
0000
1000
0000
0001
,  // measure 48
0000
1000
0000
0001
0000
1000
0000
0001
,  // measure 49
0000
1000
0001
0000
0000
0000
0101
0000
,  // measure 50
0000
0000
1001
0000
0000
0000
0000
0000
0000
0000
0000
0001
0000
0000
0000
1000
,  // measure 51
0000
0000
0000
0100
0000
0000
0000
1000
0000
0000
0000
0010
0000
0000
0000
0100
,  // measure 52
0000
0000
0000
0010
0000
0000
0000
1000
0000
0000
0000
0001
0000
0000
0000
0010
,  // measure 53
0000
0000
0000
0100
0000
0000
0000
1000
0000
0000
0000
0002
0000
0000
0000
0000
,  // measure 54
0000
0000
0000
0003
,  // measure 55
1000
0000
0001
0100
,  // measure 56
0001
0100
0010
0100
,  // measure 57
0010
0100
0010
1000
,  // measure 58
0010
1000
0010
0100
,  // measure 59
0010
0100
0010
1000
,  // measure 60
0001
0010
0100
0010
,  // measure 61
0001
1000
0010
0000
,  // measure 62
0100
0000
0001
0000
,  // measure 63
1000
0000
0000
0000
0000
1001
0000
0110
,  // measure 64
0000
1001
0000
0110
0000
1001
0000
0110
,  // measure 65
0000
1001
0000
0110
0000
0110
0000
0000
,  // measure 66
0000
0000
0000
0010
0000
0010
0000
0000
,  // measure 67
0100
0000
0000
0001
0000
0001
0000
0000
,  // measure 68
0000
0000
0000
1000
0000
1000
0000
0000
,  // measure 69
0001
0000
0000
0100
0000
0000
0000
0000
,  // measure 70
0000
0000
0000
0010
0000
0010
0000
0000
,  // measure 71
1000
0000
0000
0100
0000
0100
0000
0000
,  // measure 72
0000
0000
0000
0010
0000
0010
0000
0000
,  // measure 73
0001
0000
0000
0010
0000
0001
0010
0000
,  // measure 74
0010
0100
0010
0001
,  // measure 75
0100
0000
0010
0000
0000
1000
0010
0000
,  // measure 76
0100
0010
1000
1000
,  // measure 77
0001
0000
0001
0000
0000
1000
0001
0000
,  // measure 78
0100
0001
0010
0100
,  // measure 79
0010
0000
0001
0000
0000
0100
0001
0000
,  // measure 80
0010
0100
1000
0100
,  // measure 81
1000
0010
0200
0000
,  // measure 82
0000
0000
0000
0310
0000
0010
0000
0000
,  // measure 83
0100
0000
0000
2002
0000
0000
0000
0000
,  // measure 84
3003
0000
0000
0000
;

//---------------dance-single - ----------------
#NOTES:
     dance-single:
     :
     Medium:
     7:
     0.526,0.639,0.441,0.099,0.050: // measure 1
0000
0000
0000
0000
,  // measure 2
0000
0000
0000
0000
,  // measure 3
1001
0101
1001
0101
,  // measure 4
1001
0000
1001
0000
1001
0000
0001
0100
,  // measure 5
0000
0100
0000
0100
0000
0100
0000
0100
,  // measure 6
0000
0100
0000
0010
1000
0010
0000
0010
,  // measure 7
0100
0000
0001
0100
0001
0000
0100
0001
,  // measure 8
0100
0100
0010
0010
,  // measure 9
1010
0011
0011
0011
,  // measure 10
1010
0000
0011
0000
0011
0000
0001
1000
,  // measure 11
0000
1000
0000
1000
0000
1000
0000
1000
,  // measure 12
0000
1000
0000
1000
0000
0001
1000
0001
,  // measure 13
1000
0001
0100
0010
,  // measure 14
0100
0000
0010
1000
0000
1000
0000
0010
,  // measure 15
0000
0100
0000
0000
0000
0000
0000
0000
,  // measure 16
0010
0100
0000
0100
0010
0000
0100
0000
,  // measure 17
0010
0000
1000
0000
0010
0100
0010
0100
,  // measure 18
0000
0001
0000
1000
0000
0100
0000
0010
,  // measure 19
0001
0000
0010
0000
0001
0010
0100
1000
,  // measure 20
0000
0001
1000
0001
0000
0100
0001
0000
,  // measure 21
0100
0000
0010
0100
0010
0100
0000
0010
,  // measure 22
0000
1000
0000
0010
0000
0100
0010
0000
,  // measure 23
0000
0000
0100
0000
0000
0001
0000
1000
,  // measure 24
0000
0000
0100
0000
1000
0100
0010
0000
,  // measure 25
0100
0000
0010
0001
0010
0001
0000
0010
,  // measure 26
0000
0010
0000
0010
0000
0010
0001
0000
,  // measure 27
0100
0000
1000
0100
0010
0100
0000
0100
,  // measure 28
0010
1000
0000
1000
0010
0100
0010
0000
,  // measure 29
0100
0000
0010
1000
0010
1000
0000
0010
,  // measure 30
0000
0010
0000
0010
0000
0100
0001
1000
,  // measure 31
0020
0000
0000
0030
0000
0000
0000
0000
,  // measure 32
0100
0000
0100
0000
0100
0000
0100
0010
,  // measure 33
1000
0000
1000
0000
1000
0000
1000
0010
,  // measure 34
0100
0010
0100
0010
0100
0010
0100
0010
,  // measure 35
0100
0000
0001
0000
1001
0000
0001
1000
,  // measure 36
0001
0000
0001
0000
0001
0000
0001
0100
,  // measure 37
0010
0000
0010
0000
0010
0000
0010
0100
,  // measure 38
0010
0100
0010
1000
,  // measure 39
0001
0101
0000
0000
1001
0000
0001
1000
,  // measure 40
0001
0000
0100
0001
0100
0000
0010
0000
,  // measure 41
0100
0010
0100
0000
0010
0000
1010
0000
,  // measure 42
0000
0010
0100
0001
1000
0000
0100
0000
,  // measure 43
0011
0000
0000
0000
,  // measure 44
1001
0000
0000
0001
0100
0001
0100
0000
,  // measure 45
0020
0000
0000
0130
0010
0100
0010
0100
,  // measure 46
0010
0100
0010
0100
0010
0100
0010
0100
,  // measure 47
1001
0000
0000
0001
0000
0001
0000
1000
,  // measure 48
0000
1000
0000
0100
0000
0100
0000
1000
,  // measure 49
0000
1000
0010
0100
0010
0100
0010
0000
,  // measure 50
0100
0000
0100
0000
0000
0000
0000
0001
0000
1000
0100
0000
0000
1000
0000
0010
,  // measure 51
0000
0100
0010
0000
1000
0000
0010
0000
0100
0000
0002
0000
0000
0000
0000
0000
,  // measure 52
1003
0001
0100
0000
0000
0000
0000
0001
0100
0000
0010
0000
0000
0100
0000
0010
,  // measure 53
1000
0010
1000
0000
0000
0010
0100
0000
0001
0000
2000
0000
0000
0000
0000
0000
,  // measure 54
0000
0000
3000
0000
,  // measure 55
0001
0100
0000
0100
0010
0000
1010
0000
,  // measure 56
1000
1010
0010
1010
,  // measure 57
1000
1010
0010
0110
,  // measure 58
0100
0110
0010
0110
,  // measure 59
0000
0101
0000
1100
0000
0101
0000
1100
,  // measure 60
0000
0001
0001
0100
0000
0010
0000
0100
,  // measure 61
0010
0000
1000
0001
0100
0000
0000
0000
,  // measure 62
0001
0000
0010
0000
,  // measure 63
0100
0000
0000
0000
0000
1001
0000
0110
,  // measure 64
0000
1001
0000
0110
0000
1001
0000
0110
,  // measure 65
0000
1001
0000
0101
0000
0101
0000
0000
,  // measure 66
0000
0000
0000
0001
0000
0100
0000
0000
,  // measure 67
0020
0000
0000
0130
0000
0100
0000
0000
,  // measure 68
0000
0000
0000
0010
0000
0010
0000
0000
,  // measure 69
2000
0000
0000
3001
0000
0000
0000
0000
,  // measure 70
0000
0000
0000
1000
0000
0100
0000
0000
,  // measure 71
0020
0000
0000
0031
0000
0100
0000
0000
,  // measure 72
0000
0000
0000
0010
0000
0010
0000
0000
,  // measure 73
0200
0000
0000
0301
0000
0100
0001
0000
,  // measure 74
0100
0010
1000
0010
,  // measure 75
0100
0010
1010
0010
,  // measure 76
0110
0100
0110
1001
,  // measure 77
0110
1001
0001
0100
,  // measure 78
0010
1000
0100
0010
,  // measure 79
0001
0010
0001
0100
,  // measure 80
0010
1000
0001
0100
,  // measure 81
0010
1000
0020
0000
,  // measure 82
0000
0000
0030
0100
0000
0010
0000
0000
,  // measure 83
1001
0000
0000
0220
0000
0000
0000
0000
,  // measure 84
0000
0000
0330
0000
;
